<?xml version="1.0" standalone="no"?>
<!DOCTYPE svg PUBLIC "-//W3C//DTD SVG 1.1//EN" "http://www.w3.org/Graphics/SVG/1.1/DTD/svg11.dtd" >
<svg xmlns="http://www.w3.org/2000/svg" xmlns:xlink="http://www.w3.org/1999/xlink" version="1.1">
<metadata>
Created by FontForge 20170731 at Wed Feb 10 17:54:37 2021
 By Aleksey,,,
Copyright 2020 The Open Sans Project Authors (https://github.com/googlefonts/opensans)
</metadata>
<defs>
<font id="OpenSansSemiCondensed-SemiBoldItalic" horiz-adv-x="0" >
  <font-face 
    font-family="Open Sans SemiCondensed SemiBold"
    font-weight="600"
    font-style="italic"
    font-stretch="semi-condensed"
    units-per-em="2048"
    panose-1="0 0 0 0 0 0 0 0 0 0"
    ascent="1638"
    descent="-410"
    x-height="1107"
    cap-height="1462"
    bbox="-903 -583 2243 2157"
    underline-thickness="50"
    underline-position="-175"
    slope="-12"
    unicode-range="U+000D-FFFD"
  />
<missing-glyph horiz-adv-x="1229" 
 />
    <glyph glyph-name="f_f" unicode="ff" horiz-adv-x="1182" 
d="M-102 -492q-37 0 -71.5 5.5t-62.5 14.5v182q24 -8 50.5 -13t52.5 -5q67 0 102.5 51t57.5 154l220 1037h-147l22 108l161 65l23 103q20 88 48 155t68 112t96.5 67.5t133.5 22.5q52 0 102 -10.5t90 -30.5l-66 -164q-24 11 -51.5 18.5t-57.5 7.5q-63 0 -96.5 -46.5
t-53.5 -138.5l-20 -96h362l22 103q19 89 47 155.5t68.5 111.5t97.5 67.5t134 22.5q52 0 101.5 -10.5t90.5 -30.5l-66 -164q-25 11 -52.5 18.5t-57.5 7.5q-62 0 -96 -46.5t-53 -138.5l-21 -96h191l-36 -173h-191l-227 -1061q-22 -106 -60.5 -188.5t-105 -129.5t-172.5 -47
q-37 0 -71.5 5.5t-61.5 14.5v182q23 -8 49.5 -13t53.5 -5q67 0 102.5 51.5t56.5 153.5l220 1037h-362l-227 -1061q-22 -106 -60.5 -188.5t-104.5 -129.5t-172 -47z" />
    <glyph glyph-name="fi" unicode="fi" horiz-adv-x="1093" 
d="M-102 -492q-37 0 -71.5 5.5t-62.5 14.5v182q24 -8 50.5 -13t52.5 -5q70 0 104.5 53t55.5 152l220 1037h-147l22 108l161 65l23 103q20 88 48 155t68 112t96.5 67.5t133.5 22.5q52 0 102 -10.5t90 -30.5l-66 -164q-24 11 -51.5 18.5t-57.5 7.5q-63 0 -96.5 -46.5
t-53.5 -138.5l-20 -96h190l-36 -173h-191l-227 -1061q-22 -106 -60.5 -188.5t-104.5 -129.5t-172 -47zM622 0l235 1107h214l-234 -1107h-215zM1012 1273q-50 0 -79.5 24.5t-29.5 74.5q0 42 16 77.5t48 57t79 21.5q49 0 77.5 -22.5t28.5 -72.5q0 -68 -38 -114t-102 -46z" />
    <glyph glyph-name="fl" unicode="fl" horiz-adv-x="1091" 
d="M-102 -492q-37 0 -71.5 5.5t-62.5 14.5v182q24 -8 50.5 -13t52.5 -5q70 0 104.5 53t55.5 152l220 1037h-147l22 108l161 65l23 103q20 88 48 155t68 112t96.5 67.5t133.5 22.5q52 0 102 -10.5t90 -30.5l-66 -164q-24 11 -51.5 18.5t-57.5 7.5q-63 0 -96.5 -46.5
t-53.5 -138.5l-20 -96h190l-36 -173h-191l-227 -1061q-22 -106 -60.5 -188.5t-104.5 -129.5t-172 -47zM621 0l331 1556h215l-331 -1556h-215z" />
    <glyph glyph-name="f_f_i" unicode="ffi" horiz-adv-x="1665" 
d="M-102 -492q-37 0 -71.5 5.5t-62.5 14.5v182q24 -8 50.5 -13t52.5 -5q67 0 102.5 51t57.5 154l220 1037h-147l22 108l161 65l23 103q20 88 48 155t68 112t96.5 67.5t133.5 22.5q52 0 102 -10.5t90 -30.5l-66 -164q-24 11 -51.5 18.5t-57.5 7.5q-63 0 -96.5 -46.5
t-53.5 -138.5l-20 -96h362l22 103q19 89 47 155.5t68.5 111.5t97.5 67.5t134 22.5q52 0 101.5 -10.5t90.5 -30.5l-66 -164q-25 11 -52.5 18.5t-57.5 7.5q-62 0 -96 -46.5t-53 -138.5l-21 -96h191l-36 -173h-191l-227 -1061q-22 -106 -60.5 -188.5t-105 -129.5t-172.5 -47
q-37 0 -71.5 5.5t-61.5 14.5v182q23 -8 49.5 -13t53.5 -5q67 0 102.5 51.5t56.5 153.5l220 1037h-362l-227 -1061q-22 -106 -60.5 -188.5t-104.5 -129.5t-172 -47zM1194 0l236 1107h214l-235 -1107h-215zM1583 1273q-48 0 -78 24.5t-30 74.5q0 42 16.5 77.5t48.5 57t78 21.5
q48 0 77 -22.5t29 -72.5q0 -68 -38 -114t-103 -46z" />
    <glyph glyph-name="f_f_l" unicode="ffl" horiz-adv-x="1665" 
d="M-102 -492q-37 0 -71.5 5.5t-62.5 14.5v182q24 -8 50.5 -13t52.5 -5q67 0 102.5 51t57.5 154l220 1037h-147l22 108l161 65l23 103q20 88 48 155t68 112t96.5 67.5t133.5 22.5q52 0 102 -10.5t90 -30.5l-66 -164q-24 11 -51.5 18.5t-57.5 7.5q-63 0 -96.5 -46.5
t-53.5 -138.5l-20 -96h362l22 103q19 89 47 155.5t68.5 111.5t97.5 67.5t134 22.5q52 0 101.5 -10.5t90.5 -30.5l-66 -164q-25 11 -52.5 18.5t-57.5 7.5q-62 0 -96 -46.5t-53 -138.5l-21 -96h191l-36 -173h-191l-227 -1061q-22 -106 -60.5 -188.5t-105 -129.5t-172.5 -47
q-37 0 -71.5 5.5t-61.5 14.5v182q23 -8 49.5 -13t53.5 -5q67 0 102.5 51.5t56.5 153.5l220 1037h-362l-227 -1061q-22 -106 -60.5 -188.5t-104.5 -129.5t-172 -47zM1196 0l330 1556h215l-331 -1556h-214z" />
    <glyph glyph-name=".notdef" horiz-adv-x="1229" 
 />
    <glyph glyph-name=".null" 
 />
    <glyph glyph-name="nonmarkingreturn" horiz-adv-x="682" 
 />
    <glyph glyph-name="NULL" 
 />
    <glyph glyph-name="NULL" 
 />
    <glyph glyph-name="CR" unicode="&#xd;" horiz-adv-x="441" 
 />
    <glyph glyph-name="space" unicode=" " horiz-adv-x="441" 
 />
    <glyph glyph-name="exclam" unicode="!" horiz-adv-x="523" 
d="M136 439l185 1023h249l-253 -1023h-181zM139 -22q-58 0 -87 30t-29 81q0 69 40.5 124t125.5 55q50 0 79.5 -30t29.5 -83q0 -74 -44 -125.5t-115 -51.5z" />
    <glyph glyph-name="quotedbl" unicode="&#x22;" horiz-adv-x="799" 
d="M560 934l79 528h222l-146 -528h-155zM205 934l78 528h222l-146 -528h-154z" />
    <glyph glyph-name="numbersign" unicode="#" horiz-adv-x="1118" 
d="M101 0l126 427h-200l21 158h225l94 304h-213l21 159h238l124 414h164l-125 -414h211l125 414h161l-123 -414h201l-21 -159h-228l-93 -304h217l-21 -158h-242l-128 -427h-165l130 427h-210l-128 -427h-161zM437 585h211l91 304h-210z" />
    <glyph glyph-name="dollar" unicode="$" horiz-adv-x="984" 
d="M289 -119l45 210q-92 4 -168 25t-132 52l17 205q62 -40 146 -69.5t175 -33.5l86 403q-69 36 -127 80t-93 105.5t-35 148.5q0 123 53.5 205.5t145.5 127.5t207 53l36 162h108l-34 -162q84 -7 148 -28t120 -53l-86 -175q-49 29 -104.5 50t-116.5 25l-81 -385
q74 -39 132.5 -83t92.5 -104.5t34 -149.5q0 -119 -51.5 -204t-145 -134.5t-219.5 -60.5l-44 -210h-109zM481 275q54 8 93 32.5t60.5 64t21.5 90.5q0 35 -11 62t-33.5 50.5t-57.5 45.5zM502 880l69 331q-52 -6 -89.5 -29t-58 -61.5t-20.5 -92.5q0 -30 10.5 -56t32.5 -48.5
t56 -43.5z" />
    <glyph glyph-name="percent" unicode="%" horiz-adv-x="1512" 
d="M225 0l930 1462h175l-928 -1462h-177zM342 565q-106 0 -163.5 71t-57.5 209q0 67 13 151t40.5 169.5t72 157.5t108 116t147.5 44q106 0 164.5 -69t58.5 -206q0 -63 -12.5 -147t-40.5 -170.5t-73 -160t-108.5 -119.5t-148.5 -46zM360 720q38 0 69 37t54 95.5t38.5 125.5
t23.5 128.5t8 103.5q0 61 -17 89.5t-51 28.5q-37 0 -67.5 -35.5t-54 -92t-39.5 -122.5t-24 -129t-8 -108q0 -62 17.5 -91.5t50.5 -29.5zM1059 -19q-109 0 -166 69.5t-57 204.5q0 76 13.5 163t42 172t73.5 154.5t107.5 111.5t143.5 42q106 0 165 -68.5t59 -203.5
q0 -65 -13 -150t-41 -171.5t-73 -160t-108 -118.5t-146 -45zM1074 136q38 0 69 36.5t54 95t39 125.5t23.5 128.5t7.5 103.5q0 61 -17.5 89.5t-51.5 28.5q-38 0 -68.5 -36.5t-53.5 -94t-38.5 -124t-23 -128t-7.5 -104.5q0 -61 17 -90.5t50 -29.5z" />
    <glyph glyph-name="ampersand" unicode="&#x26;" horiz-adv-x="1185" 
d="M367 -20q-156 0 -246.5 85.5t-90.5 243.5q0 109 40.5 197t117 162t186.5 137q-32 64 -51 132.5t-19 141.5q0 118 45.5 209t128.5 143.5t197 52.5q86 0 149.5 -32t98.5 -90.5t35 -138.5q0 -99 -41.5 -180t-115 -148.5t-170.5 -126.5l169 -318q45 59 79 129.5t61 149.5h216
q-30 -82 -69 -162.5t-86 -154t-100 -137.5l156 -275h-254l-67 127q-77 -63 -163 -105t-206 -42zM408 167q50 0 92 16t78.5 43t69.5 58l-196 379q-60 -41 -105 -88.5t-70 -106t-25 -132.5q0 -51 19 -89.5t54 -59t83 -20.5zM554 904q38 27 74 58.5t64.5 68t44.5 78t16 88.5
q0 54 -25.5 86t-73.5 32q-49 0 -81.5 -30.5t-48.5 -79.5t-16 -105q0 -54 12 -103t34 -93z" />
    <glyph glyph-name="quotesingle" unicode="'" horiz-adv-x="443" 
d="M208 934l78 528h222l-146 -528h-154z" />
    <glyph glyph-name="parenleft" unicode="(" horiz-adv-x="588" 
d="M178 -324q-40 75 -67 167.5t-41 193t-14 199.5q0 174 33 342.5t96.5 326t154.5 300.5t207 266h188q-106 -126 -194 -269t-152.5 -300t-99 -325t-34.5 -343q0 -101 10.5 -198.5t32.5 -188t54 -171.5h-174z" />
    <glyph glyph-name="parenright" unicode=")" horiz-adv-x="588" 
d="M-152 -324q106 126 194 269.5t151.5 300t98.5 324.5t35 343q0 99 -11 197.5t-32 190.5t-54 170h175q41 -79 67.5 -170t40 -189.5t13.5 -200.5q0 -177 -33 -346.5t-97 -326t-154.5 -298t-205.5 -264.5h-188z" />
    <glyph glyph-name="asterisk" unicode="*" horiz-adv-x="949" 
d="M673 710l-98 310l-194 -263l-147 134l247 227l-290 89l65 182l287 -151l24 329l199 -33l-89 -317l322 42l2 -192l-305 17l158 -298z" />
    <glyph glyph-name="plus" unicode="+" horiz-adv-x="1046" 
d="M636 810h353v-176h-353v-400h-177v400h-354v176h354v404h177v-404z" />
    <glyph glyph-name="comma" unicode="," horiz-adv-x="493" 
d="M-97 -268q34 78 70 168t68.5 179t54.5 163h216l7 -22q-32 -80 -72.5 -165t-85.5 -167t-91 -156h-167z" />
    <glyph glyph-name="hyphen" unicode="-" horiz-adv-x="604" 
d="M39 452l41 197h478l-41 -197h-478z" />
    <glyph glyph-name="period" unicode="." horiz-adv-x="494" 
d="M140 -22q-57 0 -86 30t-29 80q0 69 40.5 124.5t124.5 55.5q50 0 79.5 -29.5t29.5 -82.5q0 -75 -44.5 -126.5t-114.5 -51.5z" />
    <glyph glyph-name="slash" unicode="/" horiz-adv-x="752" 
d="M-98 -4l804 1471h208l-804 -1471h-208z" />
    <glyph glyph-name="zero" unicode="0" horiz-adv-x="984" 
d="M390 -20q-160 0 -239.5 107.5t-79.5 319.5q0 99 14.5 216.5t45 238.5t77.5 232.5t111.5 199t147 139t184.5 51.5q80 0 139.5 -25.5t99.5 -77t60 -129.5t20 -184q0 -108 -14.5 -230t-45 -244t-77.5 -232t-111.5 -196t-147 -136t-184.5 -50zM412 169q53 0 99 45.5t84.5 122
t68 172.5t50 198t31 198t10.5 172q0 109 -29.5 163t-92.5 54q-53 0 -99.5 -46.5t-85.5 -124.5t-69 -174t-51 -196t-32 -191.5t-11 -158.5q0 -118 29.5 -176t97.5 -58z" />
    <glyph glyph-name="one" unicode="1" horiz-adv-x="984" 
d="M336 0l197 927q11 45 21 88t21.5 87t24.5 91q-20 -20 -46.5 -42.5t-54.5 -42.5l-176 -132l-100 150l452 336h190l-310 -1462h-219z" />
    <glyph glyph-name="two" unicode="2" horiz-adv-x="984" 
d="M-42 0l32 163l415 423q77 79 138.5 148t105 133.5t66.5 128t23 130.5q0 79 -40 122.5t-114 43.5q-48 0 -92 -17t-87.5 -46.5t-88.5 -66.5l-93 152q84 77 181.5 123t218.5 46q109 0 185 -41t115.5 -112.5t39.5 -164.5q0 -121 -48.5 -229t-137.5 -214t-210 -223l-300 -298
v-8h533l-40 -193h-802z" />
    <glyph glyph-name="three" unicode="3" horiz-adv-x="984" 
d="M325 -20q-100 0 -178 17.5t-146 53.5v206q66 -44 152.5 -68t166.5 -24q73 0 130 20.5t97 58.5t60.5 91t20.5 118q0 68 -26 115t-80 71.5t-138 24.5h-103l37 177h87q71 0 133 20t109 58.5t73 93t26 122.5q0 75 -41.5 118.5t-120.5 43.5q-75 0 -142.5 -29t-130.5 -74
l-77 159q84 60 176.5 95t214.5 35q108 0 185 -37t118 -105.5t41 -162.5q0 -103 -41.5 -189t-118 -145t-182.5 -84v-7q99 -23 162 -97t63 -201q0 -94 -33 -179t-99 -152t-165 -105.5t-230 -38.5z" />
    <glyph glyph-name="four" unicode="4" horiz-adv-x="984" 
d="M448 0l68 316h-535l36 177l725 974h230l-205 -967h168l-39 -184h-169l-66 -316h-213zM215 500h339l93 427q10 45 23 95t26 96.5t22 77.5h-8q-29 -51 -58 -95.5t-56 -79.5z" />
    <glyph glyph-name="five" unicode="5" horiz-adv-x="984" 
d="M325 -20q-63 0 -119 8.5t-102.5 23.5t-81.5 35v212q59 -41 135.5 -67t160.5 -26q85 0 147 28t102.5 76t60 109t19.5 127q0 104 -52.5 164t-162.5 60q-51 0 -98 -10t-93 -25l-75 67l195 700h627l-42 -195h-436l-107 -374q30 7 63 12t72 5q101 0 176.5 -43t117.5 -125.5
t42 -202.5q0 -105 -31 -204.5t-97 -179.5t-170 -127.5t-251 -47.5z" />
    <glyph glyph-name="six" unicode="6" horiz-adv-x="984" 
d="M429 -20q-115 0 -192.5 50.5t-116.5 146.5t-39 231q0 112 19 231.5t56 235t91 217.5t124 179q54 62 121.5 110t149.5 75.5t180 27.5q58 0 107 -6.5t86 -16.5l-43 -187q-34 11 -74.5 17.5t-85.5 6.5q-113 0 -204 -57.5t-158.5 -173t-112.5 -292.5h7q33 48 76 83.5t96 56
t115 20.5q133 0 204.5 -92.5t71.5 -249.5q0 -98 -27 -205t-84 -199.5t-148 -150.5t-219 -58zM442 166q63 0 109.5 39.5t77 102t45 133t14.5 133.5q0 86 -35 133t-104 47q-54 0 -99 -26t-76 -66t-45 -83q-11 -24 -18.5 -56t-11 -67.5t-3.5 -70.5q0 -48 9 -88.5t27 -69.5
t45.5 -45t64.5 -16z" />
    <glyph glyph-name="seven" unicode="7" horiz-adv-x="984" 
d="M94 0l693 1269h-586l40 193h818l-31 -153l-698 -1309h-236z" />
    <glyph glyph-name="eight" unicode="8" horiz-adv-x="984" 
d="M420 -20q-126 0 -212 43.5t-130 121t-44 177.5q0 108 41 191t119 147.5t187 114.5q-44 41 -77 88t-52 102.5t-19 120.5q0 114 51 204t145.5 142t223.5 52q111 0 186 -40t113.5 -109t38.5 -156q0 -99 -40.5 -177t-111 -136.5t-159.5 -100.5q60 -47 103 -100.5t67 -117.5
t24 -144q0 -111 -52 -207.5t-153.5 -156t-248.5 -59.5zM431 155q78 0 128.5 34t76 89t26.5 118q0 58 -18.5 105.5t-53.5 88.5t-82 78q-77 -34 -135 -78.5t-91 -105.5t-33 -144q0 -82 49.5 -133.5t132.5 -51.5zM559 868q72 33 121 75t74 94t25 114q0 75 -40.5 116.5
t-107.5 41.5q-58 0 -100.5 -26.5t-65.5 -74.5t-23 -113q0 -75 32 -130t85 -97z" />
    <glyph glyph-name="nine" unicode="9" horiz-adv-x="984" 
d="M260 -20q-62 0 -116 8t-96 20v192q39 -14 93 -24.5t113 -10.5q89 0 159 35.5t124.5 102t95 162.5t69.5 218h-7q-32 -46 -74 -81t-93 -54t-111 -19q-95 0 -158 44t-94 122.5t-31 181.5q0 78 17.5 162t54.5 163.5t94.5 143t137 101t182.5 37.5q107 0 182.5 -47.5
t115.5 -142t40 -235.5q0 -96 -14 -201.5t-42 -211t-68.5 -201t-93.5 -171.5q-40 -64 -89.5 -117.5t-109 -93t-129.5 -61.5t-152 -22zM493 710q48 0 88 20.5t69.5 56t46.5 78.5q23 41 34.5 97t11.5 120q0 67 -16 115t-47.5 74t-79.5 26q-61 0 -107.5 -37.5t-78 -97.5
t-47 -129.5t-15.5 -132.5q0 -92 36.5 -141t104.5 -49z" />
    <glyph glyph-name="colon" unicode=":" horiz-adv-x="497" 
d="M312 834q-57 0 -86 30t-29 79q0 46 18 87t54.5 67t92.5 26q51 0 80 -29.5t29 -81.5q0 -75 -43.5 -126.5t-115.5 -51.5zM133 -22q-57 0 -86 30t-29 80q0 69 40.5 124.5t124.5 55.5q51 0 80.5 -29.5t29.5 -82.5q0 -75 -44.5 -126.5t-115.5 -51.5z" />
    <glyph glyph-name="semicolon" unicode=";" horiz-adv-x="497" 
d="M-103 -268q36 83 71 171t66.5 174.5t55.5 164.5h216l7 -22q-33 -80 -73 -165t-85.5 -167t-91.5 -156h-166zM316 834q-57 0 -86 30t-29 79q0 46 18 87t54.5 67t93.5 26q50 0 79 -29.5t29 -81.5q0 -75 -43.5 -126.5t-115.5 -51.5z" />
    <glyph glyph-name="less" unicode="&#x3c;" horiz-adv-x="1046" 
d="M990 242l-887 423v118l887 448v-195l-644 -308l644 -293v-193z" />
    <glyph glyph-name="equal" unicode="=" horiz-adv-x="1046" 
d="M108 845v175h878v-175h-878zM108 423v175h878v-175h-878z" />
    <glyph glyph-name="greater" unicode="&#x3e;" horiz-adv-x="1046" 
d="M105 435l644 292l-644 309v195l887 -448v-118l-887 -423v193z" />
    <glyph glyph-name="question" unicode="?" horiz-adv-x="770" 
d="M200 439q18 97 43.5 164.5t67 123t106.5 113.5q62 57 109.5 103.5t74.5 96.5t27 118q0 67 -35 102.5t-104 35.5q-66 0 -128 -25.5t-124 -60.5l-56 164q78 51 167 80t180 29q149 0 232 -75.5t83 -212.5q0 -96 -34.5 -171.5t-94.5 -141t-138 -131.5q-64 -57 -101.5 -100
t-58 -90.5t-36.5 -121.5h-180zM214 -22q-57 0 -86.5 30t-29.5 80q0 69 40.5 124.5t125.5 55.5q50 0 79.5 -29.5t29.5 -82.5q0 -75 -44 -126.5t-115 -51.5z" />
    <glyph glyph-name="at" unicode="@" horiz-adv-x="1499" 
d="M641 -177q-136 0 -241.5 42t-178 119.5t-110 186t-37.5 240.5q0 168 41 324.5t117.5 289.5t184 232.5t241 155t288.5 55.5q169 0 286.5 -68.5t179 -192t61.5 -287.5q0 -98 -19.5 -197t-55.5 -189t-88 -160t-117 -110.5t-141 -40.5q-89 0 -130.5 43t-51.5 116h-6
q-40 -72 -97 -116t-132 -44q-99 0 -156.5 63.5t-57.5 193.5q0 80 20.5 164t60 161t95.5 138t128 96.5t157 35.5q84 0 146 -14.5t110 -35.5l-110 -440q-12 -46 -18.5 -79.5t-6.5 -58.5q0 -44 16.5 -64t45.5 -20q45 0 83 36t68.5 95.5t52 132t32.5 146.5t11 137
q0 130 -41.5 223t-126.5 143t-217 50q-125 0 -231.5 -48.5t-191 -134.5t-144.5 -200t-91.5 -246t-31.5 -271q0 -134 44.5 -237.5t136.5 -162t235 -58.5q97 0 188 20.5t177 57.5v-141q-85 -37 -181.5 -59t-195.5 -22zM674 362q68 0 117.5 77.5t86.5 218.5l69 265
q-16 6 -36 9.5t-46 3.5q-64 0 -115 -43t-87 -111t-55 -144.5t-19 -143.5q0 -70 23 -101t62 -31z" />
    <glyph glyph-name="A" unicode="A" horiz-adv-x="1052" 
d="M-125 0l701 1465h267l88 -1465h-223l-19 416h-385l-191 -416h-238zM390 610h296l-11 421q-3 59 -5 118.5t0 113.5h-5q-17 -52 -40 -108.5t-52 -118.5z" />
    <glyph glyph-name="B" unicode="B" horiz-adv-x="1085" 
d="M34 0l309 1462h350q115 0 203 -32.5t137.5 -100.5t49.5 -177q0 -94 -34.5 -173.5t-101 -134.5t-164.5 -79v-7q88 -26 140.5 -98.5t52.5 -179.5q0 -145 -64 -253.5t-181 -167.5t-276 -59h-421zM294 189h168q93 0 157 37.5t96.5 104t32.5 152.5q0 90 -49 139t-147 49h-156z
M435 853h150q81 0 141 33t93 92t33 137q0 79 -45.5 119.5t-143.5 40.5h-139z" />
    <glyph glyph-name="C" unicode="C" horiz-adv-x="1030" 
d="M537 -20q-140 0 -236.5 61.5t-146 178t-49.5 279.5q0 130 28 267.5t85 265.5t142.5 230t200 162t257.5 60q98 0 177.5 -21t149.5 -65l-97 -180q-51 34 -106.5 53.5t-122.5 19.5q-100 0 -178 -51.5t-136 -137t-95.5 -189t-56.5 -208.5t-19 -194q0 -169 63 -253.5
t189 -84.5q67 0 135 17.5t136 44.5v-194q-66 -27 -146 -44t-174 -17z" />
    <glyph glyph-name="D" unicode="D" horiz-adv-x="1182" 
d="M34 0l309 1462h314q231 0 356.5 -127.5t125.5 -376.5q0 -145 -29.5 -285t-90 -261.5t-152.5 -214t-215.5 -145t-280.5 -52.5h-337zM294 193h98q106 0 189.5 44t145 120t102 173t60.5 204.5t20 211.5q0 170 -72.5 247.5t-202.5 77.5h-111z" />
    <glyph glyph-name="E" unicode="E" horiz-adv-x="930" 
d="M34 0l309 1462h671l-41 -191h-450l-87 -414h420l-41 -190h-420l-101 -475h450l-40 -192h-670z" />
    <glyph glyph-name="F" unicode="F" horiz-adv-x="885" 
d="M34 0l309 1462h670l-40 -191h-450l-99 -472h419l-42 -191h-419l-128 -608h-220z" />
    <glyph glyph-name="G" unicode="G" horiz-adv-x="1217" 
d="M581 -20q-232 0 -354 132.5t-122 381.5q0 159 33.5 306t97.5 271.5t156.5 217t210.5 144t260 51.5q108 0 199 -24.5t167 -67.5l-93 -187q-66 40 -136.5 62.5t-150.5 22.5q-119 0 -214 -66.5t-162.5 -179t-103 -251t-35.5 -283.5q0 -109 29.5 -184t91 -114t155.5 -39
q52 0 96.5 8t85.5 20l86 401h-228l41 190h445l-158 -738q-92 -34 -189.5 -54t-207.5 -20z" />
    <glyph glyph-name="H" unicode="H" horiz-adv-x="1220" 
d="M34 0l310 1462h220l-128 -602h468l128 602h220l-310 -1462h-221l141 666h-467l-140 -666h-221z" />
    <glyph glyph-name="I" unicode="I" horiz-adv-x="532" 
d="M33 0l311 1462h219l-310 -1462h-220z" />
    <glyph glyph-name="J" unicode="J" horiz-adv-x="531" 
d="M-154 -407q-52 0 -91 6.5t-69 18.5l23 189q29 -9 60.5 -15.5t66.5 -6.5q57 0 98 30t69 85.5t45 134.5l302 1427h221l-309 -1459q-31 -146 -87.5 -236.5t-138 -132t-190.5 -41.5z" />
    <glyph glyph-name="K" unicode="K" horiz-adv-x="1041" 
d="M34 0l309 1462h221l-151 -704l123 168l432 536h253l-540 -671l243 -791h-242l-186 647l-127 -101l-115 -546h-220z" />
    <glyph glyph-name="L" unicode="L" horiz-adv-x="871" 
d="M34 0l309 1462h221l-270 -1269h449l-39 -193h-670z" />
    <glyph glyph-name="M" unicode="M" horiz-adv-x="1563" 
d="M33 0l310 1462h299l73 -1134h7l554 1134h318l-308 -1462h-213l182 858q11 53 23.5 105t25 101.5t23.5 90.5h-5l-572 -1155h-197l-77 1153h-6q-6 -42 -14.5 -95.5t-18.5 -110.5t-22 -112l-176 -835h-206z" />
    <glyph glyph-name="N" unicode="N" horiz-adv-x="1294" 
d="M33 0l310 1462h251l293 -1119h6q9 56 20.5 122t23.5 130.5t22 114.5l161 752h206l-310 -1462h-246l-299 1138h-6q-5 -38 -13 -89t-18 -107t-20 -109t-19 -94l-156 -739h-206z" />
    <glyph glyph-name="O" unicode="O" horiz-adv-x="1268" 
d="M546 -20q-146 0 -244 58.5t-148 171.5t-50 274q0 116 19.5 234t58 230t96 209t133.5 171t171 115.5t209 41.5q215 0 324 -129.5t109 -368.5q0 -108 -17 -224t-53 -229t-91 -212.5t-130 -176.5t-171.5 -121t-215.5 -44zM561 174q69 0 128 35t107.5 96.5t85.5 141.5
t62.5 171t39 186t13.5 184q0 147 -57.5 225t-166.5 78q-71 0 -132 -36t-109.5 -99.5t-85.5 -144.5t-62.5 -172t-38 -181.5t-12.5 -173.5q0 -104 26.5 -173t77.5 -103t124 -34z" />
    <glyph glyph-name="P" unicode="P" horiz-adv-x="1033" 
d="M34 0l309 1462h310q142 0 231.5 -45t131.5 -127t42 -192q0 -122 -38 -222t-111 -173t-178 -112.5t-240 -39.5h-121l-116 -551h-220zM411 740h93q103 0 176.5 41.5t112.5 118t39 182.5q0 98 -51 144.5t-154 46.5h-103z" />
    <glyph glyph-name="Q" unicode="Q" horiz-adv-x="1268" 
d="M698 -348l-145 331q-8 -1 -16 -1h-16q-137 4 -230 64t-140 171t-47 267q0 116 19.5 234t58 230t96 209t133.5 171t171 115.5t209 41.5q215 0 324 -129.5t109 -368.5q0 -108 -17 -224t-52.5 -229.5t-90 -213t-129 -176t-168.5 -117.5l193 -375h-262zM561 174q70 0 129 35
t107 96.5t85.5 141.5t63 171t38.5 186t13 184q0 147 -57.5 225t-166.5 78q-71 0 -132 -36t-109.5 -99.5t-85.5 -144.5t-62.5 -172t-38 -181.5t-12.5 -173.5q0 -104 26.5 -173t77.5 -103t124 -34z" />
    <glyph glyph-name="R" unicode="R" horiz-adv-x="1052" 
d="M34 0l309 1462h292q200 0 305 -88.5t105 -264.5q0 -117 -37.5 -213t-109 -162.5t-173.5 -97.5l193 -636h-240l-158 592h-141l-125 -592h-220zM418 775h103q74 0 129.5 24.5t92.5 67t55.5 99.5t18.5 122q0 96 -51.5 140.5t-155.5 44.5h-86z" />
    <glyph glyph-name="S" unicode="S" horiz-adv-x="928" 
d="M320 -20q-101 0 -182 19t-141 56l18 217q65 -40 143 -67.5t165 -27.5q54 0 101.5 14t83 42t55.5 71t20 101q0 54 -18 94.5t-57 80.5t-104 91q-62 50 -111.5 103t-78 120t-28.5 157q0 98 33 177.5t94.5 136.5t146.5 87.5t189 30.5q95 0 180 -23t154 -65l-91 -187
q-58 35 -121.5 56.5t-128.5 21.5q-47 0 -88.5 -14t-72 -42t-48 -68t-17.5 -92q0 -54 20 -95t60 -79t100 -86q70 -52 118.5 -107t73 -121.5t24.5 -153.5q0 -104 -34.5 -186.5t-99 -141t-155.5 -89.5t-203 -31z" />
    <glyph glyph-name="T" unicode="T" horiz-adv-x="900" 
d="M215 0l269 1269h-314l41 193h849l-41 -193h-314l-269 -1269h-221z" />
    <glyph glyph-name="U" unicode="U" horiz-adv-x="1201" 
d="M495 -20q-124 0 -210 43t-130 124.5t-44 194.5q0 35 5 80t14 91l203 949h220l-202 -953q-9 -39 -14 -77.5t-5 -67.5q0 -93 47.5 -141.5t139.5 -48.5q85 0 142 36t94 109.5t61 185.5l205 957h221l-210 -980q-32 -153 -97 -266t-172 -174.5t-268 -61.5z" />
    <glyph glyph-name="V" unicode="V" horiz-adv-x="1025" 
d="M262 0l-78 1462h220l32 -904q2 -46 2.5 -95t-1 -100t-5.5 -102h6q13 42 30 87.5t37.5 95t44.5 102.5l418 916h235l-695 -1462h-246z" />
    <glyph glyph-name="W" unicode="W" horiz-adv-x="1584" 
d="M200 0l-8 1462h213l-5 -854q-1 -83 -4.5 -162.5t-9.5 -144.5h6q26 73 57 155t63 154l363 852h200l1 -841q1 -81 -1.5 -164t-6.5 -156h6q17 52 36 105.5t39.5 106.5t40.5 104l344 845h225l-614 -1462h-249l-1 825q-1 49 -1 92.5t1.5 85t3.5 83.5h-6q-19 -60 -41 -118
t-49 -122l-358 -846h-245z" />
    <glyph glyph-name="X" unicode="X" horiz-adv-x="988" 
d="M-116 0l518 765l-180 697h229l118 -521l334 521h241l-479 -713l196 -749h-237l-126 567l-373 -567h-241z" />
    <glyph glyph-name="Y" unicode="Y" horiz-adv-x="944" 
d="M236 0l119 558l-172 904h226l103 -649l374 649h243l-554 -903l-118 -559h-221z" />
    <glyph glyph-name="Z" unicode="Z" horiz-adv-x="916" 
d="M-62 0l32 159l754 1111h-502l41 192h765l-32 -160l-756 -1109h538l-40 -193h-800z" />
    <glyph glyph-name="bracketleft" unicode="[" horiz-adv-x="609" 
d="M-47 -329l383 1801h420l-36 -167h-225l-313 -1467h226l-36 -167h-419z" />
    <glyph glyph-name="backslash" unicode="\" horiz-adv-x="757" 
d="M416 -5l-203 1472h190l207 -1472h-194z" />
    <glyph glyph-name="bracketright" unicode="]" horiz-adv-x="609" 
d="M-142 -329l35 167h225l312 1467h-226l36 167h420l-384 -1801h-418z" />
    <glyph glyph-name="asciicircum" unicode="^" horiz-adv-x="999" 
d="M33 585l520 882h122l291 -882h-183l-205 619l-352 -619h-193z" />
    <glyph glyph-name="underscore" unicode="_" horiz-adv-x="736" 
d="M-184 -317l29 144h739l-30 -144h-738z" />
    <glyph glyph-name="grave" unicode="`" horiz-adv-x="578" 
d="M504 1241q-33 38 -74 93.5t-76.5 113.5t-55.5 101v20h234q13 -48 30 -98.5t38 -102.5t44 -103l-1 -24h-139z" />
    <glyph glyph-name="a" unicode="a" horiz-adv-x="1041" 
d="M332 -20q-77 0 -136 39t-92.5 117.5t-33.5 195.5q0 103 20.5 213.5t60.5 214t99 186.5t135.5 132t170.5 49q59 0 104 -21t77.5 -59t50.5 -91h8l53 151h175l-235 -1107h-169l15 165h-6q-40 -53 -84.5 -95t-97 -66t-115.5 -24zM413 160q66 0 120.5 53t95 137.5t62.5 178.5
q18 73 25.5 131t7.5 111q0 79 -36 126.5t-101 47.5q-52 0 -98 -37.5t-82.5 -100.5t-62.5 -141.5t-40 -161.5t-14 -158q0 -93 31.5 -139.5t91.5 -46.5z" />
    <glyph glyph-name="b" unicode="b" horiz-adv-x="1044" 
d="M488 -20q-61 0 -107.5 21.5t-78 59t-49.5 86.5h-8l-57 -147h-168l330 1556h215l-84 -392q-8 -36 -18 -77t-20.5 -78t-18.5 -61h6q37 53 79.5 93t93 63t111.5 23q77 0 136 -39t92.5 -116.5t33.5 -196.5q0 -102 -20.5 -212.5t-60 -214t-98.5 -187t-136.5 -132.5t-172.5 -49
zM461 159q52 0 97.5 38.5t82 102.5t62 142.5t39 161t13.5 156.5q0 94 -31 139.5t-94 45.5q-47 0 -88.5 -28.5t-76 -78t-62 -111.5t-46 -129.5t-28.5 -134t-10 -122.5q0 -85 36 -133.5t106 -48.5z" />
    <glyph glyph-name="c" unicode="c" horiz-adv-x="823" 
d="M416 -20q-105 0 -182 41.5t-119.5 125t-42.5 208.5q0 109 21.5 219t64.5 209.5t107.5 176.5t150.5 122t194 45q73 0 136 -15t117 -45l-75 -172q-37 21 -81.5 35.5t-92.5 14.5q-78 0 -138.5 -53t-101 -138.5t-61.5 -185t-21 -193.5q0 -70 19.5 -118t57 -72t90.5 -24
q57 0 112 19.5t113 51.5v-183q-53 -30 -121 -49.5t-147 -19.5z" />
    <glyph glyph-name="d" unicode="d" horiz-adv-x="1047" 
d="M331 -20q-76 0 -135 39t-92.5 117.5t-33.5 196.5q0 101 20 211t59.5 213.5t98 187t134.5 133t169 49.5q60 0 105 -21t77 -57.5t51 -84.5h7q4 31 9.5 68.5t12 77t14.5 74.5l78 372h215l-330 -1556h-171l15 162h-6q-41 -54 -85 -95t-96 -64t-116 -23zM415 159q49 0 90.5 30
t76 81t61.5 115t45.5 132t28 133.5t9.5 117.5q0 83 -35 130t-105 47q-54 0 -100 -39t-82.5 -104t-62 -144t-38.5 -161t-13 -153q0 -92 32 -138.5t93 -46.5z" />
    <glyph glyph-name="e" unicode="e" horiz-adv-x="949" 
d="M433 -20q-111 0 -192 44.5t-125.5 130.5t-44.5 209q0 147 37 283.5t107.5 244.5t171 171.5t227.5 63.5q140 0 216.5 -69.5t76.5 -191.5q0 -89 -37.5 -161.5t-111 -124t-182 -79t-251.5 -27.5h-30q-4 -24 -6.5 -49.5t-2.5 -50.5q0 -109 49 -165.5t144 -56.5
q72 0 132.5 18.5t137.5 57.5v-171q-72 -39 -147.5 -58t-168.5 -19zM323 632h21q119 0 198.5 27t119.5 77t40 118q0 48 -27 76t-82 28t-108 -40t-95 -113.5t-67 -172.5z" />
    <glyph glyph-name="f" unicode="f" horiz-adv-x="605" 
d="M-102 -492q-37 0 -71.5 5.5t-62.5 14.5v182q24 -8 50.5 -13t52.5 -5q70 0 104.5 53t55.5 152l220 1037h-147l22 108l161 65l23 103q20 88 48 155t68 112t96.5 67.5t133.5 22.5q52 0 102 -10.5t90 -30.5l-66 -164q-24 11 -51.5 18.5t-57.5 7.5q-63 0 -96.5 -46.5
t-53.5 -138.5l-20 -96h190l-36 -173h-191l-227 -1061q-22 -106 -60.5 -188.5t-104.5 -129.5t-172 -47z" />
    <glyph glyph-name="g" unicode="g" horiz-adv-x="966" 
d="M261 -492q-183 0 -282.5 69.5t-99.5 201.5q1 107 71 188t207 129q-34 18 -54 51t-20 76q0 64 43 115t128 99q-52 33 -81 93.5t-29 142.5q0 105 40.5 200.5t115.5 156.5q51 45 119.5 70.5t147.5 25.5q44 0 80.5 -7t66.5 -17h329l-27 -127l-164 -32q13 -24 19.5 -56
t5.5 -69q0 -90 -31.5 -175t-87.5 -145q-55 -56 -130.5 -87.5t-169.5 -31.5q-28 0 -48 1t-33 1q-54 -21 -80.5 -52.5t-26.5 -63.5q0 -28 22 -43q13 -9 34.5 -14t52.5 -7l145 -8q97 -7 158 -37.5t90 -84t29 -129.5q0 -115 -49.5 -202.5t-138.5 -142.5q-68 -43 -157.5 -65.5
t-194.5 -23.5zM271 -335q72 0 131.5 16t101.5 46q43 30 67.5 74.5t24.5 97.5q0 22 -6 40t-21 32q-18 17 -52 27t-84 14l-141 8q-61 -7 -110 -40t-77 -80.5t-28 -99.5q0 -71 49.5 -103.5t144.5 -31.5zM461 526q61 0 106 40.5t72.5 109t30.5 153.5q3 42 -4 72.5t-24 48.5
q-13 14 -32.5 21.5t-45.5 7.5q-46 0 -84 -26t-66 -69t-44 -96t-18 -109q-1 -33 3 -59t15 -45q26 -49 91 -49z" />
    <glyph glyph-name="h" unicode="h" horiz-adv-x="1043" 
d="M21 0l330 1556h215l-78 -359q-7 -38 -18.5 -81t-23.5 -86t-24 -81h7q35 51 78 91t96.5 63.5t117.5 23.5q77 0 131 -31t82.5 -89t28.5 -142q0 -39 -7.5 -89t-17.5 -99l-144 -677h-215l141 666q10 46 16 86.5t6 74.5q0 55 -26 84.5t-81 29.5q-60 0 -114 -44t-97.5 -132.5
t-72.5 -221.5l-115 -543h-215z" />
    <glyph glyph-name="i" unicode="i" horiz-adv-x="492" 
d="M21 0l235 1107h214l-234 -1107h-215zM411 1273q-50 0 -79.5 24.5t-29.5 74.5q0 42 16 77.5t48 57t79 21.5q49 0 77.5 -22.5t28.5 -72.5q0 -68 -38 -114t-102 -46z" />
    <glyph glyph-name="j" unicode="j" horiz-adv-x="493" 
d="M-130 -492q-37 0 -71.5 5t-61.5 15v183q23 -9 50 -14t53 -5q43 0 73.5 21t52 67t36.5 121l255 1206h214l-261 -1229q-23 -110 -61.5 -193.5t-105 -130t-173.5 -46.5zM412 1273q-49 0 -78.5 24.5t-29.5 74.5q0 42 16 77.5t48 57t79 21.5q48 0 77 -22.5t29 -72.5
q0 -68 -38.5 -114t-102.5 -46z" />
    <glyph glyph-name="k" unicode="k" horiz-adv-x="940" 
d="M20 0l331 1556h215l-148 -690q-10 -50 -22 -97t-23.5 -88t-21.5 -75h6l429 501h243l-415 -472l210 -635h-235l-150 480l-127 -112l-76 -368h-216z" />
    <glyph glyph-name="l" unicode="l" horiz-adv-x="490" 
d="M20 0l331 1556h215l-331 -1556h-215z" />
    <glyph glyph-name="m" unicode="m" horiz-adv-x="1563" 
d="M20 0l235 1107h171l-20 -175h8q35 55 79 99t99 70t121 26q98 0 152.5 -49t70.5 -141h7q36 54 82 97t102.5 68t121.5 25q113 0 173.5 -66.5t60.5 -189.5q0 -37 -5.5 -79t-14.5 -86l-149 -706h-216l147 692q9 39 13.5 73t4.5 60q0 58 -25 87.5t-76 29.5q-46 0 -86.5 -27
t-74.5 -75.5t-59.5 -113.5t-41.5 -141l-124 -585h-214l148 698q8 38 12 70t4 56q0 58 -24 88t-75 30q-49 0 -92 -30.5t-78 -85t-62 -129t-45 -161.5l-114 -536h-216z" />
    <glyph glyph-name="n" unicode="n" horiz-adv-x="1043" 
d="M19 0l235 1108h173l-19 -177h5q36 56 81 100.5t100.5 71t122.5 26.5q75 0 130.5 -29.5t86 -87t30.5 -143.5q0 -41 -7.5 -90t-17.5 -98l-145 -681h-217l142 671q9 44 15.5 84.5t6.5 72.5q0 56 -26 84t-79 28q-62 0 -117 -48.5t-98 -140t-72 -220.5l-112 -531h-218z" />
    <glyph glyph-name="o" unicode="o" horiz-adv-x="1021" 
d="M421 -19q-107 0 -185.5 46t-121.5 132.5t-43 206.5q0 98 20 203.5t61 204.5t104 178.5t149.5 126.5t197.5 47q108 0 186 -46.5t119.5 -134t41.5 -210.5q0 -104 -20 -210.5t-61.5 -204t-104.5 -174t-148.5 -121t-194.5 -44.5zM441 161q53 0 98.5 34t81 93t60.5 134t38 157
t13 162q0 59 -14.5 105t-47 73t-85.5 27q-58 0 -105.5 -38t-83 -100.5t-59.5 -139t-36.5 -156t-12.5 -148.5q0 -98 39 -150.5t114 -52.5z" />
    <glyph glyph-name="p" unicode="p" horiz-adv-x="1044" 
d="M-81 -485l337 1592h172l-20 -174h8q39 57 84 101t98.5 68.5t115.5 24.5q77 0 136 -38t92.5 -116.5t33.5 -199.5q0 -104 -21 -215t-61 -214t-98.5 -185.5t-135.5 -130.5t-170 -48q-60 0 -104 21.5t-74.5 59t-49.5 85.5h-7q-6 -57 -15 -114.5t-20 -106.5l-88 -410h-213z
M460 161q53 0 99 38t82 101t62 141.5t39.5 161.5t13.5 158q0 94 -31 140t-93 46q-47 0 -88.5 -29t-76 -79t-62 -112.5t-46.5 -131t-29 -134.5t-10 -121q0 -84 35.5 -131.5t104.5 -47.5z" />
    <glyph glyph-name="q" unicode="q" horiz-adv-x="1047" 
d="M471 -490l93 432q5 26 14.5 63t21 77t21.5 75h-7q-37 -52 -80.5 -92t-94.5 -62.5t-113 -22.5q-74 0 -132.5 38t-91.5 115.5t-33 194.5q0 101 20.5 211.5t60.5 215t99 188.5t136.5 134t172.5 50q63 0 107.5 -21t75.5 -59.5t50 -90.5h7l53 151h174l-339 -1597h-215z
M417 161q47 0 87.5 29t75 79t61.5 112.5t46 131t29 135.5t10 123q0 79 -35.5 126.5t-104.5 47.5q-54 0 -99.5 -38t-82 -101.5t-62 -142t-39 -161t-13.5 -156.5q0 -93 32 -139t95 -46z" />
    <glyph glyph-name="r" unicode="r" horiz-adv-x="718" 
d="M21 0l234 1107h168l-21 -193h9q38 65 81.5 113t96.5 74t118 26q24 0 48 -3t46 -10l-55 -215q-19 7 -42 10.5t-49 3.5q-59 0 -108 -30.5t-88 -83t-66.5 -120t-43.5 -141.5l-113 -538h-215z" />
    <glyph glyph-name="s" unicode="s" horiz-adv-x="803" 
d="M282 -20q-92 0 -161.5 16.5t-120.5 44.5v197q53 -35 124.5 -58.5t141.5 -23.5q57 0 99.5 18t66 52.5t23.5 83.5q0 35 -12.5 63t-44 59t-89.5 73q-60 44 -100.5 87t-61 93t-20.5 113q0 98 43 172t124.5 115.5t194.5 41.5q90 0 168.5 -22t139.5 -59l-80 -164
q-48 32 -105.5 51.5t-117.5 19.5q-66 0 -107.5 -34.5t-41.5 -95.5q0 -32 11.5 -58.5t41.5 -54.5t83 -65q60 -45 104 -87.5t68 -95t24 -127.5q0 -109 -47.5 -189t-136 -123t-211.5 -43z" />
    <glyph glyph-name="t" unicode="t" horiz-adv-x="647" 
d="M312 -20q-108 0 -166.5 54.5t-58.5 169.5q0 29 4.5 65t12.5 77l125 588h-130l23 110l157 66l110 241h144l-53 -244h224l-37 -173h-223l-127 -599q-5 -25 -9 -49t-4 -43q0 -40 19.5 -60.5t61.5 -20.5q28 0 60 6.5t66 19.5v-168q-38 -18 -92.5 -29t-106.5 -11z" />
    <glyph glyph-name="u" unicode="u" horiz-adv-x="1044" 
d="M323 -20q-78 0 -132.5 30.5t-82.5 89t-28 140.5q0 39 6.5 88.5t16.5 97.5l145 681h215l-143 -678q-10 -43 -15.5 -80.5t-5.5 -68.5q0 -56 25.5 -86t79.5 -30q64 0 119.5 49t99 141.5t70.5 221.5l113 531h214l-234 -1107h-170l17 174h-8q-35 -54 -80.5 -98t-100.5 -70
t-121 -26z" />
    <glyph glyph-name="v" unicode="v" horiz-adv-x="871" 
d="M190 0l-79 1107h214l26 -592q2 -36 3 -85.5t1 -97.5t-2 -80h8q14 36 30.5 77.5t34 81t31.5 71.5l294 625h227l-547 -1107h-241z" />
    <glyph glyph-name="w" unicode="w" horiz-adv-x="1357" 
d="M139 0l-14 1107h207l-3 -557q-1 -79 -4 -150t-9 -136h7q12 40 29 88t35 93t31 77l247 585h237l-1 -570q0 -64 -2 -137t-6 -141h6q15 46 33.5 99t39 107.5t40.5 104.5l222 537h219l-481 -1107h-246l3 605q0 40 1.5 83.5t3.5 89t4 89.5h-7q-13 -39 -27.5 -78t-29.5 -78
t-33 -79l-262 -632h-240z" />
    <glyph glyph-name="x" unicode="x" horiz-adv-x="898" 
d="M-92 0l418 571l-171 536h226l102 -370l249 370h246l-403 -548l184 -559h-228l-112 391l-268 -391h-243z" />
    <glyph glyph-name="y" unicode="y" horiz-adv-x="879" 
d="M-41 -493q-45 0 -76 6t-56 14l15 182q24 -7 50 -11.5t54 -4.5q72 0 119.5 47t89.5 130l63 132l-101 1105h214l34 -559q4 -47 5.5 -98t2 -100t-0.5 -88h6q13 36 30.5 82t37 92.5t37.5 85.5l273 585h228l-635 -1290q-49 -99 -104.5 -168t-124.5 -105.5t-161 -36.5z" />
    <glyph glyph-name="z" unicode="z" horiz-adv-x="776" 
d="M-58 0l28 136l562 797h-367l37 174h612l-32 -152l-553 -781h405l-37 -174h-655z" />
    <glyph glyph-name="braceleft" unicode="{" horiz-adv-x="699" 
d="M449 -324q-165 1 -240.5 63.5t-75.5 178.5q0 30 4.5 60.5t10.5 61.5l49 227q4 23 8 45t4 43q0 67 -43.5 100t-141.5 33l37 175q112 1 175 45t85 146l66 312q25 113 74 177.5t130.5 91.5t203.5 27h32l-38 -174q-91 -1 -139 -34.5t-68 -128.5l-67 -310q-23 -104 -85.5 -166
t-175.5 -79l-1 -6q80 -22 118 -72.5t38 -124.5q0 -24 -3.5 -52.5t-10.5 -59.5l-46 -221q-5 -21 -7.5 -39.5t-2.5 -33.5q0 -61 34 -85t105 -25l-2 -175h-27z" />
    <glyph glyph-name="bar" unicode="|" horiz-adv-x="944" 
d="M392 -481v2041h177v-2041h-177z" />
    <glyph glyph-name="braceright" unicode="}" horiz-adv-x="698" 
d="M-106 -324l1 175q64 0 109 15t73 50.5t41 98.5l67 310q22 103 85 165t176 78l1 6q-80 23 -118.5 73.5t-38.5 123.5q0 25 4 53t11 59l47 221q5 21 7 39.5t2 34.5q0 59 -38 84.5t-115 25.5l34 174h18q109 0 176.5 -27t98.5 -80t31 -130q0 -29 -4 -62t-10 -64l-49 -228
q-5 -23 -9 -44.5t-4 -42.5q0 -67 44.5 -100t141.5 -33l-37 -175q-74 -1 -127 -20.5t-85.5 -61.5t-47.5 -109l-66 -312q-25 -113 -72.5 -177.5t-127.5 -92t-201 -27.5h-18z" />
    <glyph glyph-name="asciitilde" unicode="~" horiz-adv-x="1046" 
d="M519 637q-61 30 -109.5 43.5t-92.5 13.5q-51 0 -108 -33t-107 -88v191q46 52 103.5 79t127.5 27q60 0 115 -15t128 -48q64 -30 111.5 -43t90.5 -13q53 0 110.5 33.5t104.5 86.5v-190q-45 -51 -102.5 -78t-126.5 -27q-61 0 -115 14t-130 47z" />
    <glyph glyph-name="uni00A0" unicode="&#xa0;" horiz-adv-x="441" 
 />
    <glyph glyph-name="exclamdown" unicode="&#xa1;" horiz-adv-x="523" 
d="M-54 -374l260 1032h170l-181 -1032h-249zM331 830q-51 0 -80.5 29t-29.5 81q0 76 44 127.5t115 51.5q57 0 86 -30t29 -81q0 -44 -18 -85.5t-54 -67t-92 -25.5z" />
    <glyph glyph-name="cent" unicode="&#xa2;" horiz-adv-x="984" 
d="M348 -20l45 208q-111 27 -172 117.5t-61 250.5q0 99 19 201t57 196t94.5 171t131.5 128.5t168 65.5l34 165h140l-35 -165q52 -5 98 -19.5t84 -34.5l-75 -173q-37 20 -81 34.5t-90 14.5q-76 0 -136.5 -51.5t-102.5 -136t-64 -185t-22 -199.5q0 -106 43 -158.5t123 -52.5
q56 0 108 17.5t104 45.5l25 -169q-53 -33 -118 -51t-134 -22l-42 -198h-141z" />
    <glyph glyph-name="sterling" unicode="&#xa3;" horiz-adv-x="985" 
d="M-30 0l38 181q54 19 96.5 54t73.5 90t49 136l39 185h-164l34 165h164l63 302q26 120 78.5 202.5t134 125t192.5 42.5q89 0 164.5 -23.5t133.5 -60.5l-89 -172q-44 28 -96 48t-108 20q-77 0 -126 -48.5t-72 -158.5l-59 -277h282l-35 -165h-281l-38 -179
q-23 -108 -71.5 -172.5t-113.5 -100.5h581l-41 -194h-829z" />
    <glyph glyph-name="currency" unicode="&#xa4;" horiz-adv-x="1079" 
d="M914 273l-132 129q-48 -31 -102 -48t-112 -17q-59 0 -114.5 17t-101.5 49l-129 -128l-104 105l130 130q-33 47 -50 100.5t-17 112.5q0 58 17 111.5t50 102.5l-132 131l106 106l131 -131q47 33 102.5 50.5t111.5 17.5q58 0 111.5 -17.5t102.5 -50.5l131 131l107 -104
l-132 -131q32 -47 50 -102t18 -114q0 -60 -17.5 -114.5t-49.5 -101.5l129 -129zM568 488q66 0 120.5 32t86.5 85.5t32 117.5q0 65 -32.5 119t-87 86.5t-119.5 32.5q-64 0 -118 -32t-86 -86t-32 -120q0 -65 32 -118.5t85.5 -85t118.5 -31.5z" />
    <glyph glyph-name="yen" unicode="&#xa5;" horiz-adv-x="981" 
d="M256 0l54 252h-241l31 145h240l33 158h-240l32 145h195l-135 762h217l88 -638l357 638h228l-458 -762h201l-31 -145h-243l-34 -158h244l-30 -145h-243l-54 -252h-211z" />
    <glyph glyph-name="brokenbar" unicode="&#xa6;" horiz-adv-x="944" 
d="M392 772v788h177v-788h-177zM392 -480v788h177v-788h-177z" />
    <glyph glyph-name="section" unicode="&#xa7;" horiz-adv-x="874" 
d="M305 12q-91 0 -162.5 18.5t-119.5 47.5v176q59 -40 132.5 -64.5t145.5 -24.5q96 0 149.5 44t53.5 117q0 33 -17 59.5t-51 52t-85 54.5q-62 34 -109.5 74t-74.5 91t-27 116q0 70 26 123.5t73.5 95t109.5 72.5q-45 38 -70.5 87t-25.5 113q0 84 44.5 150.5t126 106.5
t192.5 41q89 0 164 -20.5t137 -56.5l-72 -146q-51 32 -109.5 51t-121.5 19q-45 0 -82.5 -15.5t-60.5 -45.5t-23 -76q0 -50 37.5 -85t112.5 -75q70 -39 117.5 -80t71.5 -88t24 -105q0 -70 -25.5 -125t-70 -99t-102.5 -80q37 -33 62.5 -80.5t25.5 -110.5q0 -98 -49 -173
t-137.5 -117t-209.5 -42zM506 610q49 32 83 81.5t34 111.5q0 38 -17 68t-53.5 58.5t-94.5 58.5q-39 -15 -69 -42t-47.5 -62t-17.5 -77q0 -39 18.5 -71t58.5 -62t105 -64z" />
    <glyph glyph-name="dieresis" unicode="&#xa8;" horiz-adv-x="1039" 
d="M830 1285q-43 0 -68.5 22t-25.5 67q0 59 33 100.5t94 41.5q41 0 65.5 -21.5t24.5 -65.5q0 -64 -34 -104t-89 -40zM481 1285q-43 0 -68.5 22t-25.5 67q0 59 32.5 100.5t93.5 41.5q28 0 47.5 -9.5t30.5 -28.5t11 -49q0 -64 -33.5 -104t-87.5 -40z" />
    <glyph glyph-name="copyright" unicode="&#xa9;" horiz-adv-x="1700" 
d="M848 -20q-167 0 -305.5 57t-238.5 159t-154 238.5t-54 296.5q0 163 57.5 301t160 239t240 156.5t297.5 55.5q161 0 298.5 -56.5t239.5 -158.5t158.5 -239t56.5 -299q0 -163 -56 -300.5t-158.5 -238t-240.5 -156t-301 -55.5zM882 270q-202 0 -308.5 123t-106.5 337
q0 139 49.5 242.5t143.5 161t227 57.5q68 0 135.5 -16t129.5 -47l-61 -129q-51 26 -101 39t-96 13q-123 0 -190.5 -83.5t-67.5 -237.5q0 -160 62.5 -240t194.5 -80q51 0 109 13.5t112 37.5v-139q-52 -24 -108 -38t-124 -14zM851 98q134 0 247.5 47t198 132t131 200.5
t46.5 252.5q0 136 -46.5 251.5t-131 202t-198.5 134.5t-248 48q-138 0 -252.5 -48t-198 -134t-129.5 -202t-46 -252q0 -139 47 -254.5t131.5 -200t199 -131t249.5 -46.5z" />
    <glyph glyph-name="ordfeminine" unicode="&#xaa;" horiz-adv-x="656" 
d="M336 770q-47 0 -90.5 24.5t-70.5 78.5t-27 143q0 79 20 160t60.5 149.5t101.5 110t142 41.5q62 0 97.5 -28.5t53.5 -73.5h8l35 89h111l-146 -681h-114l12 99h-7q-33 -49 -77 -80.5t-109 -31.5zM381 895q38 0 67.5 23t52 60t37.5 81t22 87.5t7 77.5q0 61 -21.5 95
t-67.5 34q-41 0 -73.5 -29t-56 -77.5t-36 -107t-12.5 -117.5q0 -65 21 -96t60 -31z" />
    <glyph glyph-name="guillemotleft" unicode="&#xab;" horiz-adv-x="982" 
d="M270 107l-207 437l2 24l370 420l137 -102l-284 -341l150 -366zM681 107l-205 428l2 25l366 426l138 -100l-280 -349l146 -358z" />
    <glyph glyph-name="logicalnot" unicode="&#xac;" horiz-adv-x="1046" 
d="M981 810v-560h-176v384h-699v176h875z" />
    <glyph glyph-name="uni00AD" unicode="&#xad;" horiz-adv-x="603" 
d="M39 452l41 197h478l-41 -197h-478z" />
    <glyph glyph-name="registered" unicode="&#xae;" horiz-adv-x="1700" 
d="M564 293v888h263q163 0 245 -66.5t82 -198.5q0 -93 -43 -150.5t-112 -87.5l218 -385h-183l-181 345h-125v-345h-164zM728 765h91q79 0 123 37.5t44 107.5q0 72 -39.5 104t-127.5 32h-91v-281zM848 -20q-167 0 -305.5 57t-238.5 159t-154 238.5t-54 296.5q0 163 57.5 301
t160 239t240 156.5t297.5 55.5q161 0 298.5 -56.5t239.5 -158.5t158.5 -239t56.5 -299q0 -163 -56 -300.5t-158.5 -238t-240.5 -156t-301 -55.5zM851 98q134 0 247.5 47t198 132t131 200.5t46.5 252.5q0 136 -46.5 251.5t-131 202t-198.5 134.5t-248 48q-138 0 -252.5 -48
t-198 -134t-129.5 -202t-46 -252q0 -139 47 -254.5t131.5 -200t199 -131t249.5 -46.5z" />
    <glyph glyph-name="overscore" unicode="&#xaf;" horiz-adv-x="881" 
d="M194 1556l36 159h885l-35 -159h-886z" />
    <glyph glyph-name="degree" unicode="&#xb0;" horiz-adv-x="810" 
d="M404 868q-92 0 -163 38.5t-112 108t-41 160.5q0 92 41 161t112.5 108t162.5 39q93 0 164.5 -39t112 -108t40.5 -161t-41 -161t-112.5 -107.5t-163.5 -38.5zM405 1009q76 0 120.5 45t44.5 121q0 77 -44.5 122t-120.5 45q-78 0 -121.5 -46t-43.5 -121q0 -76 45 -121
t120 -45z" />
    <glyph glyph-name="plusminus" unicode="&#xb1;" horiz-adv-x="1046" 
d="M106 0v175h884v-175h-884zM636 857h353v-175h-353v-401h-177v401h-354v175h354v405h177v-405z" />
    <glyph glyph-name="uni00B2" unicode="&#xb2;" horiz-adv-x="669" 
d="M110 852l26 132l253 241q64 60 108.5 108t68 91.5t23.5 90.5q0 44 -24.5 68.5t-67.5 24.5t-86 -22.5t-86 -58.5l-66 116q58 52 128 79t152 27q110 0 167.5 -58t57.5 -146q0 -75 -30.5 -137.5t-86 -121t-129.5 -122.5l-178 -164h338l-31 -148h-537z" />
    <glyph glyph-name="uni00B3" unicode="&#xb3;" horiz-adv-x="669" 
d="M353 836q-67 0 -123.5 14.5t-97.5 38.5v154q47 -32 102.5 -50t117.5 -18q82 0 129 41t47 110q0 54 -33.5 83.5t-96.5 29.5h-92l27 127h79q57 0 98 19t63 52.5t22 77.5q0 47 -26.5 71.5t-73.5 24.5q-46 -1 -88 -18t-85 -47l-62 113q57 43 123.5 66t142.5 23
q83 0 135 -26.5t77 -72.5t25 -103q0 -91 -53 -150t-144 -86l-1 -8q62 -19 95.5 -64t33.5 -115q0 -89 -42.5 -153.5t-119.5 -99t-179 -34.5z" />
    <glyph glyph-name="acute" unicode="&#xb4;" horiz-adv-x="572" 
d="M232 1241l1 23q40 46 81 98.5t78 106t66 100.5h245l-1 -18q-21 -28 -61.5 -70t-88.5 -87.5t-94 -86t-80 -66.5h-146z" />
    <glyph glyph-name="uni00B5" unicode="&#xb5;" horiz-adv-x="1050" 
d="M-85 -491l339 1598h214l-142 -676q-9 -43 -14 -78.5t-5 -62.5q0 -60 27 -92.5t79 -32.5q61 0 115 44t97.5 133.5t72.5 225.5l115 539h213l-234 -1107h-167l13 159h-6q-33 -55 -72.5 -95t-85 -62t-100.5 -22q-48 0 -81.5 21t-53.5 57h-6q-3 -27 -7.5 -61.5t-10 -69
t-11.5 -65.5l-74 -353h-215z" />
    <glyph glyph-name="paragraph" unicode="&#xb6;" horiz-adv-x="1157" 
d="M614 -260l-1 859q-22 -7 -48 -11t-60 -4q-84 0 -147 33.5t-105 96.5t-62.5 153t-20.5 202q0 121 25 212.5t73 152.5t118 91.5t159 30.5h491v-1816h-131v1671h-161v-1671h-130z" />
    <glyph glyph-name="periodcentered" unicode="&#xb7;" horiz-adv-x="497" 
d="M254 576q-57 0 -86 30t-29 80q0 69 40.5 124.5t124.5 55.5q50 0 79.5 -29.5t29.5 -82.5q0 -75 -44.5 -126.5t-114.5 -51.5z" />
    <glyph glyph-name="cedilla" unicode="&#xb8;" horiz-adv-x="391" 
d="M-55 -492q-38 0 -71 5t-60 12v127q20 -5 48.5 -9.5t59.5 -4.5q42 0 71.5 12t45 35t15.5 55q0 41 -34 64t-103 30l101 166h128l-57 -96q60 -14 100 -53.5t40 -109.5q0 -72 -34.5 -124.5t-97.5 -80.5t-152 -28z" />
    <glyph glyph-name="uni00B9" unicode="&#xb9;" horiz-adv-x="669" 
d="M341 851l113 525q10 44 21 85.5t20 72.5q-17 -15 -35.5 -30.5t-34.5 -26.5l-119 -80l-71 113l318 218h147l-186 -877h-173z" />
    <glyph glyph-name="ordmasculine" unicode="&#xba;" horiz-adv-x="656" 
d="M388 769q-111 0 -171 69t-60 192q0 83 21.5 163t64 144.5t106.5 102.5t148 38q111 0 169.5 -67.5t58.5 -190.5q0 -76 -19.5 -155.5t-60.5 -146.5t-105 -108t-152 -41zM405 899q42 0 73.5 28.5t52.5 75.5t31 103t10 110q0 66 -22.5 99t-68.5 33q-42 0 -74 -28t-53.5 -75
t-32.5 -102.5t-11 -110.5q0 -68 24 -100.5t71 -32.5z" />
    <glyph glyph-name="guillemotright" unicode="&#xbb;" horiz-adv-x="983" 
d="M543 107l-136 103l283 341l-149 365l168 72l207 -437l-2 -25zM134 110l-137 100l280 348l-147 358l168 72l203 -428l-1 -25z" />
    <glyph glyph-name="onequarter" unicode="&#xbc;" horiz-adv-x="1499" 
d="M158 0l1069 1462h178l-1067 -1462h-180zM293 586l113 525q10 44 21 85.5t20 72.5q-17 -15 -35.5 -30.5t-34.5 -26.5l-119 -80l-71 113l318 218h147l-186 -877h-173zM1073 2l38 179h-334l24 125l447 579h180l-122 -571h109l-28 -133h-109l-39 -179h-166zM956 314h183
l47 212q10 42 18.5 77t19.5 74q-17 -28 -40.5 -62t-45.5 -62z" />
    <glyph glyph-name="onehalf" unicode="&#xbd;" horiz-adv-x="1597" 
d="M151 0l1069 1462h178l-1067 -1462h-180zM293 586l113 525q10 44 21 85.5t20 72.5q-17 -15 -35.5 -30.5t-34.5 -26.5l-119 -80l-71 113l318 218h147l-186 -877h-173zM862 1l26 132l253 241q64 60 108.5 108t68 91.5t23.5 90.5q0 44 -24.5 68.5t-67.5 24.5t-86 -22.5
t-86 -58.5l-66 116q58 52 128 79t152 27q110 0 167.5 -58t57.5 -146q0 -75 -30.5 -137.5t-86 -121t-129.5 -122.5l-178 -164h338l-31 -148h-537z" />
    <glyph glyph-name="threequarters" unicode="&#xbe;" horiz-adv-x="1548" 
d="M304 571q-67 0 -123.5 14.5t-97.5 38.5v154q47 -32 102.5 -50t117.5 -18q82 0 129 41t47 110q0 54 -33.5 83.5t-96.5 29.5h-92l27 127h79q57 0 98 19t63 52.5t22 77.5q0 47 -26.5 71.5t-73.5 24.5q-46 -1 -88 -18t-85 -47l-62 113q57 43 123.5 66t142.5 23
q83 0 135 -26.5t77 -72.5t25 -103q0 -91 -53 -150t-144 -86l-1 -8q62 -19 95.5 -64t33.5 -115q0 -89 -42.5 -153.5t-119.5 -99t-179 -34.5zM217 0l1069 1462h178l-1067 -1462h-180zM1122 1l38 179h-334l24 125l447 579h180l-122 -571h109l-28 -133h-109l-39 -179h-166z
M1005 313h183l47 212q10 42 18.5 77t19.5 74q-17 -28 -40.5 -62t-45.5 -62z" />
    <glyph glyph-name="questiondown" unicode="&#xbf;" horiz-adv-x="768" 
d="M571 655q-18 -96 -44 -164.5t-67 -123.5t-107 -114q-62 -56 -109.5 -102.5t-74.5 -96.5t-27 -118q0 -67 35.5 -102.5t103.5 -35.5q66 0 128 25.5t125 60.5l56 -165q-79 -50 -167.5 -79.5t-180.5 -29.5q-148 0 -231.5 76t-83.5 213q0 96 34.5 171.5t95 141.5t137.5 131
q65 57 102 99.5t58 90.5t36 122h181zM557 1116q57 0 86 -30t29 -80q0 -70 -40.5 -125t-125.5 -55q-50 0 -79.5 29.5t-29.5 82.5q0 75 44.5 126.5t115.5 51.5z" />
    <glyph glyph-name="Agrave" unicode="&#xc0;" horiz-adv-x="1052" 
d="M-125 0l701 1465h267l88 -1465h-223l-19 416h-385l-191 -416h-238zM390 610h296l-11 421q-3 59 -5 118.5t0 113.5h-5q-17 -52 -40 -108.5t-52 -118.5zM722 1609q-33 38 -74 93.5t-76.5 113.5t-55.5 101v20h234q13 -48 30 -98.5t38 -102.5t44 -103l-1 -24h-139z" />
    <glyph glyph-name="Aacute" unicode="&#xc1;" horiz-adv-x="1052" 
d="M-125 0l701 1465h267l88 -1465h-223l-19 416h-385l-191 -416h-238zM390 610h296l-11 421q-3 59 -5 118.5t0 113.5h-5q-17 -52 -40 -108.5t-52 -118.5zM607 1609l1 23q40 46 81 98.5t78 106t66 100.5h245l-1 -18q-21 -28 -61.5 -70t-88.5 -87.5t-94 -86t-80 -66.5h-146z
" />
    <glyph glyph-name="Acircumflex" unicode="&#xc2;" horiz-adv-x="1052" 
d="M-125 0l701 1465h267l88 -1465h-223l-19 416h-385l-191 -416h-238zM390 610h296l-11 421q-3 59 -5 118.5t0 113.5h-5q-17 -52 -40 -108.5t-52 -118.5zM412 1609l2 23q42 42 91.5 95t96.5 107.5t79 102.5h212q15 -44 39.5 -100t53 -110.5t50.5 -93.5l-3 -24h-133
q-20 23 -43.5 52t-46.5 62t-45 67q-56 -54 -109 -99.5t-102 -81.5h-142z" />
    <glyph glyph-name="Atilde" unicode="&#xc3;" horiz-adv-x="1052" 
d="M-125 0l701 1465h267l88 -1465h-223l-19 416h-385l-191 -416h-238zM390 610h296l-11 421q-3 59 -5 118.5t0 113.5h-5q-17 -52 -40 -108.5t-52 -118.5zM403 1611q18 89 49 151t77 94.5t108 32.5q45 0 80.5 -17t65 -39.5t55.5 -39.5t53 -17q36 0 58 26t41 89h128
q-20 -99 -54 -160.5t-79 -90t-100 -28.5q-44 0 -78.5 17.5t-64 40t-56.5 39.5t-57 17q-34 0 -58 -28.5t-39 -86.5h-129z" />
    <glyph glyph-name="Adieresis" unicode="&#xc4;" horiz-adv-x="1052" 
d="M-125 0l701 1465h267l88 -1465h-223l-19 416h-385l-191 -416h-238zM390 610h296l-11 421q-3 59 -5 118.5t0 113.5h-5q-17 -52 -40 -108.5t-52 -118.5zM918 1653q-43 0 -68.5 22t-25.5 67q0 59 33 100.5t94 41.5q41 0 65.5 -21.5t24.5 -65.5q0 -64 -34 -104t-89 -40z
M569 1653q-43 0 -68.5 22t-25.5 67q0 59 32.5 100.5t93.5 41.5q28 0 47.5 -9.5t30.5 -28.5t11 -49q0 -64 -33.5 -104t-87.5 -40z" />
    <glyph glyph-name="Aring" unicode="&#xc5;" horiz-adv-x="1052" 
d="M-125 0l701 1465h267l88 -1465h-223l-19 416h-385l-191 -416h-238zM390 610h296l-11 421q-3 59 -5 118.5t0 113.5h-5q-17 -52 -40 -108.5t-52 -118.5zM753 1587q-103 0 -164 59.5t-61 161.5q0 100 62.5 159.5t162.5 59.5t163.5 -59t63.5 -157q0 -102 -63 -163t-164 -61z
M754 1700q48 0 77.5 29t29.5 78t-29.5 78.5t-77.5 29.5t-77.5 -29.5t-29.5 -78.5t27 -78t80 -29z" />
    <glyph glyph-name="AE" unicode="&#xc6;" horiz-adv-x="1477" 
d="M-128 0l814 1462h876l-40 -191h-451l-88 -414h422l-41 -190h-421l-100 -475h450l-40 -192h-671l89 417h-333l-226 -417h-240zM445 611h267l140 660h-54z" />
    <glyph glyph-name="Ccedilla" unicode="&#xc7;" horiz-adv-x="1030" 
d="M537 -20q-140 0 -236.5 61.5t-146 178t-49.5 279.5q0 130 28 267.5t85 265.5t142.5 230t200 162t257.5 60q98 0 177.5 -21t149.5 -65l-97 -180q-51 34 -106.5 53.5t-122.5 19.5q-100 0 -178 -51.5t-136 -137t-95.5 -189t-56.5 -208.5t-19 -194q0 -169 63 -253.5
t189 -84.5q67 0 135 17.5t136 44.5v-194q-66 -27 -146 -44t-174 -17zM386 -492q-38 0 -71 5t-60 12v127q20 -5 48.5 -9.5t59.5 -4.5q42 0 71.5 12t45 35t15.5 55q0 41 -34 64t-103 30l101 166h128l-57 -96q60 -14 100 -53.5t40 -109.5q0 -72 -34.5 -124.5t-97.5 -80.5
t-152 -28z" />
    <glyph glyph-name="Egrave" unicode="&#xc8;" horiz-adv-x="930" 
d="M34 0l309 1462h671l-41 -191h-450l-87 -414h420l-41 -190h-420l-101 -475h450l-40 -192h-670zM676 1598q-33 38 -74 93.5t-76.5 113.5t-55.5 101v20h234q13 -48 30 -98.5t38 -102.5t44 -103l-1 -24h-139z" />
    <glyph glyph-name="Eacute" unicode="&#xc9;" horiz-adv-x="930" 
d="M34 0l309 1462h671l-41 -191h-450l-87 -414h420l-41 -190h-420l-101 -475h450l-40 -192h-670zM563 1598l1 23q40 46 81 98.5t78 106t66 100.5h245l-1 -18q-21 -28 -61.5 -70t-88.5 -87.5t-94 -86t-80 -66.5h-146z" />
    <glyph glyph-name="Ecircumflex" unicode="&#xca;" horiz-adv-x="930" 
d="M34 0l309 1462h671l-41 -191h-450l-87 -414h420l-41 -190h-420l-101 -475h450l-40 -192h-670zM375 1588l2 23q42 42 91.5 95t96.5 107.5t79 102.5h212q15 -44 39.5 -100t53 -110.5t50.5 -93.5l-3 -24h-133q-20 23 -43.5 52t-46.5 62t-45 67q-56 -54 -109 -99.5
t-102 -81.5h-142z" />
    <glyph glyph-name="Edieresis" unicode="&#xcb;" horiz-adv-x="930" 
d="M34 0l309 1462h671l-41 -191h-450l-87 -414h420l-41 -190h-420l-101 -475h450l-40 -192h-670zM875 1632q-43 0 -68.5 22t-25.5 67q0 59 33 100.5t94 41.5q41 0 65.5 -21.5t24.5 -65.5q0 -64 -34 -104t-89 -40zM526 1632q-43 0 -68.5 22t-25.5 67q0 59 32.5 100.5
t93.5 41.5q28 0 47.5 -9.5t30.5 -28.5t11 -49q0 -64 -33.5 -104t-87.5 -40z" />
    <glyph glyph-name="Igrave" unicode="&#xcc;" horiz-adv-x="532" 
d="M33 0l311 1462h219l-310 -1462h-220zM461 1608q-33 38 -74 93.5t-76.5 113.5t-55.5 101v20h234q13 -48 30 -98.5t38 -102.5t44 -103l-1 -24h-139z" />
    <glyph glyph-name="Iacute" unicode="&#xcd;" horiz-adv-x="532" 
d="M33 0l311 1462h219l-310 -1462h-220zM358 1608l1 23q40 46 81 98.5t78 106t66 100.5h245l-1 -18q-21 -28 -61.5 -70t-88.5 -87.5t-94 -86t-80 -66.5h-146z" />
    <glyph glyph-name="Icircumflex" unicode="&#xce;" horiz-adv-x="532" 
d="M33 0l311 1462h219l-310 -1462h-220zM168 1609l2 23q42 42 91.5 95t96.5 107.5t79 102.5h212q15 -44 39.5 -100t53 -110.5t50.5 -93.5l-3 -24h-133q-20 23 -43.5 52t-46.5 62t-45 67q-56 -54 -109 -99.5t-102 -81.5h-142z" />
    <glyph glyph-name="Idieresis" unicode="&#xcf;" horiz-adv-x="532" 
d="M33 0l311 1462h219l-310 -1462h-220zM674 1653q-43 0 -68.5 22t-25.5 67q0 59 33 100.5t94 41.5q41 0 65.5 -21.5t24.5 -65.5q0 -64 -34 -104t-89 -40zM325 1653q-43 0 -68.5 22t-25.5 67q0 59 32.5 100.5t93.5 41.5q28 0 47.5 -9.5t30.5 -28.5t11 -49q0 -64 -33.5 -104
t-87.5 -40z" />
    <glyph glyph-name="Eth" unicode="&#xd0;" horiz-adv-x="1183" 
d="M34 0l136 651h-124l39 181h124l134 630h314q231 0 356.5 -127.5t125.5 -376.5q0 -147 -30 -287t-90.5 -261.5t-152.5 -213.5t-215.5 -144t-279.5 -52h-337zM294 193h98q109 0 193 46t145.5 124t101 176t58.5 203t19 204q0 170 -72.5 247.5t-202.5 77.5h-111l-93 -439h224
l-39 -181h-225z" />
    <glyph glyph-name="Ntilde" unicode="&#xd1;" horiz-adv-x="1294" 
d="M33 0l310 1462h251l293 -1119h6q9 56 20.5 122t23.5 130.5t22 114.5l161 752h206l-310 -1462h-246l-299 1138h-6q-5 -38 -13 -89t-18 -107t-20 -109t-19 -94l-156 -739h-206zM525 1590q18 89 49 151t77 94.5t108 32.5q45 0 80.5 -17t65 -39.5t55.5 -39.5t53 -17
q36 0 58 26t41 89h128q-20 -99 -54 -160.5t-79 -90t-100 -28.5q-44 0 -78.5 17.5t-64 40t-56.5 39.5t-57 17q-34 0 -58 -28.5t-39 -86.5h-129z" />
    <glyph glyph-name="Ograve" unicode="&#xd2;" horiz-adv-x="1268" 
d="M546 -20q-146 0 -244 58.5t-148 171.5t-50 274q0 116 19.5 234t58 230t96 209t133.5 171t171 115.5t209 41.5q215 0 324 -129.5t109 -368.5q0 -108 -17 -224t-53 -229t-91 -212.5t-130 -176.5t-171.5 -121t-215.5 -44zM561 174q69 0 128 35t107.5 96.5t85.5 141.5
t62.5 171t39 186t13.5 184q0 147 -57.5 225t-166.5 78q-71 0 -132 -36t-109.5 -99.5t-85.5 -144.5t-62.5 -172t-38 -181.5t-12.5 -173.5q0 -104 26.5 -173t77.5 -103t124 -34zM829 1598q-33 38 -74 93.5t-76.5 113.5t-55.5 101v20h234q13 -48 30 -98.5t38 -102.5t44 -103
l-1 -24h-139z" />
    <glyph glyph-name="Oacute" unicode="&#xd3;" horiz-adv-x="1268" 
d="M546 -20q-146 0 -244 58.5t-148 171.5t-50 274q0 116 19.5 234t58 230t96 209t133.5 171t171 115.5t209 41.5q215 0 324 -129.5t109 -368.5q0 -108 -17 -224t-53 -229t-91 -212.5t-130 -176.5t-171.5 -121t-215.5 -44zM561 174q69 0 128 35t107.5 96.5t85.5 141.5
t62.5 171t39 186t13.5 184q0 147 -57.5 225t-166.5 78q-71 0 -132 -36t-109.5 -99.5t-85.5 -144.5t-62.5 -172t-38 -181.5t-12.5 -173.5q0 -104 26.5 -173t77.5 -103t124 -34zM717 1598l1 23q40 46 81 98.5t78 106t66 100.5h245l-1 -18q-21 -28 -61.5 -70t-88.5 -87.5
t-94 -86t-80 -66.5h-146z" />
    <glyph glyph-name="Ocircumflex" unicode="&#xd4;" horiz-adv-x="1268" 
d="M546 -20q-146 0 -244 58.5t-148 171.5t-50 274q0 116 19.5 234t58 230t96 209t133.5 171t171 115.5t209 41.5q215 0 324 -129.5t109 -368.5q0 -108 -17 -224t-53 -229t-91 -212.5t-130 -176.5t-171.5 -121t-215.5 -44zM561 174q69 0 128 35t107.5 96.5t85.5 141.5
t62.5 171t39 186t13.5 184q0 147 -57.5 225t-166.5 78q-71 0 -132 -36t-109.5 -99.5t-85.5 -144.5t-62.5 -172t-38 -181.5t-12.5 -173.5q0 -104 26.5 -173t77.5 -103t124 -34zM510 1588l2 23q42 42 91.5 95t96.5 107.5t79 102.5h212q15 -44 39.5 -100t53 -110.5t50.5 -93.5
l-3 -24h-133q-20 23 -43.5 52t-46.5 62t-45 67q-56 -54 -109 -99.5t-102 -81.5h-142z" />
    <glyph glyph-name="Otilde" unicode="&#xd5;" horiz-adv-x="1268" 
d="M546 -20q-146 0 -244 58.5t-148 171.5t-50 274q0 116 19.5 234t58 230t96 209t133.5 171t171 115.5t209 41.5q215 0 324 -129.5t109 -368.5q0 -108 -17 -224t-53 -229t-91 -212.5t-130 -176.5t-171.5 -121t-215.5 -44zM561 174q69 0 128 35t107.5 96.5t85.5 141.5
t62.5 171t39 186t13.5 184q0 147 -57.5 225t-166.5 78q-71 0 -132 -36t-109.5 -99.5t-85.5 -144.5t-62.5 -172t-38 -181.5t-12.5 -173.5q0 -104 26.5 -173t77.5 -103t124 -34zM506 1590q18 89 49 151t77 94.5t108 32.5q45 0 80.5 -17t65 -39.5t55.5 -39.5t53 -17q36 0 58 26
t41 89h128q-20 -99 -54 -160.5t-79 -90t-100 -28.5q-44 0 -78.5 17.5t-64 40t-56.5 39.5t-57 17q-34 0 -58 -28.5t-39 -86.5h-129z" />
    <glyph glyph-name="Odieresis" unicode="&#xd6;" horiz-adv-x="1268" 
d="M546 -20q-146 0 -244 58.5t-148 171.5t-50 274q0 116 19.5 234t58 230t96 209t133.5 171t171 115.5t209 41.5q215 0 324 -129.5t109 -368.5q0 -108 -17 -224t-53 -229t-91 -212.5t-130 -176.5t-171.5 -121t-215.5 -44zM561 174q69 0 128 35t107.5 96.5t85.5 141.5
t62.5 171t39 186t13.5 184q0 147 -57.5 225t-166.5 78q-71 0 -132 -36t-109.5 -99.5t-85.5 -144.5t-62.5 -172t-38 -181.5t-12.5 -173.5q0 -104 26.5 -173t77.5 -103t124 -34zM1020 1632q-43 0 -68.5 22t-25.5 67q0 59 33 100.5t94 41.5q41 0 65.5 -21.5t24.5 -65.5
q0 -64 -34 -104t-89 -40zM671 1632q-43 0 -68.5 22t-25.5 67q0 59 32.5 100.5t93.5 41.5q28 0 47.5 -9.5t30.5 -28.5t11 -49q0 -64 -33.5 -104t-87.5 -40z" />
    <glyph glyph-name="multiply" unicode="&#xd7;" horiz-adv-x="1046" 
d="M847 1146l123 -121l-301 -302l297 -300l-120 -121l-301 298l-298 -298l-121 122l297 299l-297 298l121 124l299 -298z" />
    <glyph glyph-name="Oslash" unicode="&#xd8;" horiz-adv-x="1269" 
d="M164 -93l-116 80l130 183q-37 60 -55.5 139.5t-18.5 174.5q0 116 19.5 234t57.5 230t95.5 209t134 171t171.5 115.5t209 41.5q84 0 151.5 -22.5t119.5 -68.5l108 151l116 -81l-129 -180q34 -57 50.5 -132.5t16.5 -164.5q0 -108 -17 -224t-53 -229t-91 -212.5
t-130.5 -176.5t-171.5 -121t-215 -44q-84 0 -150.5 21t-118.5 63zM562 172q67 0 124.5 32t105.5 88.5t84.5 131.5t62.5 161.5t40.5 178t16.5 181.5q1 28 -1.5 56t-6.5 50l-585 -808q27 -35 67 -53t92 -18zM345 397l590 817q-28 39 -68.5 59t-94.5 20q-70 0 -129 -33.5
t-107 -92t-85 -134.5t-62.5 -162t-39.5 -174t-16 -171q0 -35 3 -68t9 -61z" />
    <glyph glyph-name="Ugrave" unicode="&#xd9;" horiz-adv-x="1201" 
d="M495 -20q-124 0 -210 43t-130 124.5t-44 194.5q0 35 5 80t14 91l203 949h220l-202 -953q-9 -39 -14 -77.5t-5 -67.5q0 -93 47.5 -141.5t139.5 -48.5q85 0 142 36t94 109.5t61 185.5l205 957h221l-210 -980q-32 -153 -97 -266t-172 -174.5t-268 -61.5zM795 1598
q-33 38 -74 93.5t-76.5 113.5t-55.5 101v20h234q13 -48 30 -98.5t38 -102.5t44 -103l-1 -24h-139z" />
    <glyph glyph-name="Uacute" unicode="&#xda;" horiz-adv-x="1201" 
d="M495 -20q-124 0 -210 43t-130 124.5t-44 194.5q0 35 5 80t14 91l203 949h220l-202 -953q-9 -39 -14 -77.5t-5 -67.5q0 -93 47.5 -141.5t139.5 -48.5q85 0 142 36t94 109.5t61 185.5l205 957h221l-210 -980q-32 -153 -97 -266t-172 -174.5t-268 -61.5zM684 1598l1 23
q40 46 81 98.5t78 106t66 100.5h245l-1 -18q-21 -28 -61.5 -70t-88.5 -87.5t-94 -86t-80 -66.5h-146z" />
    <glyph glyph-name="Ucircumflex" unicode="&#xdb;" horiz-adv-x="1201" 
d="M495 -20q-124 0 -210 43t-130 124.5t-44 194.5q0 35 5 80t14 91l203 949h220l-202 -953q-9 -39 -14 -77.5t-5 -67.5q0 -93 47.5 -141.5t139.5 -48.5q85 0 142 36t94 109.5t61 185.5l205 957h221l-210 -980q-32 -153 -97 -266t-172 -174.5t-268 -61.5zM487 1588l2 23
q42 42 91.5 95t96.5 107.5t79 102.5h212q15 -44 39.5 -100t53 -110.5t50.5 -93.5l-3 -24h-133q-20 23 -43.5 52t-46.5 62t-45 67q-56 -54 -109 -99.5t-102 -81.5h-142z" />
    <glyph glyph-name="Udieresis" unicode="&#xdc;" horiz-adv-x="1201" 
d="M495 -20q-124 0 -210 43t-130 124.5t-44 194.5q0 35 5 80t14 91l203 949h220l-202 -953q-9 -39 -14 -77.5t-5 -67.5q0 -93 47.5 -141.5t139.5 -48.5q85 0 142 36t94 109.5t61 185.5l205 957h221l-210 -980q-32 -153 -97 -266t-172 -174.5t-268 -61.5zM990 1632
q-43 0 -68.5 22t-25.5 67q0 59 33 100.5t94 41.5q41 0 65.5 -21.5t24.5 -65.5q0 -64 -34 -104t-89 -40zM641 1632q-43 0 -68.5 22t-25.5 67q0 59 32.5 100.5t93.5 41.5q28 0 47.5 -9.5t30.5 -28.5t11 -49q0 -64 -33.5 -104t-87.5 -40z" />
    <glyph glyph-name="Yacute" unicode="&#xdd;" horiz-adv-x="944" 
d="M236 0l119 558l-172 904h226l103 -649l374 649h243l-554 -903l-118 -559h-221zM554 1598l1 23q40 46 81 98.5t78 106t66 100.5h245l-1 -18q-21 -28 -61.5 -70t-88.5 -87.5t-94 -86t-80 -66.5h-146z" />
    <glyph glyph-name="Thorn" unicode="&#xde;" horiz-adv-x="1029" 
d="M34 0l309 1462h221l-52 -243h84q142 0 231.5 -45t132 -126.5t42.5 -191.5q0 -122 -38.5 -222.5t-112.5 -173.5t-179.5 -112.5t-238.5 -39.5h-114l-65 -308h-220zM359 497h88q102 0 176 41t113.5 117.5t39.5 183.5q0 98 -50.5 144t-154.5 46h-99z" />
    <glyph glyph-name="germandbls" unicode="&#xdf;" horiz-adv-x="1087" 
d="M-137 -492q-34 0 -67.5 5.5t-61.5 14.5v184q23 -9 49.5 -14t52.5 -5q63 0 99 47t58 153l269 1266q29 134 86.5 225t148.5 137t220 46q162 0 253 -75t91 -200q0 -72 -21.5 -127t-61.5 -100.5t-95 -90.5q-58 -48 -97.5 -90t-39.5 -100q0 -25 12.5 -50t33.5 -51t46 -55
q59 -59 97 -123t38 -158q0 -112 -49 -194.5t-137.5 -127.5t-207.5 -45q-75 0 -136.5 15t-105.5 43l15 192q46 -34 102.5 -54t111.5 -20q92 0 139 48t47 122q0 35 -11 65t-35 62t-62 74q-61 62 -91 116.5t-30 119.5q0 60 21.5 107t59.5 88t87 79q44 36 77.5 69.5t52.5 71.5
t19 87q0 58 -36.5 90.5t-103.5 32.5q-65 0 -109 -29t-72 -83.5t-45 -132.5l-268 -1266q-23 -110 -62 -193t-105.5 -129.5t-175.5 -46.5z" />
    <glyph glyph-name="agrave" unicode="&#xe0;" horiz-adv-x="1041" 
d="M332 -20q-77 0 -136 39t-92.5 117.5t-33.5 195.5q0 103 20.5 213.5t60.5 214t99 186.5t135.5 132t170.5 49q59 0 104 -21t77.5 -59t50.5 -91h8l53 151h175l-235 -1107h-169l15 165h-6q-40 -53 -84.5 -95t-97 -66t-115.5 -24zM413 160q66 0 120.5 53t95 137.5t62.5 178.5
q18 73 25.5 131t7.5 111q0 79 -36 126.5t-101 47.5q-52 0 -98 -37.5t-82.5 -100.5t-62.5 -141.5t-40 -161.5t-14 -158q0 -93 31.5 -139.5t91.5 -46.5zM647 1246q-33 38 -74 93.5t-76.5 113.5t-55.5 101v20h234q13 -48 30 -98.5t38 -102.5t44 -103l-1 -24h-139z" />
    <glyph glyph-name="aacute" unicode="&#xe1;" horiz-adv-x="1041" 
d="M332 -20q-77 0 -136 39t-92.5 117.5t-33.5 195.5q0 103 20.5 213.5t60.5 214t99 186.5t135.5 132t170.5 49q59 0 104 -21t77.5 -59t50.5 -91h8l53 151h175l-235 -1107h-169l15 165h-6q-40 -53 -84.5 -95t-97 -66t-115.5 -24zM413 160q66 0 120.5 53t95 137.5t62.5 178.5
q18 73 25.5 131t7.5 111q0 79 -36 126.5t-101 47.5q-52 0 -98 -37.5t-82.5 -100.5t-62.5 -141.5t-40 -161.5t-14 -158q0 -93 31.5 -139.5t91.5 -46.5zM529 1246l1 23q40 46 81 98.5t78 106t66 100.5h245l-1 -18q-21 -28 -61.5 -70t-88.5 -87.5t-94 -86t-80 -66.5h-146z" />
    <glyph glyph-name="acircumflex" unicode="&#xe2;" horiz-adv-x="1041" 
d="M332 -20q-77 0 -136 39t-92.5 117.5t-33.5 195.5q0 103 20.5 213.5t60.5 214t99 186.5t135.5 132t170.5 49q59 0 104 -21t77.5 -59t50.5 -91h8l53 151h175l-235 -1107h-169l15 165h-6q-40 -53 -84.5 -95t-97 -66t-115.5 -24zM413 160q66 0 120.5 53t95 137.5t62.5 178.5
q18 73 25.5 131t7.5 111q0 79 -36 126.5t-101 47.5q-52 0 -98 -37.5t-82.5 -100.5t-62.5 -141.5t-40 -161.5t-14 -158q0 -93 31.5 -139.5t91.5 -46.5zM343 1244l2 23q42 42 91.5 95t96.5 107.5t79 102.5h212q15 -44 39.5 -100t53 -110.5t50.5 -93.5l-3 -24h-133
q-20 23 -43.5 52t-46.5 62t-45 67q-56 -54 -109 -99.5t-102 -81.5h-142z" />
    <glyph glyph-name="atilde" unicode="&#xe3;" horiz-adv-x="1041" 
d="M332 -20q-77 0 -136 39t-92.5 117.5t-33.5 195.5q0 103 20.5 213.5t60.5 214t99 186.5t135.5 132t170.5 49q59 0 104 -21t77.5 -59t50.5 -91h8l53 151h175l-235 -1107h-169l15 165h-6q-40 -53 -84.5 -95t-97 -66t-115.5 -24zM413 160q66 0 120.5 53t95 137.5t62.5 178.5
q18 73 25.5 131t7.5 111q0 79 -36 126.5t-101 47.5q-52 0 -98 -37.5t-82.5 -100.5t-62.5 -141.5t-40 -161.5t-14 -158q0 -93 31.5 -139.5t91.5 -46.5zM334 1246q18 89 49 151t77 94.5t108 32.5q45 0 80.5 -17t65 -39.5t55.5 -39.5t53 -17q36 0 58 26t41 89h128
q-20 -99 -54 -160.5t-79 -90t-100 -28.5q-44 0 -78.5 17.5t-64 40t-56.5 39.5t-57 17q-34 0 -58 -28.5t-39 -86.5h-129z" />
    <glyph glyph-name="adieresis" unicode="&#xe4;" horiz-adv-x="1041" 
d="M332 -20q-77 0 -136 39t-92.5 117.5t-33.5 195.5q0 103 20.5 213.5t60.5 214t99 186.5t135.5 132t170.5 49q59 0 104 -21t77.5 -59t50.5 -91h8l53 151h175l-235 -1107h-169l15 165h-6q-40 -53 -84.5 -95t-97 -66t-115.5 -24zM413 160q66 0 120.5 53t95 137.5t62.5 178.5
q18 73 25.5 131t7.5 111q0 79 -36 126.5t-101 47.5q-52 0 -98 -37.5t-82.5 -100.5t-62.5 -141.5t-40 -161.5t-14 -158q0 -93 31.5 -139.5t91.5 -46.5zM850 1288q-43 0 -68.5 22t-25.5 67q0 59 33 100.5t94 41.5q41 0 65.5 -21.5t24.5 -65.5q0 -64 -34 -104t-89 -40z
M501 1288q-43 0 -68.5 22t-25.5 67q0 59 32.5 100.5t93.5 41.5q28 0 47.5 -9.5t30.5 -28.5t11 -49q0 -64 -33.5 -104t-87.5 -40z" />
    <glyph glyph-name="aring" unicode="&#xe5;" horiz-adv-x="1041" 
d="M332 -20q-77 0 -136 39t-92.5 117.5t-33.5 195.5q0 103 20.5 213.5t60.5 214t99 186.5t135.5 132t170.5 49q59 0 104 -21t77.5 -59t50.5 -91h8l53 151h175l-235 -1107h-169l15 165h-6q-40 -53 -84.5 -95t-97 -66t-115.5 -24zM413 160q66 0 120.5 53t95 137.5t62.5 178.5
q18 73 25.5 131t7.5 111q0 79 -36 126.5t-101 47.5q-52 0 -98 -37.5t-82.5 -100.5t-62.5 -141.5t-40 -161.5t-14 -158q0 -93 31.5 -139.5t91.5 -46.5zM688 1243q-103 0 -164 59.5t-61 161.5q0 100 62.5 159.5t162.5 59.5t163.5 -59t63.5 -157q0 -102 -63 -163t-164 -61z
M689 1356q48 0 77.5 29t29.5 78t-29.5 78.5t-77.5 29.5t-77.5 -29.5t-29.5 -78.5t27 -78t80 -29z" />
    <glyph glyph-name="ae" unicode="&#xe6;" horiz-adv-x="1520" 
d="M317 -20q-74 0 -130 41t-86.5 119.5t-30.5 191.5q0 116 22 230.5t64 216t101 180t133 123.5t160 45q55 0 97 -19.5t73 -55.5t51 -87h7l47 142h145l-24 -117q47 59 116 98t157 39q120 0 192.5 -69.5t72.5 -191.5q0 -90 -37 -162.5t-110.5 -123.5t-182 -78.5t-250.5 -27.5
h-32q-4 -24 -6.5 -49t-2.5 -50q0 -102 46.5 -162.5t152.5 -60.5q68 0 136 22t138 59l-15 -179q-70 -36 -142 -55t-155 -19q-97 0 -161 35.5t-95 104.5l-25 -120h-145l22 162h-6q-41 -55 -85 -96t-96 -63.5t-116 -22.5zM404 159q47 0 88.5 29.5t76 79.5t60.5 114.5t43 136.5
q18 74 26 135.5t8 114.5q0 82 -31.5 129t-91.5 47q-50 0 -94 -35.5t-80.5 -96.5t-63 -138.5t-41 -162.5t-14.5 -167q0 -95 30.5 -140.5t83.5 -45.5zM900 632h22q118 0 198 27.5t120 77t40 116.5q0 51 -28 78t-78 27q-60 0 -113.5 -42t-94.5 -115.5t-66 -168.5z" />
    <glyph glyph-name="ccedilla" unicode="&#xe7;" horiz-adv-x="823" 
d="M416 -20q-105 0 -182 41.5t-119.5 125t-42.5 208.5q0 109 21.5 219t64.5 209.5t107.5 176.5t150.5 122t194 45q73 0 136 -15t117 -45l-75 -172q-37 21 -81.5 35.5t-92.5 14.5q-78 0 -138.5 -53t-101 -138.5t-61.5 -185t-21 -193.5q0 -70 19.5 -118t57 -72t90.5 -24
q57 0 112 19.5t113 51.5v-183q-53 -30 -121 -49.5t-147 -19.5zM241 -492q-38 0 -71 5t-60 12v127q20 -5 48.5 -9.5t59.5 -4.5q42 0 71.5 12t45 35t15.5 55q0 41 -34 64t-103 30l101 166h128l-57 -96q60 -14 100 -53.5t40 -109.5q0 -72 -34.5 -124.5t-97.5 -80.5t-152 -28z
" />
    <glyph glyph-name="egrave" unicode="&#xe8;" horiz-adv-x="949" 
d="M433 -20q-111 0 -192 44.5t-125.5 130.5t-44.5 209q0 147 37 283.5t107.5 244.5t171 171.5t227.5 63.5q140 0 216.5 -69.5t76.5 -191.5q0 -89 -37.5 -161.5t-111 -124t-182 -79t-251.5 -27.5h-30q-4 -24 -6.5 -49.5t-2.5 -50.5q0 -109 49 -165.5t144 -56.5
q72 0 132.5 18.5t137.5 57.5v-171q-72 -39 -147.5 -58t-168.5 -19zM323 632h21q119 0 198.5 27t119.5 77t40 118q0 48 -27 76t-82 28t-108 -40t-95 -113.5t-67 -172.5zM610 1241q-33 38 -74 93.5t-76.5 113.5t-55.5 101v20h234q13 -48 30 -98.5t38 -102.5t44 -103l-1 -24
h-139z" />
    <glyph glyph-name="eacute" unicode="&#xe9;" horiz-adv-x="949" 
d="M433 -20q-111 0 -192 44.5t-125.5 130.5t-44.5 209q0 147 37 283.5t107.5 244.5t171 171.5t227.5 63.5q140 0 216.5 -69.5t76.5 -191.5q0 -89 -37.5 -161.5t-111 -124t-182 -79t-251.5 -27.5h-30q-4 -24 -6.5 -49.5t-2.5 -50.5q0 -109 49 -165.5t144 -56.5
q72 0 132.5 18.5t137.5 57.5v-171q-72 -39 -147.5 -58t-168.5 -19zM323 632h21q119 0 198.5 27t119.5 77t40 118q0 48 -27 76t-82 28t-108 -40t-95 -113.5t-67 -172.5zM491 1240l1 23q40 46 81 98.5t78 106t66 100.5h245l-1 -18q-21 -28 -61.5 -70t-88.5 -87.5t-94 -86
t-80 -66.5h-146z" />
    <glyph glyph-name="ecircumflex" unicode="&#xea;" horiz-adv-x="949" 
d="M433 -20q-111 0 -192 44.5t-125.5 130.5t-44.5 209q0 147 37 283.5t107.5 244.5t171 171.5t227.5 63.5q140 0 216.5 -69.5t76.5 -191.5q0 -89 -37.5 -161.5t-111 -124t-182 -79t-251.5 -27.5h-30q-4 -24 -6.5 -49.5t-2.5 -50.5q0 -109 49 -165.5t144 -56.5
q72 0 132.5 18.5t137.5 57.5v-171q-72 -39 -147.5 -58t-168.5 -19zM323 632h21q119 0 198.5 27t119.5 77t40 118q0 48 -27 76t-82 28t-108 -40t-95 -113.5t-67 -172.5zM311 1241l2 23q42 42 91.5 95t96.5 107.5t79 102.5h212q15 -44 39.5 -100t53 -110.5t50.5 -93.5l-3 -24
h-133q-20 23 -43.5 52t-46.5 62t-45 67q-56 -54 -109 -99.5t-102 -81.5h-142z" />
    <glyph glyph-name="edieresis" unicode="&#xeb;" horiz-adv-x="949" 
d="M433 -20q-111 0 -192 44.5t-125.5 130.5t-44.5 209q0 147 37 283.5t107.5 244.5t171 171.5t227.5 63.5q140 0 216.5 -69.5t76.5 -191.5q0 -89 -37.5 -161.5t-111 -124t-182 -79t-251.5 -27.5h-30q-4 -24 -6.5 -49.5t-2.5 -50.5q0 -109 49 -165.5t144 -56.5
q72 0 132.5 18.5t137.5 57.5v-171q-72 -39 -147.5 -58t-168.5 -19zM323 632h21q119 0 198.5 27t119.5 77t40 118q0 48 -27 76t-82 28t-108 -40t-95 -113.5t-67 -172.5zM818 1285q-43 0 -68.5 22t-25.5 67q0 59 33 100.5t94 41.5q41 0 65.5 -21.5t24.5 -65.5q0 -64 -34 -104
t-89 -40zM469 1285q-43 0 -68.5 22t-25.5 67q0 59 32.5 100.5t93.5 41.5q28 0 47.5 -9.5t30.5 -28.5t11 -49q0 -64 -33.5 -104t-87.5 -40z" />
    <glyph glyph-name="igrave" unicode="&#xec;" horiz-adv-x="492" 
d="M21 0l235 1107h214l-235 -1107h-214zM371 1244q-33 38 -74 93.5t-76.5 113.5t-55.5 101v20h234q13 -48 30 -98.5t38 -102.5t44 -103l-1 -24h-139z" />
    <glyph glyph-name="iacute" unicode="&#xed;" horiz-adv-x="492" 
d="M21 0l235 1107h214l-235 -1107h-214zM256 1244l1 23q40 46 81 98.5t78 106t66 100.5h245l-1 -18q-21 -28 -61.5 -70t-88.5 -87.5t-94 -86t-80 -66.5h-146z" />
    <glyph glyph-name="icircumflex" unicode="&#xee;" horiz-adv-x="492" 
d="M21 0l235 1107h214l-235 -1107h-214zM65 1241l2 23q42 42 91.5 95t96.5 107.5t79 102.5h212q15 -44 39.5 -100t53 -110.5t50.5 -93.5l-3 -24h-133q-20 23 -43.5 52t-46.5 62t-45 67q-56 -54 -109 -99.5t-102 -81.5h-142z" />
    <glyph glyph-name="idieresis" unicode="&#xef;" horiz-adv-x="492" 
d="M21 0l235 1107h214l-235 -1107h-214zM571 1285q-43 0 -68.5 22t-25.5 67q0 59 33 100.5t94 41.5q41 0 65.5 -21.5t24.5 -65.5q0 -64 -34 -104t-89 -40zM222 1285q-43 0 -68.5 22t-25.5 67q0 59 32.5 100.5t93.5 41.5q28 0 47.5 -9.5t30.5 -28.5t11 -49q0 -64 -33.5 -104
t-87.5 -40z" />
    <glyph glyph-name="eth" unicode="&#xf0;" horiz-adv-x="1017" 
d="M405 -20q-109 0 -188 42.5t-122 125.5t-43 206q0 109 31 219.5t91.5 202.5t150 148.5t206.5 56.5q88 0 139 -42.5t77 -99.5l5 1q-1 112 -25.5 209.5t-88.5 178.5l-216 -128l-68 111l203 121q-24 26 -58 53t-74 53l102 131q52 -29 100 -63.5t90 -75.5l216 130l68 -111
l-199 -120q48 -67 80 -144.5t48 -164.5t16 -187q0 -114 -17.5 -234t-56 -230.5t-101 -198t-153.5 -139t-213 -51.5zM421 155q55 0 99 29t77.5 77t56 108t34 122.5t11.5 118.5q0 42 -9 77.5t-27.5 62t-47.5 41t-69 14.5q-68 0 -120 -41.5t-86.5 -109t-52 -147t-17.5 -155.5
q0 -94 37.5 -145.5t113.5 -51.5z" />
    <glyph glyph-name="ntilde" unicode="&#xf1;" horiz-adv-x="1043" 
d="M19 0l235 1108h173l-19 -177h5q36 56 81 100.5t100.5 71t122.5 26.5q75 0 130.5 -29.5t86 -87t30.5 -143.5q0 -41 -7.5 -90t-17.5 -98l-145 -681h-217l142 671q9 44 15.5 84.5t6.5 72.5q0 56 -26 84t-79 28q-62 0 -117 -48.5t-98 -140t-72 -220.5l-112 -531h-218z
M336 1246q18 89 49 151t77 94.5t108 32.5q45 0 80.5 -17t65 -39.5t55.5 -39.5t53 -17q36 0 58 26t41 89h128q-20 -99 -54 -160.5t-79 -90t-100 -28.5q-44 0 -78.5 17.5t-64 40t-56.5 39.5t-57 17q-34 0 -58 -28.5t-39 -86.5h-129z" />
    <glyph glyph-name="ograve" unicode="&#xf2;" horiz-adv-x="1021" 
d="M421 -19q-107 0 -185.5 46t-121.5 132.5t-43 206.5q0 98 20 203.5t61 204.5t104 178.5t149.5 126.5t197.5 47q108 0 186 -46.5t119.5 -134t41.5 -210.5q0 -104 -20 -210.5t-61.5 -204t-104.5 -174t-148.5 -121t-194.5 -44.5zM441 161q53 0 98.5 34t81 93t60.5 134t38 157
t13 162q0 59 -14.5 105t-47 73t-85.5 27q-58 0 -105.5 -38t-83 -100.5t-59.5 -139t-36.5 -156t-12.5 -148.5q0 -98 39 -150.5t114 -52.5zM618 1241q-33 38 -74 93.5t-76.5 113.5t-55.5 101v20h234q13 -48 30 -98.5t38 -102.5t44 -103l-1 -24h-139z" />
    <glyph glyph-name="oacute" unicode="&#xf3;" horiz-adv-x="1021" 
d="M421 -19q-107 0 -185.5 46t-121.5 132.5t-43 206.5q0 98 20 203.5t61 204.5t104 178.5t149.5 126.5t197.5 47q108 0 186 -46.5t119.5 -134t41.5 -210.5q0 -104 -20 -210.5t-61.5 -204t-104.5 -174t-148.5 -121t-194.5 -44.5zM441 161q53 0 98.5 34t81 93t60.5 134t38 157
t13 162q0 59 -14.5 105t-47 73t-85.5 27q-58 0 -105.5 -38t-83 -100.5t-59.5 -139t-36.5 -156t-12.5 -148.5q0 -98 39 -150.5t114 -52.5zM509 1240l1 23q40 46 81 98.5t78 106t66 100.5h245l-1 -18q-21 -28 -61.5 -70t-88.5 -87.5t-94 -86t-80 -66.5h-146z" />
    <glyph glyph-name="ocircumflex" unicode="&#xf4;" horiz-adv-x="1021" 
d="M421 -19q-107 0 -185.5 46t-121.5 132.5t-43 206.5q0 98 20 203.5t61 204.5t104 178.5t149.5 126.5t197.5 47q108 0 186 -46.5t119.5 -134t41.5 -210.5q0 -104 -20 -210.5t-61.5 -204t-104.5 -174t-148.5 -121t-194.5 -44.5zM441 161q53 0 98.5 34t81 93t60.5 134t38 157
t13 162q0 59 -14.5 105t-47 73t-85.5 27q-58 0 -105.5 -38t-83 -100.5t-59.5 -139t-36.5 -156t-12.5 -148.5q0 -98 39 -150.5t114 -52.5zM313 1241l2 23q42 42 91.5 95t96.5 107.5t79 102.5h212q15 -44 39.5 -100t53 -110.5t50.5 -93.5l-3 -24h-133q-20 23 -43.5 52
t-46.5 62t-45 67q-56 -54 -109 -99.5t-102 -81.5h-142z" />
    <glyph glyph-name="otilde" unicode="&#xf5;" horiz-adv-x="1021" 
d="M421 -19q-107 0 -185.5 46t-121.5 132.5t-43 206.5q0 98 20 203.5t61 204.5t104 178.5t149.5 126.5t197.5 47q108 0 186 -46.5t119.5 -134t41.5 -210.5q0 -104 -20 -210.5t-61.5 -204t-104.5 -174t-148.5 -121t-194.5 -44.5zM441 161q53 0 98.5 34t81 93t60.5 134t38 157
t13 162q0 59 -14.5 105t-47 73t-85.5 27q-58 0 -105.5 -38t-83 -100.5t-59.5 -139t-36.5 -156t-12.5 -148.5q0 -98 39 -150.5t114 -52.5zM301 1243q18 89 49 151t77 94.5t108 32.5q45 0 80.5 -17t65 -39.5t55.5 -39.5t53 -17q36 0 58 26t41 89h128q-20 -99 -54 -160.5
t-79 -90t-100 -28.5q-44 0 -78.5 17.5t-64 40t-56.5 39.5t-57 17q-34 0 -58 -28.5t-39 -86.5h-129z" />
    <glyph glyph-name="odieresis" unicode="&#xf6;" horiz-adv-x="1021" 
d="M421 -19q-107 0 -185.5 46t-121.5 132.5t-43 206.5q0 98 20 203.5t61 204.5t104 178.5t149.5 126.5t197.5 47q108 0 186 -46.5t119.5 -134t41.5 -210.5q0 -104 -20 -210.5t-61.5 -204t-104.5 -174t-148.5 -121t-194.5 -44.5zM441 161q53 0 98.5 34t81 93t60.5 134t38 157
t13 162q0 59 -14.5 105t-47 73t-85.5 27q-58 0 -105.5 -38t-83 -100.5t-59.5 -139t-36.5 -156t-12.5 -148.5q0 -98 39 -150.5t114 -52.5zM817 1285q-43 0 -68.5 22t-25.5 67q0 59 33 100.5t94 41.5q41 0 65.5 -21.5t24.5 -65.5q0 -64 -34 -104t-89 -40zM468 1285
q-43 0 -68.5 22t-25.5 67q0 59 32.5 100.5t93.5 41.5q28 0 47.5 -9.5t30.5 -28.5t11 -49q0 -64 -33.5 -104t-87.5 -40z" />
    <glyph glyph-name="divide" unicode="&#xf7;" horiz-adv-x="1046" 
d="M105 635v175h885v-175h-885zM548 221q-54 0 -88 34t-34 104q0 71 33.5 103.5t88.5 32.5q53 0 86 -32.5t33 -103.5q0 -70 -33.5 -104t-85.5 -34zM548 949q-54 0 -88 34t-34 102q0 72 33.5 104.5t88.5 32.5q53 0 86 -32.5t33 -104.5q0 -69 -33.5 -102.5t-85.5 -33.5z" />
    <glyph glyph-name="oslash" unicode="&#xf8;" horiz-adv-x="1021" 
d="M122 -107l-109 77l117 162q-28 47 -43 105.5t-15 128.5q0 96 19.5 201t60 204.5t103.5 179.5t150 127.5t198 47.5q61 0 111 -15.5t90 -45.5l88 123l110 -77l-105 -143q26 -46 39.5 -104.5t13.5 -124.5q0 -98 -19.5 -203.5t-60 -204t-103.5 -177.5t-148.5 -126t-196.5 -47
q-57 0 -107 14t-90 41zM441 154q53 0 97.5 31t80 84t61 121t40 143t18.5 149q1 19 0 37.5t-4 32.5l-398 -555q17 -20 44.5 -31.5t60.5 -11.5zM289 341l403 563q-16 22 -43 34.5t-63 12.5q-56 0 -102 -32.5t-82 -87.5t-61 -124t-39.5 -143.5t-17.5 -145.5q0 -22 1 -42t4 -35z
" />
    <glyph glyph-name="ugrave" unicode="&#xf9;" horiz-adv-x="1044" 
d="M323 -20q-78 0 -132.5 30.5t-82.5 89t-28 140.5q0 39 6.5 88.5t16.5 97.5l145 681h215l-143 -678q-10 -43 -15.5 -80.5t-5.5 -68.5q0 -56 25.5 -86t79.5 -30q64 0 119.5 49t99 141.5t70.5 221.5l113 531h214l-234 -1107h-170l17 174h-8q-35 -54 -80.5 -98t-100.5 -70
t-121 -26zM641 1241q-33 38 -74 93.5t-76.5 113.5t-55.5 101v20h234q13 -48 30 -98.5t38 -102.5t44 -103l-1 -24h-139z" />
    <glyph glyph-name="uacute" unicode="&#xfa;" horiz-adv-x="1044" 
d="M323 -20q-78 0 -132.5 30.5t-82.5 89t-28 140.5q0 39 6.5 88.5t16.5 97.5l145 681h215l-143 -678q-10 -43 -15.5 -80.5t-5.5 -68.5q0 -56 25.5 -86t79.5 -30q64 0 119.5 49t99 141.5t70.5 221.5l113 531h214l-234 -1107h-170l17 174h-8q-35 -54 -80.5 -98t-100.5 -70
t-121 -26zM537 1240l1 23q40 46 81 98.5t78 106t66 100.5h245l-1 -18q-21 -28 -61.5 -70t-88.5 -87.5t-94 -86t-80 -66.5h-146z" />
    <glyph glyph-name="ucircumflex" unicode="&#xfb;" horiz-adv-x="1044" 
d="M323 -20q-78 0 -132.5 30.5t-82.5 89t-28 140.5q0 39 6.5 88.5t16.5 97.5l145 681h215l-143 -678q-10 -43 -15.5 -80.5t-5.5 -68.5q0 -56 25.5 -86t79.5 -30q64 0 119.5 49t99 141.5t70.5 221.5l113 531h214l-234 -1107h-170l17 174h-8q-35 -54 -80.5 -98t-100.5 -70
t-121 -26zM340 1241l2 23q42 42 91.5 95t96.5 107.5t79 102.5h212q15 -44 39.5 -100t53 -110.5t50.5 -93.5l-3 -24h-133q-20 23 -43.5 52t-46.5 62t-45 67q-56 -54 -109 -99.5t-102 -81.5h-142z" />
    <glyph glyph-name="udieresis" unicode="&#xfc;" horiz-adv-x="1044" 
d="M323 -20q-78 0 -132.5 30.5t-82.5 89t-28 140.5q0 39 6.5 88.5t16.5 97.5l145 681h215l-143 -678q-10 -43 -15.5 -80.5t-5.5 -68.5q0 -56 25.5 -86t79.5 -30q64 0 119.5 49t99 141.5t70.5 221.5l113 531h214l-234 -1107h-170l17 174h-8q-35 -54 -80.5 -98t-100.5 -70
t-121 -26zM839 1285q-43 0 -68.5 22t-25.5 67q0 59 33 100.5t94 41.5q41 0 65.5 -21.5t24.5 -65.5q0 -64 -34 -104t-89 -40zM490 1285q-43 0 -68.5 22t-25.5 67q0 59 32.5 100.5t93.5 41.5q28 0 47.5 -9.5t30.5 -28.5t11 -49q0 -64 -33.5 -104t-87.5 -40z" />
    <glyph glyph-name="yacute" unicode="&#xfd;" horiz-adv-x="879" 
d="M-41 -493q-45 0 -76 6t-56 14l15 182q24 -7 50 -11.5t54 -4.5q72 0 119.5 47t89.5 130l63 132l-101 1105h214l34 -559q4 -47 5.5 -98t2 -100t-0.5 -88h6q13 36 30.5 82t37 92.5t37.5 85.5l273 585h228l-635 -1290q-49 -99 -104.5 -168t-124.5 -105.5t-161 -36.5z
M437 1240l1 23q40 46 81 98.5t78 106t66 100.5h245l-1 -18q-21 -28 -61.5 -70t-88.5 -87.5t-94 -86t-80 -66.5h-146z" />
    <glyph glyph-name="thorn" unicode="&#xfe;" horiz-adv-x="1044" 
d="M-81 -485l432 2042h214l-89 -418q-11 -50 -24 -99t-26 -88h7q38 53 81.5 92t93 61t105.5 22q121 0 192 -88t71 -266q0 -101 -19.5 -211t-58.5 -213.5t-97 -187t-134.5 -132.5t-171.5 -49q-60 0 -105.5 21.5t-77.5 59.5t-50 85h-8q-4 -50 -12.5 -103t-17.5 -97l-92 -431
h-213zM460 161q56 0 102 39t82.5 104t61 144t37.5 160.5t13 152.5q0 94 -32.5 140t-94.5 46q-63 0 -118 -52t-96 -136.5t-65 -181.5q-15 -64 -22.5 -126t-7.5 -111q0 -84 34.5 -131.5t105.5 -47.5z" />
    <glyph glyph-name="ydieresis" unicode="&#xff;" horiz-adv-x="879" 
d="M-41 -493q-45 0 -76 6t-56 14l15 182q24 -7 50 -11.5t54 -4.5q72 0 119.5 47t89.5 130l63 132l-101 1105h214l34 -559q4 -47 5.5 -98t2 -100t-0.5 -88h6q13 36 30.5 82t37 92.5t37.5 85.5l273 585h228l-635 -1290q-49 -99 -104.5 -168t-124.5 -105.5t-161 -36.5z
M739 1285q-43 0 -68.5 22t-25.5 67q0 59 33 100.5t94 41.5q41 0 65.5 -21.5t24.5 -65.5q0 -64 -34 -104t-89 -40zM390 1285q-43 0 -68.5 22t-25.5 67q0 59 32.5 100.5t93.5 41.5q28 0 47.5 -9.5t30.5 -28.5t11 -49q0 -64 -33.5 -104t-87.5 -40z" />
    <glyph glyph-name="Amacron" unicode="&#x100;" horiz-adv-x="1052" 
d="M-125 0l701 1465h267l88 -1465h-223l-19 416h-385l-191 -416h-238zM390 610h296l-11 421q-3 59 -5 118.5t0 113.5h-5q-17 -52 -40 -108.5t-52 -118.5zM455 1613l34 160h546l-34 -160h-546z" />
    <glyph glyph-name="amacron" unicode="&#x101;" horiz-adv-x="1041" 
d="M332 -20q-77 0 -136 39t-92.5 117.5t-33.5 195.5q0 103 20.5 213.5t60.5 214t99 186.5t135.5 132t170.5 49q59 0 104 -21t77.5 -59t50.5 -91h8l53 151h175l-235 -1107h-169l15 165h-6q-40 -53 -84.5 -95t-97 -66t-115.5 -24zM413 160q66 0 120.5 53t95 137.5t62.5 178.5
q18 73 25.5 131t7.5 111q0 79 -36 126.5t-101 47.5q-52 0 -98 -37.5t-82.5 -100.5t-62.5 -141.5t-40 -161.5t-14 -158q0 -93 31.5 -139.5t91.5 -46.5zM386 1248l34 160h546l-34 -160h-546z" />
    <glyph glyph-name="Abreve" unicode="&#x102;" horiz-adv-x="1052" 
d="M-125 0l701 1465h267l88 -1465h-223l-19 416h-385l-191 -416h-238zM390 610h296l-11 421q-3 59 -5 118.5t0 113.5h-5q-17 -52 -40 -108.5t-52 -118.5zM734 1609q-87 0 -143.5 30t-83 82t-26.5 118q0 19 1.5 36t4.5 34h130q0 -46 12.5 -76.5t41 -46t75.5 -15.5
q72 0 114 32.5t60 105.5h138q-28 -148 -109 -224t-215 -76z" />
    <glyph glyph-name="abreve" unicode="&#x103;" horiz-adv-x="1041" 
d="M332 -20q-77 0 -136 39t-92.5 117.5t-33.5 195.5q0 103 20.5 213.5t60.5 214t99 186.5t135.5 132t170.5 49q59 0 104 -21t77.5 -59t50.5 -91h8l53 151h175l-235 -1107h-169l15 165h-6q-40 -53 -84.5 -95t-97 -66t-115.5 -24zM413 160q66 0 120.5 53t95 137.5t62.5 178.5
q18 73 25.5 131t7.5 111q0 79 -36 126.5t-101 47.5q-52 0 -98 -37.5t-82.5 -100.5t-62.5 -141.5t-40 -161.5t-14 -158q0 -93 31.5 -139.5t91.5 -46.5zM665 1244q-87 0 -143.5 30t-83 82t-26.5 118q0 19 1.5 36t4.5 34h130q0 -46 12.5 -76.5t41 -46t75.5 -15.5q72 0 114 32.5
t60 105.5h138q-28 -148 -109 -224t-215 -76z" />
    <glyph glyph-name="Aogonek" unicode="&#x104;" horiz-adv-x="1052" 
d="M-125 0l701 1465h267l88 -1465h-223l-19 416h-385l-191 -416h-238zM390 610h296l-11 421q-3 59 -5 118.5t0 113.5h-5q-17 -52 -40 -108.5t-52 -118.5zM700 -467q-85 0 -132.5 44.5t-47.5 120.5q0 63 25.5 114.5t73 97.5t112.5 91l142 -1q-51 -44 -91.5 -86t-63.5 -84.5
t-23 -88.5q0 -31 16.5 -47.5t45.5 -16.5q21 0 42.5 4t43.5 9l-14 -137q-29 -10 -61 -15t-68 -5z" />
    <glyph glyph-name="aogonek" unicode="&#x105;" horiz-adv-x="1041" 
d="M332 -20q-77 0 -136 39t-92.5 117.5t-33.5 195.5q0 103 20.5 213.5t60.5 214t99 186.5t135.5 132t170.5 49q59 0 104 -21t77.5 -59t50.5 -91h8l53 151h175l-235 -1107h-169l15 165h-6q-40 -53 -84.5 -95t-97 -66t-115.5 -24zM413 160q66 0 120.5 53t95 137.5t62.5 178.5
q18 73 25.5 131t7.5 111q0 79 -36 126.5t-101 47.5q-52 0 -98 -37.5t-82.5 -100.5t-62.5 -141.5t-40 -161.5t-14 -158q0 -93 31.5 -139.5t91.5 -46.5zM595 -467q-85 0 -132.5 44.5t-47.5 120.5q0 63 25.5 114.5t73 97.5t112.5 91l142 -1q-51 -44 -91.5 -86t-63.5 -84.5
t-23 -88.5q0 -31 16.5 -47.5t45.5 -16.5q21 0 42.5 4t43.5 9l-14 -137q-29 -10 -61 -15t-68 -5z" />
    <glyph glyph-name="Cacute" unicode="&#x106;" horiz-adv-x="1030" 
d="M537 -20q-140 0 -236.5 61.5t-146 178t-49.5 279.5q0 130 28 267.5t85 265.5t142.5 230t200 162t257.5 60q98 0 177.5 -21t149.5 -65l-97 -180q-51 34 -106.5 53.5t-122.5 19.5q-100 0 -178 -51.5t-136 -137t-95.5 -189t-56.5 -208.5t-19 -194q0 -169 63 -253.5
t189 -84.5q67 0 135 17.5t136 44.5v-194q-66 -27 -146 -44t-174 -17zM670 1598l1 23q40 46 81 98.5t78 106t66 100.5h245l-1 -18q-21 -28 -61.5 -70t-88.5 -87.5t-94 -86t-80 -66.5h-146z" />
    <glyph glyph-name="cacute" unicode="&#x107;" horiz-adv-x="823" 
d="M416 -20q-105 0 -182 41.5t-119.5 125t-42.5 208.5q0 109 21.5 219t64.5 209.5t107.5 176.5t150.5 122t194 45q73 0 136 -15t117 -45l-75 -172q-37 21 -81.5 35.5t-92.5 14.5q-78 0 -138.5 -53t-101 -138.5t-61.5 -185t-21 -193.5q0 -70 19.5 -118t57 -72t90.5 -24
q57 0 112 19.5t113 51.5v-183q-53 -30 -121 -49.5t-147 -19.5zM470 1244l1 23q40 46 81 98.5t78 106t66 100.5h245l-1 -18q-21 -28 -61.5 -70t-88.5 -87.5t-94 -86t-80 -66.5h-146z" />
    <glyph glyph-name="Ccircumflex" unicode="&#x108;" horiz-adv-x="1030" 
d="M537 -20q-140 0 -236.5 61.5t-146 178t-49.5 279.5q0 130 28 267.5t85 265.5t142.5 230t200 162t257.5 60q98 0 177.5 -21t149.5 -65l-97 -180q-51 34 -106.5 53.5t-122.5 19.5q-100 0 -178 -51.5t-136 -137t-95.5 -189t-56.5 -208.5t-19 -194q0 -169 63 -253.5
t189 -84.5q67 0 135 17.5t136 44.5v-194q-66 -27 -146 -44t-174 -17zM500 1588l2 23q42 42 91.5 95t96.5 107.5t79 102.5h212q15 -44 39.5 -100t53 -110.5t50.5 -93.5l-3 -24h-133q-20 23 -43.5 52t-46.5 62t-45 67q-56 -54 -109 -99.5t-102 -81.5h-142z" />
    <glyph glyph-name="ccircumflex" unicode="&#x109;" horiz-adv-x="823" 
d="M416 -20q-105 0 -182 41.5t-119.5 125t-42.5 208.5q0 109 21.5 219t64.5 209.5t107.5 176.5t150.5 122t194 45q73 0 136 -15t117 -45l-75 -172q-37 21 -81.5 35.5t-92.5 14.5q-78 0 -138.5 -53t-101 -138.5t-61.5 -185t-21 -193.5q0 -70 19.5 -118t57 -72t90.5 -24
q57 0 112 19.5t113 51.5v-183q-53 -30 -121 -49.5t-147 -19.5zM286 1241l2 23q42 42 91.5 95t96.5 107.5t79 102.5h212q15 -44 39.5 -100t53 -110.5t50.5 -93.5l-3 -24h-133q-20 23 -43.5 52t-46.5 62t-45 67q-56 -54 -109 -99.5t-102 -81.5h-142z" />
    <glyph glyph-name="Cdot" unicode="&#x10a;" horiz-adv-x="1030" 
d="M537 -20q-140 0 -236.5 61.5t-146 178t-49.5 279.5q0 130 28 267.5t85 265.5t142.5 230t200 162t257.5 60q98 0 177.5 -21t149.5 -65l-97 -180q-51 34 -106.5 53.5t-122.5 19.5q-100 0 -178 -51.5t-136 -137t-95.5 -189t-56.5 -208.5t-19 -194q0 -169 63 -253.5
t189 -84.5q67 0 135 17.5t136 44.5v-194q-66 -27 -146 -44t-174 -17zM848 1623q-50 0 -80 26t-30 76q0 64 37 108.5t105 44.5q34 0 58 -10.5t37 -32.5t13 -56q0 -66 -37 -111t-103 -45z" />
    <glyph glyph-name="cdot" unicode="&#x10b;" horiz-adv-x="823" 
d="M416 -20q-105 0 -182 41.5t-119.5 125t-42.5 208.5q0 109 21.5 219t64.5 209.5t107.5 176.5t150.5 122t194 45q73 0 136 -15t117 -45l-75 -172q-37 21 -81.5 35.5t-92.5 14.5q-78 0 -138.5 -53t-101 -138.5t-61.5 -185t-21 -193.5q0 -70 19.5 -118t57 -72t90.5 -24
q57 0 112 19.5t113 51.5v-183q-53 -30 -121 -49.5t-147 -19.5zM635 1273q-50 0 -80 26t-30 76q0 64 37 108.5t105 44.5q34 0 58 -10.5t37 -32.5t13 -56q0 -66 -37 -111t-103 -45z" />
    <glyph glyph-name="Ccaron" unicode="&#x10c;" horiz-adv-x="1030" 
d="M537 -20q-140 0 -236.5 61.5t-146 178t-49.5 279.5q0 130 28 267.5t85 265.5t142.5 230t200 162t257.5 60q98 0 177.5 -21t149.5 -65l-97 -180q-51 34 -106.5 53.5t-122.5 19.5q-100 0 -178 -51.5t-136 -137t-95.5 -189t-56.5 -208.5t-19 -194q0 -169 63 -253.5
t189 -84.5q67 0 135 17.5t136 44.5v-194q-66 -27 -146 -44t-174 -17zM722 1588q-14 44 -39 100t-52.5 110.5t-50.5 93.5l2 24h133q20 -21 42.5 -49t46.5 -62t46 -70q56 54 109.5 100t102.5 81h142l-2 -24q-36 -34 -88 -89.5t-101.5 -113.5t-77.5 -101h-213z" />
    <glyph glyph-name="ccaron" unicode="&#x10d;" horiz-adv-x="823" 
d="M416 -20q-105 0 -182 41.5t-119.5 125t-42.5 208.5q0 109 21.5 219t64.5 209.5t107.5 176.5t150.5 122t194 45q73 0 136 -15t117 -45l-75 -172q-37 21 -81.5 35.5t-92.5 14.5q-78 0 -138.5 -53t-101 -138.5t-61.5 -185t-21 -193.5q0 -70 19.5 -118t57 -72t90.5 -24
q57 0 112 19.5t113 51.5v-183q-53 -30 -121 -49.5t-147 -19.5zM506 1241q-14 44 -39 100t-52.5 110.5t-50.5 93.5l2 24h133q20 -21 42.5 -49t46.5 -62t46 -70q56 54 109.5 100t102.5 81h142l-2 -24q-36 -34 -88 -89.5t-101.5 -113.5t-77.5 -101h-213z" />
    <glyph glyph-name="Dcaron" unicode="&#x10e;" horiz-adv-x="1182" 
d="M34 0l309 1462h314q231 0 356.5 -127.5t125.5 -376.5q0 -145 -29.5 -285t-90 -261.5t-152.5 -214t-215.5 -145t-280.5 -52.5h-337zM294 193h98q106 0 189.5 44t145 120t102 173t60.5 204.5t20 211.5q0 170 -72.5 247.5t-202.5 77.5h-111zM654 1588q-14 44 -39 100
t-52.5 110.5t-50.5 93.5l2 24h133q20 -21 42.5 -49t46.5 -62t46 -70q56 54 109.5 100t102.5 81h142l-2 -24q-36 -34 -88 -89.5t-101.5 -113.5t-77.5 -101h-213z" />
    <glyph glyph-name="dcaron" unicode="&#x10f;" horiz-adv-x="1193" 
d="M330 -20q-76 0 -135 39t-92.5 117.5t-33.5 196.5q0 101 20 211t59.5 213.5t98 187t134.5 133t169 49.5q60 0 105 -21t77 -57.5t51 -84.5h7q4 31 9.5 68.5t12 77t14.5 74.5l78 372h215l-330 -1556h-171l15 162h-6q-41 -54 -85 -95t-96 -64t-116 -23zM414 159q49 0 90.5 30
t76 81t61.5 115t45.5 132t28 133.5t9.5 117.5q0 83 -35 130t-105 47q-54 0 -100 -39t-82.5 -104t-62 -144t-38.5 -161t-13 -153q0 -92 32 -138.5t93 -46.5zM1142 1229v22q23 46 46.5 99.5t44 107t33.5 98.5h206v-20q-19 -42 -52 -97t-71.5 -110.5t-76.5 -99.5h-130z" />
    <glyph glyph-name="Dcroat" unicode="&#x110;" horiz-adv-x="1183" 
d="M34 0l136 651h-124l39 181h124l134 630h314q231 0 356.5 -127.5t125.5 -376.5q0 -147 -30 -287t-90.5 -261.5t-152.5 -213.5t-215.5 -144t-279.5 -52h-337zM294 193h98q109 0 193 46t145.5 124t101 176t58.5 203t19 204q0 170 -72.5 247.5t-202.5 77.5h-111l-93 -439h224
l-39 -181h-225z" />
    <glyph glyph-name="dcroat" unicode="&#x111;" horiz-adv-x="1047" 
d="M334 -20q-79 0 -139 40t-92.5 119t-32.5 194q0 96 19 203t57.5 209.5t96 185t133.5 132t171 49.5q61 0 106.5 -20t78 -56t50.5 -83h7q4 27 8 58t9 62.5t11 60.5l18 93h-258l32 155h260l36 174h215l-37 -174h134l-32 -155h-135l-260 -1227h-170l14 162h-6
q-40 -53 -83.5 -94t-95 -64.5t-115.5 -23.5zM417 159q47 0 88 29t75.5 78.5t61.5 111.5t45.5 129t28 132t9.5 118q0 81 -33.5 127t-105.5 46q-56 0 -102 -38t-82 -101.5t-61 -141t-38 -157t-13 -148.5q0 -92 32.5 -138.5t94.5 -46.5z" />
    <glyph glyph-name="Emacron" unicode="&#x112;" horiz-adv-x="930" 
d="M34 0l309 1462h671l-41 -191h-450l-87 -414h420l-41 -190h-420l-101 -475h450l-40 -192h-670zM416 1592l34 160h546l-34 -160h-546z" />
    <glyph glyph-name="emacron" unicode="&#x113;" horiz-adv-x="949" 
d="M433 -20q-111 0 -192 44.5t-125.5 130.5t-44.5 209q0 147 37 283.5t107.5 244.5t171 171.5t227.5 63.5q140 0 216.5 -69.5t76.5 -191.5q0 -89 -37.5 -161.5t-111 -124t-182 -79t-251.5 -27.5h-30q-4 -24 -6.5 -49.5t-2.5 -50.5q0 -109 49 -165.5t144 -56.5
q72 0 132.5 18.5t137.5 57.5v-171q-72 -39 -147.5 -58t-168.5 -19zM323 632h21q119 0 198.5 27t119.5 77t40 118q0 48 -27 76t-82 28t-108 -40t-95 -113.5t-67 -172.5zM357 1245l34 160h546l-34 -160h-546z" />
    <glyph glyph-name="Ebreve" unicode="&#x114;" horiz-adv-x="930" 
d="M34 0l309 1462h671l-41 -191h-450l-87 -414h420l-41 -190h-420l-101 -475h450l-40 -192h-670zM696 1588q-87 0 -143.5 30t-83 82t-26.5 118q0 19 1.5 36t4.5 34h130q0 -46 12.5 -76.5t41 -46t75.5 -15.5q72 0 114 32.5t60 105.5h138q-28 -148 -109 -224t-215 -76z" />
    <glyph glyph-name="ebreve" unicode="&#x115;" horiz-adv-x="949" 
d="M433 -20q-111 0 -192 44.5t-125.5 130.5t-44.5 209q0 147 37 283.5t107.5 244.5t171 171.5t227.5 63.5q140 0 216.5 -69.5t76.5 -191.5q0 -89 -37.5 -161.5t-111 -124t-182 -79t-251.5 -27.5h-30q-4 -24 -6.5 -49.5t-2.5 -50.5q0 -109 49 -165.5t144 -56.5
q72 0 132.5 18.5t137.5 57.5v-171q-72 -39 -147.5 -58t-168.5 -19zM323 632h21q119 0 198.5 27t119.5 77t40 118q0 48 -27 76t-82 28t-108 -40t-95 -113.5t-67 -172.5zM647 1241q-87 0 -143.5 30t-83 82t-26.5 118q0 19 1.5 36t4.5 34h130q0 -46 12.5 -76.5t41 -46
t75.5 -15.5q72 0 114 32.5t60 105.5h138q-28 -148 -109 -224t-215 -76z" />
    <glyph glyph-name="Edotaccent" unicode="&#x116;" horiz-adv-x="930" 
d="M34 0l309 1462h671l-41 -191h-450l-87 -414h420l-41 -190h-420l-101 -475h450l-40 -192h-670zM711 1605q-50 0 -80 26t-30 76q0 64 37 108.5t105 44.5q34 0 58 -10.5t37 -32.5t13 -56q0 -66 -37 -111t-103 -45z" />
    <glyph glyph-name="edotaccent" unicode="&#x117;" horiz-adv-x="949" 
d="M433 -20q-111 0 -192 44.5t-125.5 130.5t-44.5 209q0 147 37 283.5t107.5 244.5t171 171.5t227.5 63.5q140 0 216.5 -69.5t76.5 -191.5q0 -89 -37.5 -161.5t-111 -124t-182 -79t-251.5 -27.5h-30q-4 -24 -6.5 -49.5t-2.5 -50.5q0 -109 49 -165.5t144 -56.5
q72 0 132.5 18.5t137.5 57.5v-171q-72 -39 -147.5 -58t-168.5 -19zM323 632h21q119 0 198.5 27t119.5 77t40 118q0 48 -27 76t-82 28t-108 -40t-95 -113.5t-67 -172.5zM660 1273q-50 0 -80 26t-30 76q0 64 37 108.5t105 44.5q34 0 58 -10.5t37 -32.5t13 -56q0 -66 -37 -111
t-103 -45z" />
    <glyph glyph-name="Eogonek" unicode="&#x118;" horiz-adv-x="930" 
d="M34 0l309 1462h671l-41 -191h-450l-87 -414h420l-41 -190h-420l-101 -475h450l-40 -192h-670zM467 -467q-85 0 -132.5 44.5t-47.5 120.5q0 63 25.5 114.5t73 97.5t112.5 91l142 -1q-51 -44 -91.5 -86t-63.5 -84.5t-23 -88.5q0 -31 16.5 -47.5t45.5 -16.5q21 0 42.5 4
t43.5 9l-14 -137q-29 -10 -61 -15t-68 -5z" />
    <glyph glyph-name="eogonek" unicode="&#x119;" horiz-adv-x="949" 
d="M493 -454q-84 0 -131.5 45t-47.5 121q0 63 26 114.5t73 97.5t111 90l185 30q-67 -50 -116 -99.5t-75.5 -97t-26.5 -93.5q0 -31 16 -47t44 -16q21 0 42.5 4t43.5 8l-15 -137q-29 -11 -61.5 -15.5t-67.5 -4.5zM433 -20q-111 0 -192.5 44.5t-125.5 130.5t-44 209
q0 147 37 283.5t107 244.5t170.5 171.5t227.5 63.5q141 0 217 -69.5t76 -191.5q0 -89 -37 -161.5t-110.5 -124t-182.5 -79t-252 -27.5h-29q-4 -24 -6.5 -49.5t-2.5 -50.5q0 -109 48.5 -165.5t144.5 -56.5q71 0 132 18.5t137 57.5v-171q-71 -39 -146.5 -58t-168.5 -19z
M323 632h20q119 0 198.5 27t120 77t40.5 118q0 48 -27.5 76t-81.5 28q-56 0 -108.5 -40t-95 -113.5t-66.5 -172.5z" />
    <glyph glyph-name="Ecaron" unicode="&#x11a;" horiz-adv-x="930" 
d="M34 0l309 1462h671l-41 -191h-450l-87 -414h420l-41 -190h-420l-101 -475h450l-40 -192h-670zM582 1588q-14 44 -39 100t-52.5 110.5t-50.5 93.5l2 24h133q20 -21 42.5 -49t46.5 -62t46 -70q56 54 109.5 100t102.5 81h142l-2 -24q-36 -34 -88 -89.5t-101.5 -113.5
t-77.5 -101h-213z" />
    <glyph glyph-name="ecaron" unicode="&#x11b;" horiz-adv-x="949" 
d="M433 -20q-111 0 -192 44.5t-125.5 130.5t-44.5 209q0 147 37 283.5t107.5 244.5t171 171.5t227.5 63.5q140 0 216.5 -69.5t76.5 -191.5q0 -89 -37.5 -161.5t-111 -124t-182 -79t-251.5 -27.5h-30q-4 -24 -6.5 -49.5t-2.5 -50.5q0 -109 49 -165.5t144 -56.5
q72 0 132.5 18.5t137.5 57.5v-171q-72 -39 -147.5 -58t-168.5 -19zM323 632h21q119 0 198.5 27t119.5 77t40 118q0 48 -27 76t-82 28t-108 -40t-95 -113.5t-67 -172.5zM524 1241q-14 44 -39 100t-52.5 110.5t-50.5 93.5l2 24h133q20 -21 42.5 -49t46.5 -62t46 -70
q56 54 109.5 100t102.5 81h142l-2 -24q-36 -34 -88 -89.5t-101.5 -113.5t-77.5 -101h-213z" />
    <glyph glyph-name="Gcircumflex" unicode="&#x11c;" horiz-adv-x="1217" 
d="M581 -20q-232 0 -354 132.5t-122 381.5q0 159 33.5 306t97.5 271.5t156.5 217t210.5 144t260 51.5q108 0 199 -24.5t167 -67.5l-93 -187q-66 40 -136.5 62.5t-150.5 22.5q-119 0 -214 -66.5t-162.5 -179t-103 -251t-35.5 -283.5q0 -109 29.5 -184t91 -114t155.5 -39
q52 0 96.5 8t85.5 20l86 401h-228l41 190h445l-158 -738q-92 -34 -189.5 -54t-207.5 -20zM545 1588l2 23q42 42 91.5 95t96.5 107.5t79 102.5h212q15 -44 39.5 -100t53 -110.5t50.5 -93.5l-3 -24h-133q-20 23 -43.5 52t-46.5 62t-45 67q-56 -54 -109 -99.5t-102 -81.5h-142z
" />
    <glyph glyph-name="gcircumflex" unicode="&#x11d;" horiz-adv-x="966" 
d="M261 -492q-183 0 -282.5 69.5t-99.5 201.5q1 107 71 188t207 129q-34 18 -54 51t-20 76q0 64 43 115t128 99q-52 33 -81 93.5t-29 142.5q0 105 40.5 200.5t115.5 156.5q51 45 119.5 70.5t147.5 25.5q44 0 80.5 -7t66.5 -17h329l-27 -127l-164 -32q13 -24 19.5 -56
t5.5 -69q0 -90 -31.5 -175t-87.5 -145q-55 -56 -130.5 -87.5t-169.5 -31.5q-28 0 -48 1t-33 1q-54 -21 -80.5 -52.5t-26.5 -63.5q0 -28 22 -43q13 -9 34.5 -14t52.5 -7l145 -8q97 -7 158 -37.5t90 -84t29 -129.5q0 -115 -49.5 -202.5t-138.5 -142.5q-68 -43 -157.5 -65.5
t-194.5 -23.5zM271 -335q72 0 131.5 16t101.5 46q43 30 67.5 74.5t24.5 97.5q0 22 -6 40t-21 32q-18 17 -52 27t-84 14l-141 8q-61 -7 -110 -40t-77 -80.5t-28 -99.5q0 -71 49.5 -103.5t144.5 -31.5zM461 526q61 0 106 40.5t72.5 109t30.5 153.5q3 42 -4 72.5t-24 48.5
q-13 14 -32.5 21.5t-45.5 7.5q-46 0 -84 -26t-66 -69t-44 -96t-18 -109q-1 -33 3 -59t15 -45q26 -49 91 -49zM335 1244l2 23q42 42 91.5 95t96.5 107.5t79 102.5h212q15 -44 39.5 -100t53 -110.5t50.5 -93.5l-3 -24h-133q-20 23 -43.5 52t-46.5 62t-45 67
q-56 -54 -109 -99.5t-102 -81.5h-142z" />
    <glyph glyph-name="Gbreve" unicode="&#x11e;" horiz-adv-x="1217" 
d="M581 -20q-232 0 -354 132.5t-122 381.5q0 159 33.5 306t97.5 271.5t156.5 217t210.5 144t260 51.5q108 0 199 -24.5t167 -67.5l-93 -187q-66 40 -136.5 62.5t-150.5 22.5q-119 0 -214 -66.5t-162.5 -179t-103 -251t-35.5 -283.5q0 -109 29.5 -184t91 -114t155.5 -39
q52 0 96.5 8t85.5 20l86 401h-228l41 190h445l-158 -738q-92 -34 -189.5 -54t-207.5 -20zM876 1588q-87 0 -143.5 30t-83 82t-26.5 118q0 19 1.5 36t4.5 34h130q0 -46 12.5 -76.5t41 -46t75.5 -15.5q72 0 114 32.5t60 105.5h138q-28 -148 -109 -224t-215 -76z" />
    <glyph glyph-name="gbreve" unicode="&#x11f;" horiz-adv-x="966" 
d="M261 -492q-183 0 -282.5 69.5t-99.5 201.5q1 107 71 188t207 129q-34 18 -54 51t-20 76q0 64 43 115t128 99q-52 33 -81 93.5t-29 142.5q0 105 40.5 200.5t115.5 156.5q51 45 119.5 70.5t147.5 25.5q44 0 80.5 -7t66.5 -17h329l-27 -127l-164 -32q13 -24 19.5 -56
t5.5 -69q0 -90 -31.5 -175t-87.5 -145q-55 -56 -130.5 -87.5t-169.5 -31.5q-28 0 -48 1t-33 1q-54 -21 -80.5 -52.5t-26.5 -63.5q0 -28 22 -43q13 -9 34.5 -14t52.5 -7l145 -8q97 -7 158 -37.5t90 -84t29 -129.5q0 -115 -49.5 -202.5t-138.5 -142.5q-68 -43 -157.5 -65.5
t-194.5 -23.5zM271 -335q72 0 131.5 16t101.5 46q43 30 67.5 74.5t24.5 97.5q0 22 -6 40t-21 32q-18 17 -52 27t-84 14l-141 8q-61 -7 -110 -40t-77 -80.5t-28 -99.5q0 -71 49.5 -103.5t144.5 -31.5zM461 526q61 0 106 40.5t72.5 109t30.5 153.5q3 42 -4 72.5t-24 48.5
q-13 14 -32.5 21.5t-45.5 7.5q-46 0 -84 -26t-66 -69t-44 -96t-18 -109q-1 -33 3 -59t15 -45q26 -49 91 -49zM609 1244q-87 0 -143.5 30t-83 82t-26.5 118q0 19 1.5 36t4.5 34h130q0 -46 12.5 -76.5t41 -46t75.5 -15.5q72 0 114 32.5t60 105.5h138q-28 -148 -109 -224
t-215 -76z" />
    <glyph glyph-name="Gdot" unicode="&#x120;" horiz-adv-x="1217" 
d="M581 -20q-232 0 -354 132.5t-122 381.5q0 159 33.5 306t97.5 271.5t156.5 217t210.5 144t260 51.5q108 0 199 -24.5t167 -67.5l-93 -187q-66 40 -136.5 62.5t-150.5 22.5q-119 0 -214 -66.5t-162.5 -179t-103 -251t-35.5 -283.5q0 -109 29.5 -184t91 -114t155.5 -39
q52 0 96.5 8t85.5 20l86 401h-228l41 190h445l-158 -738q-92 -34 -189.5 -54t-207.5 -20zM893 1620q-50 0 -80 26t-30 76q0 64 37 108.5t105 44.5q34 0 58 -10.5t37 -32.5t13 -56q0 -66 -37 -111t-103 -45z" />
    <glyph glyph-name="gdot" unicode="&#x121;" horiz-adv-x="966" 
d="M261 -492q-183 0 -282.5 69.5t-99.5 201.5q1 107 71 188t207 129q-34 18 -54 51t-20 76q0 64 43 115t128 99q-52 33 -81 93.5t-29 142.5q0 105 40.5 200.5t115.5 156.5q51 45 119.5 70.5t147.5 25.5q44 0 80.5 -7t66.5 -17h329l-27 -127l-164 -32q13 -24 19.5 -56
t5.5 -69q0 -90 -31.5 -175t-87.5 -145q-55 -56 -130.5 -87.5t-169.5 -31.5q-28 0 -48 1t-33 1q-54 -21 -80.5 -52.5t-26.5 -63.5q0 -28 22 -43q13 -9 34.5 -14t52.5 -7l145 -8q97 -7 158 -37.5t90 -84t29 -129.5q0 -115 -49.5 -202.5t-138.5 -142.5q-68 -43 -157.5 -65.5
t-194.5 -23.5zM271 -335q72 0 131.5 16t101.5 46q43 30 67.5 74.5t24.5 97.5q0 22 -6 40t-21 32q-18 17 -52 27t-84 14l-141 8q-61 -7 -110 -40t-77 -80.5t-28 -99.5q0 -71 49.5 -103.5t144.5 -31.5zM461 526q61 0 106 40.5t72.5 109t30.5 153.5q3 42 -4 72.5t-24 48.5
q-13 14 -32.5 21.5t-45.5 7.5q-46 0 -84 -26t-66 -69t-44 -96t-18 -109q-1 -33 3 -59t15 -45q26 -49 91 -49zM631 1276q-50 0 -80 26t-30 76q0 64 37 108.5t105 44.5q34 0 58 -10.5t37 -32.5t13 -56q0 -66 -37 -111t-103 -45z" />
    <glyph glyph-name="uni0122" unicode="&#x122;" horiz-adv-x="1217" 
d="M581 -20q-232 0 -354 132.5t-122 381.5q0 159 33.5 306t97.5 271.5t156.5 217t210.5 144t260 51.5q108 0 199 -24.5t167 -67.5l-93 -187q-66 40 -136.5 62.5t-150.5 22.5q-119 0 -214 -66.5t-162.5 -179t-103 -251t-35.5 -283.5q0 -109 29.5 -184t91 -114t155.5 -39
q52 0 96.5 8t85.5 20l86 401h-228l41 190h445l-158 -738q-92 -34 -189.5 -54t-207.5 -20zM328 -453v27q21 37 47 90.5t50 110t38 100.5h204v-20q-17 -42 -52 -98t-76.5 -112t-81.5 -98h-129z" />
    <glyph glyph-name="uni0123" unicode="&#x123;" horiz-adv-x="966" 
d="M495 1241v21q20 43 54 98.5t75.5 110.5t81.5 98h129v-25q-20 -34 -46.5 -89.5t-51 -113.5t-37.5 -100h-205zM261 -492q-183 0 -282.5 69.5t-99.5 201.5q1 107 71 188t207 129q-34 18 -54 51t-20 76q0 64 43 115t128 99q-52 33 -81 93.5t-29 142.5q0 105 40.5 200.5
t115.5 156.5q51 45 119.5 70.5t147.5 25.5q44 0 80.5 -7t66.5 -17h329l-27 -127l-164 -32q13 -24 19.5 -56t5.5 -69q0 -90 -31.5 -175t-87.5 -145q-55 -56 -130.5 -87.5t-169.5 -31.5q-28 0 -48 1t-33 1q-54 -21 -80.5 -52.5t-26.5 -63.5q0 -28 22 -43q13 -9 34.5 -14
t52.5 -7l145 -8q97 -7 158 -37.5t90 -84t29 -129.5q0 -115 -49.5 -202.5t-138.5 -142.5q-68 -43 -157.5 -65.5t-194.5 -23.5zM271 -335q72 0 131.5 16t101.5 46q43 30 67.5 74.5t24.5 97.5q0 22 -6 40t-21 32q-18 17 -52 27t-84 14l-141 8q-61 -7 -110 -40t-77 -80.5
t-28 -99.5q0 -71 49.5 -103.5t144.5 -31.5zM461 526q61 0 106 40.5t72.5 109t30.5 153.5q3 42 -4 72.5t-24 48.5q-13 14 -32.5 21.5t-45.5 7.5q-46 0 -84 -26t-66 -69t-44 -96t-18 -109q-1 -33 3 -59t15 -45q26 -49 91 -49z" />
    <glyph glyph-name="Hcircumflex" unicode="&#x124;" horiz-adv-x="1220" 
d="M34 0l310 1462h220l-128 -602h468l128 602h220l-310 -1462h-221l141 666h-467l-140 -666h-221zM494 1588l2 23q42 42 91.5 95t96.5 107.5t79 102.5h212q15 -44 39.5 -100t53 -110.5t50.5 -93.5l-3 -24h-133q-20 23 -43.5 52t-46.5 62t-45 67q-56 -54 -109 -99.5
t-102 -81.5h-142z" />
    <glyph glyph-name="hcircumflex" unicode="&#x125;" horiz-adv-x="1043" 
d="M21 0l330 1556h215l-78 -359q-7 -38 -18.5 -81t-23.5 -86t-24 -81h7q35 51 78 91t96.5 63.5t117.5 23.5q77 0 131 -31t82.5 -89t28.5 -142q0 -39 -7.5 -89t-17.5 -99l-144 -677h-215l141 666q10 46 16 86.5t6 74.5q0 55 -26 84.5t-81 29.5q-60 0 -114 -44t-97.5 -132.5
t-72.5 -221.5l-115 -543h-215zM158 1695l2 23q42 42 91.5 95t96.5 107.5t79 102.5h212q15 -44 39.5 -100t53 -110.5t50.5 -93.5l-3 -24h-133q-20 23 -43.5 52t-46.5 62t-45 67q-56 -54 -109 -99.5t-102 -81.5h-142z" />
    <glyph glyph-name="Hbar" unicode="&#x126;" horiz-adv-x="1218" 
d="M34 0l227 1077h-155l34 160h155l48 225h221l-49 -225h467l49 225h221l-47 -225h152l-33 -160h-154l-228 -1077h-221l141 666h-467l-141 -666h-220zM435 855h467l47 222h-467z" />
    <glyph glyph-name="hbar" unicode="&#x127;" horiz-adv-x="1045" 
d="M21 0l261 1227h-138l33 155h137l37 174h215l-37 -174h257l-33 -155h-257q-17 -78 -32 -135.5t-26.5 -99.5t-20.5 -72h6q35 51 78 91t96 63t118 23q77 0 130.5 -31t82 -89.5t28.5 -141.5q0 -40 -7.5 -89.5t-17.5 -98.5l-137 -647h-215l135 636q10 45 16.5 85.5t6.5 74.5
q0 57 -27 86.5t-80 29.5q-62 0 -116.5 -45.5t-97.5 -134.5t-71 -219l-109 -513h-215z" />
    <glyph glyph-name="Itilde" unicode="&#x128;" horiz-adv-x="532" 
d="M33 0l311 1462h219l-310 -1462h-220zM163 1610q18 89 49 151t77 94.5t108 32.5q45 0 80.5 -17t65 -39.5t55.5 -39.5t53 -17q36 0 58 26t41 89h128q-20 -99 -54 -160.5t-79 -90t-100 -28.5q-44 0 -78.5 17.5t-64 40t-56.5 39.5t-57 17q-34 0 -58 -28.5t-39 -86.5h-129z
" />
    <glyph glyph-name="itilde" unicode="&#x129;" horiz-adv-x="492" 
d="M21 0l235 1107h214l-235 -1107h-214zM55 1243q18 89 49 151t77 94.5t108 32.5q45 0 80.5 -17t65 -39.5t55.5 -39.5t53 -17q36 0 58 26t41 89h128q-20 -99 -54 -160.5t-79 -90t-100 -28.5q-44 0 -78.5 17.5t-64 40t-56.5 39.5t-57 17q-34 0 -58 -28.5t-39 -86.5h-129z" />
    <glyph glyph-name="Imacron" unicode="&#x12a;" horiz-adv-x="532" 
d="M33 0l311 1462h219l-310 -1462h-220zM212 1612l34 160h546l-34 -160h-546z" />
    <glyph glyph-name="imacron" unicode="&#x12b;" horiz-adv-x="492" 
d="M21 0l235 1107h214l-235 -1107h-214zM110 1245l34 160h546l-34 -160h-546z" />
    <glyph glyph-name="Ibreve" unicode="&#x12c;" horiz-adv-x="532" 
d="M33 0l311 1462h219l-310 -1462h-220zM486 1608q-87 0 -143.5 30t-83 82t-26.5 118q0 19 1.5 36t4.5 34h130q0 -46 12.5 -76.5t41 -46t75.5 -15.5q72 0 114 32.5t60 105.5h138q-28 -148 -109 -224t-215 -76z" />
    <glyph glyph-name="ibreve" unicode="&#x12d;" horiz-adv-x="492" 
d="M21 0l235 1107h214l-235 -1107h-214zM393 1241q-87 0 -143.5 30t-83 82t-26.5 118q0 19 1.5 36t4.5 34h130q0 -46 12.5 -76.5t41 -46t75.5 -15.5q72 0 114 32.5t60 105.5h138q-28 -148 -109 -224t-215 -76z" />
    <glyph glyph-name="Iogonek" unicode="&#x12e;" horiz-adv-x="532" 
d="M33 0l311 1462h219l-310 -1462h-220zM79 -467q-85 0 -132.5 44.5t-47.5 120.5q0 63 25.5 114.5t73 97.5t112.5 91l142 -1q-51 -44 -91.5 -86t-63.5 -84.5t-23 -88.5q0 -31 16.5 -47.5t45.5 -16.5q21 0 42.5 4t43.5 9l-14 -137q-29 -10 -61 -15t-68 -5z" />
    <glyph glyph-name="iogonek" unicode="&#x12f;" horiz-adv-x="492" 
d="M21 0l235 1107h214l-234 -1107h-215zM411 1273q-50 0 -79.5 24.5t-29.5 74.5q0 42 16 77.5t48 57t79 21.5q49 0 77.5 -22.5t28.5 -72.5q0 -68 -38 -114t-102 -46zM61 -467q-85 0 -132.5 44.5t-47.5 120.5q0 63 25.5 114.5t73 97.5t112.5 91l142 -1q-51 -44 -91.5 -86
t-63.5 -84.5t-23 -88.5q0 -31 16.5 -47.5t45.5 -16.5q21 0 42.5 4t43.5 9l-14 -137q-29 -10 -61 -15t-68 -5z" />
    <glyph glyph-name="Idotaccent" unicode="&#x130;" horiz-adv-x="532" 
d="M33 0l311 1462h219l-310 -1462h-220zM501 1640q-50 0 -80 26t-30 76q0 64 37 108.5t105 44.5q34 0 58 -10.5t37 -32.5t13 -56q0 -66 -37 -111t-103 -45z" />
    <glyph glyph-name="dotlessi" unicode="&#x131;" horiz-adv-x="492" 
d="M21 0l235 1107h214l-235 -1107h-214z" />
    <glyph glyph-name="IJ" unicode="&#x132;" horiz-adv-x="1062" 
d="M33 0l311 1462h219l-310 -1462h-220zM378 -407q-52 0 -91 6.5t-69 18.5l23 189q29 -9 60.5 -15.5t66.5 -6.5q57 0 98 30t69 85.5t45 134.5l302 1427h221l-309 -1459q-31 -146 -87.5 -236.5t-138 -132t-190.5 -41.5z" />
    <glyph glyph-name="ij" unicode="&#x133;" horiz-adv-x="983" 
d="M21 0l235 1107h214l-234 -1107h-215zM411 1273q-50 0 -79.5 24.5t-29.5 74.5q0 42 16 77.5t48 57t79 21.5q49 0 77.5 -22.5t28.5 -72.5q0 -68 -38 -114t-102 -46zM361 -492q-37 0 -71.5 5t-61.5 15v183q23 -9 50 -14t53 -5q43 0 73.5 21t52 67t36.5 121l255 1206h214
l-261 -1229q-23 -110 -61.5 -193.5t-105 -130t-173.5 -46.5zM903 1273q-49 0 -78.5 24.5t-29.5 74.5q0 42 16 77.5t48 57t79 21.5q48 0 77 -22.5t29 -72.5q0 -68 -38.5 -114t-102.5 -46z" />
    <glyph glyph-name="Jcircumflex" unicode="&#x134;" horiz-adv-x="531" 
d="M-154 -407q-52 0 -91 6.5t-69 18.5l23 189q29 -9 60.5 -15.5t66.5 -6.5q57 0 98 30t69 85.5t45 134.5l302 1427h221l-309 -1459q-31 -146 -87.5 -236.5t-138 -132t-190.5 -41.5zM154 1588l2 23q42 42 91.5 95t96.5 107.5t79 102.5h212q15 -44 39.5 -100t53 -110.5
t50.5 -93.5l-3 -24h-133q-20 23 -43.5 52t-46.5 62t-45 67q-56 -54 -109 -99.5t-102 -81.5h-142z" />
    <glyph glyph-name="jcircumflex" unicode="&#x135;" horiz-adv-x="492" 
d="M-130 -492q-37 0 -71 5t-61 15v183q23 -9 50 -14t53 -5q43 0 73 21t51.5 67t37.5 121l255 1206h214l-261 -1229q-23 -110 -62 -193.5t-105.5 -130t-173.5 -46.5zM62 1241l2 23q42 42 91.5 95t96.5 107.5t79 102.5h212q15 -44 39.5 -100t53 -110.5t50.5 -93.5l-3 -24h-133
q-20 23 -43.5 52t-46.5 62t-45 67q-56 -54 -109 -99.5t-102 -81.5h-142z" />
    <glyph glyph-name="uni0136" unicode="&#x136;" horiz-adv-x="1041" 
d="M34 0l309 1462h221l-151 -704l123 168l432 536h253l-540 -671l243 -791h-242l-186 647l-127 -101l-115 -546h-220zM206 -453v27q21 37 47 90.5t50 110t38 100.5h204v-20q-17 -42 -52 -98t-76.5 -112t-81.5 -98h-129z" />
    <glyph glyph-name="uni0137" unicode="&#x137;" horiz-adv-x="940" 
d="M20 0l331 1556h215l-148 -690q-10 -50 -22 -97t-23.5 -88t-21.5 -75h6l429 501h243l-415 -472l210 -635h-235l-150 480l-127 -112l-76 -368h-216zM158 -453v27q21 37 47 90.5t50 110t38 100.5h204v-20q-17 -42 -52 -98t-76.5 -112t-81.5 -98h-129z" />
    <glyph glyph-name="kgreenlandic" unicode="&#x138;" horiz-adv-x="940" 
d="M20 0l236 1107h215l-58 -265q-13 -57 -29.5 -118.5t-33.5 -119.5h6l430 503h243l-415 -472l210 -635h-235l-150 480l-127 -112l-76 -368h-216z" />
    <glyph glyph-name="Lacute" unicode="&#x139;" horiz-adv-x="871" 
d="M34 0l309 1462h221l-270 -1269h449l-39 -193h-670zM417 1598l1 23q40 46 81 98.5t78 106t66 100.5h245l-1 -18q-21 -28 -61.5 -70t-88.5 -87.5t-94 -86t-80 -66.5h-146z" />
    <glyph glyph-name="lacute" unicode="&#x13a;" horiz-adv-x="490" 
d="M20 0l331 1556h215l-331 -1556h-215zM354 1682l1 23q40 46 81 98.5t78 106t66 100.5h245l-1 -18q-21 -28 -61.5 -70t-88.5 -87.5t-94 -86t-80 -66.5h-146z" />
    <glyph glyph-name="uni013B" unicode="&#x13b;" horiz-adv-x="871" 
d="M34 0l309 1462h221l-270 -1269h449l-39 -193h-670zM125 -453v27q21 37 47 90.5t50 110t38 100.5h204v-20q-17 -42 -52 -98t-76.5 -112t-81.5 -98h-129z" />
    <glyph glyph-name="uni013C" unicode="&#x13c;" horiz-adv-x="490" 
d="M20 0l331 1556h215l-331 -1556h-215zM-106 -453v27q21 37 47 90.5t50 110t38 100.5h204v-20q-17 -42 -52 -98t-76.5 -112t-81.5 -98h-129z" />
    <glyph glyph-name="Lcaron" unicode="&#x13d;" horiz-adv-x="871" 
d="M34 0l309 1462h221l-270 -1269h449l-39 -193h-670zM659 1133v22q23 46 46.5 99.5t44 107t33.5 98.5h206v-20q-19 -42 -52 -97t-71.5 -110.5t-76.5 -99.5h-130z" />
    <glyph glyph-name="lcaron" unicode="&#x13e;" horiz-adv-x="636" 
d="M20 0l331 1556h215l-331 -1556h-215zM585 1229v22q23 46 46.5 99.5t44 107t33.5 98.5h206v-20q-19 -42 -52 -97t-71.5 -110.5t-76.5 -99.5h-130z" />
    <glyph glyph-name="Ldot" unicode="&#x13f;" horiz-adv-x="871" 
d="M34 0l309 1462h221l-270 -1269h449l-39 -193h-670zM699 620q-50 0 -80 26t-30 76q0 64 37 108.5t105 44.5q34 0 58 -10.5t37 -32.5t13 -56q0 -66 -37 -111t-103 -45z" />
    <glyph glyph-name="ldot" unicode="&#x140;" horiz-adv-x="693" 
d="M20 0l331 1556h215l-331 -1556h-215zM612 577q-50 0 -80 26t-30 76q0 64 37 108.5t105 44.5q34 0 58 -10.5t37 -32.5t13 -56q0 -66 -37 -111t-103 -45z" />
    <glyph glyph-name="Lslash" unicode="&#x141;" horiz-adv-x="879" 
d="M44 0l110 517l-95 -55l-80 141l221 134l154 725h220l-122 -571l186 110l82 -139l-314 -191l-101 -478h449l-39 -193h-671z" />
    <glyph glyph-name="lslash" unicode="&#x142;" horiz-adv-x="538" 
d="M39 0l126 587l-101 -56l-68 145l210 114l164 766h214l-137 -647l111 63l69 -144l-223 -121l-151 -707h-214z" />
    <glyph glyph-name="Nacute" unicode="&#x143;" horiz-adv-x="1294" 
d="M33 0l310 1462h251l293 -1119h6q9 56 20.5 122t23.5 130.5t22 114.5l161 752h206l-310 -1462h-246l-299 1138h-6q-5 -38 -13 -89t-18 -107t-20 -109t-19 -94l-156 -739h-206zM743 1598l1 23q40 46 81 98.5t78 106t66 100.5h245l-1 -18q-21 -28 -61.5 -70t-88.5 -87.5
t-94 -86t-80 -66.5h-146z" />
    <glyph glyph-name="nacute" unicode="&#x144;" horiz-adv-x="1043" 
d="M19 0l235 1108h173l-19 -177h5q36 56 81 100.5t100.5 71t122.5 26.5q75 0 130.5 -29.5t86 -87t30.5 -143.5q0 -41 -7.5 -90t-17.5 -98l-145 -681h-217l142 671q9 44 15.5 84.5t6.5 72.5q0 56 -26 84t-79 28q-62 0 -117 -48.5t-98 -140t-72 -220.5l-112 -531h-218z
M540 1241l1 23q40 46 81 98.5t78 106t66 100.5h245l-1 -18q-21 -28 -61.5 -70t-88.5 -87.5t-94 -86t-80 -66.5h-146z" />
    <glyph glyph-name="uni0145" unicode="&#x145;" horiz-adv-x="1294" 
d="M33 0l310 1462h251l293 -1119h6q9 56 20.5 122t23.5 130.5t22 114.5l161 752h206l-310 -1462h-246l-299 1138h-6q-5 -38 -13 -89t-18 -107t-20 -109t-19 -94l-156 -739h-206zM294 -453v27q21 37 47 90.5t50 110t38 100.5h204v-20q-17 -42 -52 -98t-76.5 -112t-81.5 -98
h-129z" />
    <glyph glyph-name="uni0146" unicode="&#x146;" horiz-adv-x="1043" 
d="M19 0l235 1108h173l-19 -177h5q36 56 81 100.5t100.5 71t122.5 26.5q75 0 130.5 -29.5t86 -87t30.5 -143.5q0 -41 -7.5 -90t-17.5 -98l-145 -681h-217l142 671q9 44 15.5 84.5t6.5 72.5q0 56 -26 84t-79 28q-62 0 -117 -48.5t-98 -140t-72 -220.5l-112 -531h-218z
M176 -453v27q21 37 47 90.5t50 110t38 100.5h204v-20q-17 -42 -52 -98t-76.5 -112t-81.5 -98h-129z" />
    <glyph glyph-name="Ncaron" unicode="&#x147;" horiz-adv-x="1294" 
d="M33 0l310 1462h251l293 -1119h6q9 56 20.5 122t23.5 130.5t22 114.5l161 752h206l-310 -1462h-246l-299 1138h-6q-5 -38 -13 -89t-18 -107t-20 -109t-19 -94l-156 -739h-206zM746 1588q-14 44 -39 100t-52.5 110.5t-50.5 93.5l2 24h133q20 -21 42.5 -49t46.5 -62t46 -70
q56 54 109.5 100t102.5 81h142l-2 -24q-36 -34 -88 -89.5t-101.5 -113.5t-77.5 -101h-213z" />
    <glyph glyph-name="ncaron" unicode="&#x148;" horiz-adv-x="1043" 
d="M19 0l235 1108h173l-19 -177h5q36 56 81 100.5t100.5 71t122.5 26.5q75 0 130.5 -29.5t86 -87t30.5 -143.5q0 -41 -7.5 -90t-17.5 -98l-145 -681h-217l142 671q9 44 15.5 84.5t6.5 72.5q0 56 -26 84t-79 28q-62 0 -117 -48.5t-98 -140t-72 -220.5l-112 -531h-218z
M551 1241q-14 44 -39 100t-52.5 110.5t-50.5 93.5l2 24h133q20 -21 42.5 -49t46.5 -62t46 -70q56 54 109.5 100t102.5 81h142l-2 -24q-36 -34 -88 -89.5t-101.5 -113.5t-77.5 -101h-213z" />
    <glyph glyph-name="napostrophe" unicode="&#x149;" horiz-adv-x="1207" 
d="M182 0l235 1108h173l-19 -177h5q36 56 81 100.5t100.5 71t122.5 26.5q75 0 130.5 -29.5t86 -87t30.5 -143.5q0 -41 -7.5 -90t-17.5 -98l-145 -681h-217l142 671q9 44 15.5 84.5t6.5 72.5q0 56 -26 84t-79 28q-62 0 -117 -48.5t-98 -140t-72 -220.5l-112 -531h-218z
M48 953q36 82 71.5 169.5t67.5 174.5t56 165h214l7 -21q-31 -80 -71.5 -164.5t-86 -166.5t-91.5 -157h-167z" />
    <glyph glyph-name="Eng" unicode="&#x14a;" horiz-adv-x="1294" 
d="M597 -407q-46 0 -86 7t-67 19l21 188q29 -11 61.5 -17.5t66.5 -6.5q57 0 98 23t69 70.5t43 120.5l-328 1155h-7q-4 -29 -10.5 -70.5t-14 -88.5t-16.5 -95.5t-19 -91.5l-169 -806h-206l310 1462h247l305 -1071h7q8 47 17 103t19.5 114.5t21.5 112.5l159 741h207
l-306 -1448q-30 -137 -83.5 -231t-137 -142t-202.5 -48z" />
    <glyph glyph-name="eng" unicode="&#x14b;" horiz-adv-x="1043" 
d="M425 -492q-39 0 -73 6t-59 14v183q24 -9 51 -14t52 -5q43 0 73 20.5t51.5 66.5t37.5 122l162 769q10 45 16.5 85.5t6.5 72.5q0 55 -26 84t-81 29q-63 0 -118 -48t-98 -137.5t-69 -214.5l-115 -541h-216l235 1107h170l-19 -177h7q36 56 81 100.5t101 70.5t122 26
q74 0 129 -28.5t86 -85.5t31 -144q0 -41 -7.5 -89.5t-17.5 -98.5l-170 -802q-27 -124 -68 -206.5t-107 -123.5t-168 -41z" />
    <glyph glyph-name="Omacron" unicode="&#x14c;" horiz-adv-x="1268" 
d="M546 -20q-146 0 -244 58.5t-148 171.5t-50 274q0 116 19.5 234t58 230t96 209t133.5 171t171 115.5t209 41.5q215 0 324 -129.5t109 -368.5q0 -108 -17 -224t-53 -229t-91 -212.5t-130 -176.5t-171.5 -121t-215.5 -44zM561 174q69 0 128 35t107.5 96.5t85.5 141.5
t62.5 171t39 186t13.5 184q0 147 -57.5 225t-166.5 78q-71 0 -132 -36t-109.5 -99.5t-85.5 -144.5t-62.5 -172t-38 -181.5t-12.5 -173.5q0 -104 26.5 -173t77.5 -103t124 -34zM561 1592l34 160h546l-34 -160h-546z" />
    <glyph glyph-name="omacron" unicode="&#x14d;" horiz-adv-x="1021" 
d="M421 -19q-107 0 -185.5 46t-121.5 132.5t-43 206.5q0 98 20 203.5t61 204.5t104 178.5t149.5 126.5t197.5 47q108 0 186 -46.5t119.5 -134t41.5 -210.5q0 -104 -20 -210.5t-61.5 -204t-104.5 -174t-148.5 -121t-194.5 -44.5zM441 161q53 0 98.5 34t81 93t60.5 134t38 157
t13 162q0 59 -14.5 105t-47 73t-85.5 27q-58 0 -105.5 -38t-83 -100.5t-59.5 -139t-36.5 -156t-12.5 -148.5q0 -98 39 -150.5t114 -52.5zM354 1245l34 160h546l-34 -160h-546z" />
    <glyph glyph-name="Obreve" unicode="&#x14e;" horiz-adv-x="1268" 
d="M546 -20q-146 0 -244 58.5t-148 171.5t-50 274q0 116 19.5 234t58 230t96 209t133.5 171t171 115.5t209 41.5q215 0 324 -129.5t109 -368.5q0 -108 -17 -224t-53 -229t-91 -212.5t-130 -176.5t-171.5 -121t-215.5 -44zM561 174q69 0 128 35t107.5 96.5t85.5 141.5
t62.5 171t39 186t13.5 184q0 147 -57.5 225t-166.5 78q-71 0 -132 -36t-109.5 -99.5t-85.5 -144.5t-62.5 -172t-38 -181.5t-12.5 -173.5q0 -104 26.5 -173t77.5 -103t124 -34zM844 1588q-87 0 -143.5 30t-83 82t-26.5 118q0 19 1.5 36t4.5 34h130q0 -46 12.5 -76.5t41 -46
t75.5 -15.5q72 0 114 32.5t60 105.5h138q-28 -148 -109 -224t-215 -76z" />
    <glyph glyph-name="obreve" unicode="&#x14f;" horiz-adv-x="1021" 
d="M421 -19q-107 0 -185.5 46t-121.5 132.5t-43 206.5q0 98 20 203.5t61 204.5t104 178.5t149.5 126.5t197.5 47q108 0 186 -46.5t119.5 -134t41.5 -210.5q0 -104 -20 -210.5t-61.5 -204t-104.5 -174t-148.5 -121t-194.5 -44.5zM441 161q53 0 98.5 34t81 93t60.5 134t38 157
t13 162q0 59 -14.5 105t-47 73t-85.5 27q-58 0 -105.5 -38t-83 -100.5t-59.5 -139t-36.5 -156t-12.5 -148.5q0 -98 39 -150.5t114 -52.5zM644 1241q-87 0 -143.5 30t-83 82t-26.5 118q0 19 1.5 36t4.5 34h130q0 -46 12.5 -76.5t41 -46t75.5 -15.5q72 0 114 32.5t60 105.5
h138q-28 -148 -109 -224t-215 -76z" />
    <glyph glyph-name="Ohungarumlaut" unicode="&#x150;" horiz-adv-x="1268" 
d="M546 -20q-146 0 -244 58.5t-148 171.5t-50 274q0 116 19.5 234t58 230t96 209t133.5 171t171 115.5t209 41.5q215 0 324 -129.5t109 -368.5q0 -108 -17 -224t-53 -229t-91 -212.5t-130 -176.5t-171.5 -121t-215.5 -44zM561 174q69 0 128 35t107.5 96.5t85.5 141.5
t62.5 171t39 186t13.5 184q0 147 -57.5 225t-166.5 78q-71 0 -132 -36t-109.5 -99.5t-85.5 -144.5t-62.5 -172t-38 -181.5t-12.5 -173.5q0 -104 26.5 -173t77.5 -103t124 -34zM917 1588l2 23q42 52 84 106.5t78.5 106t60.5 92.5h218l-1 -18q-21 -29 -60 -70t-85.5 -85.5
t-93 -85t-84.5 -69.5h-119zM572 1588l2 23q43 52 85 107t78 106.5t61 91.5h217l-1 -18q-20 -29 -58.5 -70t-85 -85t-94.5 -84.5t-89 -70.5h-115z" />
    <glyph glyph-name="ohungarumlaut" unicode="&#x151;" horiz-adv-x="1021" 
d="M421 -19q-107 0 -185.5 46t-121.5 132.5t-43 206.5q0 98 20 203.5t61 204.5t104 178.5t149.5 126.5t197.5 47q108 0 186 -46.5t119.5 -134t41.5 -210.5q0 -104 -20 -210.5t-61.5 -204t-104.5 -174t-148.5 -121t-194.5 -44.5zM441 161q53 0 98.5 34t81 93t60.5 134t38 157
t13 162q0 59 -14.5 105t-47 73t-85.5 27q-58 0 -105.5 -38t-83 -100.5t-59.5 -139t-36.5 -156t-12.5 -148.5q0 -98 39 -150.5t114 -52.5zM720 1241l2 23q42 52 84 106.5t78.5 106t60.5 92.5h218l-1 -18q-21 -29 -60 -70t-85.5 -85.5t-93 -85t-84.5 -69.5h-119zM375 1241
l2 23q43 52 85 107t78 106.5t61 91.5h217l-1 -18q-20 -29 -58.5 -70t-85 -85t-94.5 -84.5t-89 -70.5h-115z" />
    <glyph glyph-name="OE" unicode="&#x152;" horiz-adv-x="1524" 
d="M541 -16q-146 0 -243 61t-145.5 171.5t-48.5 258.5q0 134 25.5 274.5t78 271t133.5 234.5t191 164.5t251 60.5q61 0 108.5 -4t83.5 -14h636l-40 -191h-450l-89 -414h421l-40 -190h-421l-101 -475h451l-40 -192h-613q-30 -6 -68 -11t-80 -5zM568 179q31 0 57.5 4t47.5 12
l227 1070q-25 10 -56.5 16.5t-70.5 6.5q-83 0 -152.5 -48.5t-123 -131t-90 -186.5t-55.5 -216.5t-19 -218.5q0 -101 26.5 -170t79 -103.5t129.5 -34.5z" />
    <glyph glyph-name="oe" unicode="&#x153;" horiz-adv-x="1562" 
d="M407 -19q-154 0 -245 102t-91 286q0 94 19 197.5t58.5 203t101.5 180t148 128.5t198 48q114 0 180 -53.5t97 -148.5q66 95 158 149t200 54q135 0 212.5 -68.5t77.5 -191.5q0 -90 -37 -162.5t-110.5 -124t-181.5 -79t-251 -27.5h-33q-3 -24 -5.5 -49.5t-2.5 -50.5
q0 -109 49 -165.5t145 -56.5q71 0 134.5 20t134.5 57v-171q-73 -38 -149 -58t-166 -20q-74 0 -133.5 22t-102 65.5t-66.5 108.5q-58 -90 -141.5 -142.5t-197.5 -52.5zM438 161q55 0 100.5 35t81 95t59.5 135.5t36 157.5t12 159q0 95 -35.5 148.5t-111.5 53.5
q-56 0 -102 -36.5t-81.5 -98t-59.5 -137t-36.5 -155t-12.5 -151.5q0 -102 38.5 -154t111.5 -52zM937 632h22q119 0 198.5 27.5t119.5 78t40 118.5q0 47 -26.5 74.5t-78.5 27.5q-61 0 -117 -44.5t-98 -118.5t-60 -163z" />
    <glyph glyph-name="Racute" unicode="&#x154;" horiz-adv-x="1052" 
d="M34 0l309 1462h292q200 0 305 -88.5t105 -264.5q0 -117 -37.5 -213t-109 -162.5t-173.5 -97.5l193 -636h-240l-158 592h-141l-125 -592h-220zM418 775h103q74 0 129.5 24.5t92.5 67t55.5 99.5t18.5 122q0 96 -51.5 140.5t-155.5 44.5h-86zM602 1598l1 23q40 46 81 98.5
t78 106t66 100.5h245l-1 -18q-21 -28 -61.5 -70t-88.5 -87.5t-94 -86t-80 -66.5h-146z" />
    <glyph glyph-name="racute" unicode="&#x155;" horiz-adv-x="718" 
d="M21 0l234 1107h168l-21 -193h9q38 65 81.5 113t96.5 74t118 26q24 0 48 -3t46 -10l-55 -215q-19 7 -42 10.5t-49 3.5q-59 0 -108 -30.5t-88 -83t-66.5 -120t-43.5 -141.5l-113 -538h-215zM409 1240l1 23q40 46 81 98.5t78 106t66 100.5h245l-1 -18q-21 -28 -61.5 -70
t-88.5 -87.5t-94 -86t-80 -66.5h-146z" />
    <glyph glyph-name="uni0156" unicode="&#x156;" horiz-adv-x="1052" 
d="M34 0l309 1462h292q200 0 305 -88.5t105 -264.5q0 -117 -37.5 -213t-109 -162.5t-173.5 -97.5l193 -636h-240l-158 592h-141l-125 -592h-220zM418 775h103q74 0 129.5 24.5t92.5 67t55.5 99.5t18.5 122q0 96 -51.5 140.5t-155.5 44.5h-86zM205 -453v27q21 37 47 90.5
t50 110t38 100.5h204v-20q-17 -42 -52 -98t-76.5 -112t-81.5 -98h-129z" />
    <glyph glyph-name="uni0157" unicode="&#x157;" horiz-adv-x="718" 
d="M21 0l234 1107h168l-21 -193h9q38 65 81.5 113t96.5 74t118 26q24 0 48 -3t46 -10l-55 -215q-19 7 -42 10.5t-49 3.5q-59 0 -108 -30.5t-88 -83t-66.5 -120t-43.5 -141.5l-113 -538h-215zM-78 -453v27q21 37 47 90.5t50 110t38 100.5h204v-20q-17 -42 -52 -98t-76.5 -112
t-81.5 -98h-129z" />
    <glyph glyph-name="Rcaron" unicode="&#x158;" horiz-adv-x="1052" 
d="M34 0l309 1462h292q200 0 305 -88.5t105 -264.5q0 -117 -37.5 -213t-109 -162.5t-173.5 -97.5l193 -636h-240l-158 592h-141l-125 -592h-220zM418 775h103q74 0 129.5 24.5t92.5 67t55.5 99.5t18.5 122q0 96 -51.5 140.5t-155.5 44.5h-86zM609 1588q-14 44 -39 100
t-52.5 110.5t-50.5 93.5l2 24h133q20 -21 42.5 -49t46.5 -62t46 -70q56 54 109.5 100t102.5 81h142l-2 -24q-36 -34 -88 -89.5t-101.5 -113.5t-77.5 -101h-213z" />
    <glyph glyph-name="rcaron" unicode="&#x159;" horiz-adv-x="718" 
d="M21 0l234 1107h168l-21 -193h9q38 65 81.5 113t96.5 74t118 26q24 0 48 -3t46 -10l-55 -215q-19 7 -42 10.5t-49 3.5q-59 0 -108 -30.5t-88 -83t-66.5 -120t-43.5 -141.5l-113 -538h-215zM437 1241q-14 44 -39 100t-52.5 110.5t-50.5 93.5l2 24h133q20 -21 42.5 -49
t46.5 -62t46 -70q56 54 109.5 100t102.5 81h142l-2 -24q-36 -34 -88 -89.5t-101.5 -113.5t-77.5 -101h-213z" />
    <glyph glyph-name="Sacute" unicode="&#x15a;" horiz-adv-x="928" 
d="M320 -20q-101 0 -182 19t-141 56l18 217q65 -40 143 -67.5t165 -27.5q54 0 101.5 14t83 42t55.5 71t20 101q0 54 -18 94.5t-57 80.5t-104 91q-62 50 -111.5 103t-78 120t-28.5 157q0 98 33 177.5t94.5 136.5t146.5 87.5t189 30.5q95 0 180 -23t154 -65l-91 -187
q-58 35 -121.5 56.5t-128.5 21.5q-47 0 -88.5 -14t-72 -42t-48 -68t-17.5 -92q0 -54 20 -95t60 -79t100 -86q70 -52 118.5 -107t73 -121.5t24.5 -153.5q0 -104 -34.5 -186.5t-99 -141t-155.5 -89.5t-203 -31zM540 1598l1 23q40 46 81 98.5t78 106t66 100.5h245l-1 -18
q-21 -28 -61.5 -70t-88.5 -87.5t-94 -86t-80 -66.5h-146z" />
    <glyph glyph-name="sacute" unicode="&#x15b;" horiz-adv-x="804" 
d="M282 -20q-92 0 -161.5 16.5t-120.5 44.5v197q53 -35 124.5 -58.5t141.5 -23.5q57 0 99.5 18t66 52.5t23.5 83.5q0 35 -12.5 63t-44 59t-89.5 73q-60 44 -100.5 87t-61 93t-20.5 113q0 98 43 172t124.5 115.5t194.5 41.5q90 0 168.5 -22t139.5 -59l-80 -164
q-48 32 -105.5 51.5t-117.5 19.5q-66 0 -107.5 -34.5t-41.5 -95.5q0 -32 11.5 -58.5t41.5 -54.5t83 -65q60 -45 104 -87.5t68 -95t24 -127.5q0 -109 -47.5 -189t-136 -123t-211.5 -43zM406 1240l1 23q40 46 81 98.5t78 106t66 100.5h245l-1 -18q-21 -28 -61.5 -70
t-88.5 -87.5t-94 -86t-80 -66.5h-146z" />
    <glyph glyph-name="Scircumflex" unicode="&#x15c;" horiz-adv-x="928" 
d="M320 -20q-101 0 -182 19t-141 56l18 217q65 -40 143 -67.5t165 -27.5q54 0 101.5 14t83 42t55.5 71t20 101q0 54 -18 94.5t-57 80.5t-104 91q-62 50 -111.5 103t-78 120t-28.5 157q0 98 33 177.5t94.5 136.5t146.5 87.5t189 30.5q95 0 180 -23t154 -65l-91 -187
q-58 35 -121.5 56.5t-128.5 21.5q-47 0 -88.5 -14t-72 -42t-48 -68t-17.5 -92q0 -54 20 -95t60 -79t100 -86q70 -52 118.5 -107t73 -121.5t24.5 -153.5q0 -104 -34.5 -186.5t-99 -141t-155.5 -89.5t-203 -31zM344 1588l2 23q42 42 91.5 95t96.5 107.5t79 102.5h212
q15 -44 39.5 -100t53 -110.5t50.5 -93.5l-3 -24h-133q-20 23 -43.5 52t-46.5 62t-45 67q-56 -54 -109 -99.5t-102 -81.5h-142z" />
    <glyph glyph-name="scircumflex" unicode="&#x15d;" horiz-adv-x="804" 
d="M282 -20q-92 0 -161.5 16.5t-120.5 44.5v197q53 -35 124.5 -58.5t141.5 -23.5q57 0 99.5 18t66 52.5t23.5 83.5q0 35 -12.5 63t-44 59t-89.5 73q-60 44 -100.5 87t-61 93t-20.5 113q0 98 43 172t124.5 115.5t194.5 41.5q90 0 168.5 -22t139.5 -59l-80 -164
q-48 32 -105.5 51.5t-117.5 19.5q-66 0 -107.5 -34.5t-41.5 -95.5q0 -32 11.5 -58.5t41.5 -54.5t83 -65q60 -45 104 -87.5t68 -95t24 -127.5q0 -109 -47.5 -189t-136 -123t-211.5 -43zM204 1241l2 23q42 42 91.5 95t96.5 107.5t79 102.5h212q15 -44 39.5 -100t53 -110.5
t50.5 -93.5l-3 -24h-133q-20 23 -43.5 52t-46.5 62t-45 67q-56 -54 -109 -99.5t-102 -81.5h-142z" />
    <glyph glyph-name="Scedilla" unicode="&#x15e;" horiz-adv-x="928" 
d="M320 -20q-101 0 -182 19t-141 56l18 217q65 -40 143 -67.5t165 -27.5q54 0 101.5 14t83 42t55.5 71t20 101q0 54 -18 94.5t-57 80.5t-104 91q-62 50 -111.5 103t-78 120t-28.5 157q0 98 33 177.5t94.5 136.5t146.5 87.5t189 30.5q95 0 180 -23t154 -65l-91 -187
q-58 35 -121.5 56.5t-128.5 21.5q-47 0 -88.5 -14t-72 -42t-48 -68t-17.5 -92q0 -54 20 -95t60 -79t100 -86q70 -52 118.5 -107t73 -121.5t24.5 -153.5q0 -104 -34.5 -186.5t-99 -141t-155.5 -89.5t-203 -31zM208 -492q-38 0 -71 5t-60 12v127q20 -5 48.5 -9.5t59.5 -4.5
q42 0 71.5 12t45 35t15.5 55q0 41 -34 64t-103 30l101 166h128l-57 -96q60 -14 100 -53.5t40 -109.5q0 -72 -34.5 -124.5t-97.5 -80.5t-152 -28z" />
    <glyph glyph-name="scedilla" unicode="&#x15f;" horiz-adv-x="804" 
d="M282 -20q-92 0 -161.5 16.5t-120.5 44.5v197q53 -35 124.5 -58.5t141.5 -23.5q57 0 99.5 18t66 52.5t23.5 83.5q0 35 -12.5 63t-44 59t-89.5 73q-60 44 -100.5 87t-61 93t-20.5 113q0 98 43 172t124.5 115.5t194.5 41.5q90 0 168.5 -22t139.5 -59l-80 -164
q-48 32 -105.5 51.5t-117.5 19.5q-66 0 -107.5 -34.5t-41.5 -95.5q0 -32 11.5 -58.5t41.5 -54.5t83 -65q60 -45 104 -87.5t68 -95t24 -127.5q0 -109 -47.5 -189t-136 -123t-211.5 -43zM150 -492q-38 0 -71 5t-60 12v127q20 -5 48.5 -9.5t59.5 -4.5q42 0 71.5 12t45 35
t15.5 55q0 41 -34 64t-103 30l101 166h128l-57 -96q60 -14 100 -53.5t40 -109.5q0 -72 -34.5 -124.5t-97.5 -80.5t-152 -28z" />
    <glyph glyph-name="Scaron" unicode="&#x160;" horiz-adv-x="928" 
d="M320 -20q-101 0 -182 19t-141 56l18 217q65 -40 143 -67.5t165 -27.5q54 0 101.5 14t83 42t55.5 71t20 101q0 54 -18 94.5t-57 80.5t-104 91q-62 50 -111.5 103t-78 120t-28.5 157q0 98 33 177.5t94.5 136.5t146.5 87.5t189 30.5q95 0 180 -23t154 -65l-91 -187
q-58 35 -121.5 56.5t-128.5 21.5q-47 0 -88.5 -14t-72 -42t-48 -68t-17.5 -92q0 -54 20 -95t60 -79t100 -86q70 -52 118.5 -107t73 -121.5t24.5 -153.5q0 -104 -34.5 -186.5t-99 -141t-155.5 -89.5t-203 -31zM564 1588q-14 44 -39 100t-52.5 110.5t-50.5 93.5l2 24h133
q20 -21 42.5 -49t46.5 -62t46 -70q56 54 109.5 100t102.5 81h142l-2 -24q-36 -34 -88 -89.5t-101.5 -113.5t-77.5 -101h-213z" />
    <glyph glyph-name="scaron" unicode="&#x161;" horiz-adv-x="804" 
d="M282 -20q-92 0 -161.5 16.5t-120.5 44.5v197q53 -35 124.5 -58.5t141.5 -23.5q57 0 99.5 18t66 52.5t23.5 83.5q0 35 -12.5 63t-44 59t-89.5 73q-60 44 -100.5 87t-61 93t-20.5 113q0 98 43 172t124.5 115.5t194.5 41.5q90 0 168.5 -22t139.5 -59l-80 -164
q-48 32 -105.5 51.5t-117.5 19.5q-66 0 -107.5 -34.5t-41.5 -95.5q0 -32 11.5 -58.5t41.5 -54.5t83 -65q60 -45 104 -87.5t68 -95t24 -127.5q0 -109 -47.5 -189t-136 -123t-211.5 -43zM419 1241q-14 44 -39 100t-52.5 110.5t-50.5 93.5l2 24h133q20 -21 42.5 -49t46.5 -62
t46 -70q56 54 109.5 100t102.5 81h142l-2 -24q-36 -34 -88 -89.5t-101.5 -113.5t-77.5 -101h-213z" />
    <glyph glyph-name="uni0162" unicode="&#x162;" horiz-adv-x="900" 
d="M215 0l269 1269h-314l41 193h849l-41 -193h-314l-269 -1269h-221zM201 -492q-38 0 -71 5t-60 12v127q20 -5 48.5 -9.5t59.5 -4.5q42 0 71.5 12t45 35t15.5 55q0 41 -34 64t-103 30l101 166h128l-57 -96q60 -14 100 -53.5t40 -109.5q0 -72 -34.5 -124.5t-97.5 -80.5
t-152 -28z" />
    <glyph glyph-name="uni0163" unicode="&#x163;" horiz-adv-x="647" 
d="M312 -20q-108 0 -166.5 54.5t-58.5 169.5q0 29 4.5 65t12.5 77l125 588h-130l23 110l157 66l110 241h144l-53 -244h224l-37 -173h-223l-127 -599q-5 -25 -9 -49t-4 -43q0 -40 19.5 -60.5t61.5 -20.5q28 0 60 6.5t66 19.5v-168q-38 -18 -92.5 -29t-106.5 -11zM157 -492
q-38 0 -71 5t-60 12v127q20 -5 48.5 -9.5t59.5 -4.5q42 0 71.5 12t45 35t15.5 55q0 41 -34 64t-103 30l101 166h128l-57 -96q60 -14 100 -53.5t40 -109.5q0 -72 -34.5 -124.5t-97.5 -80.5t-152 -28z" />
    <glyph glyph-name="Tcaron" unicode="&#x164;" horiz-adv-x="900" 
d="M215 0l269 1269h-314l41 193h849l-41 -193h-314l-269 -1269h-221zM549 1588q-14 44 -39 100t-52.5 110.5t-50.5 93.5l2 24h133q20 -21 42.5 -49t46.5 -62t46 -70q56 54 109.5 100t102.5 81h142l-2 -24q-36 -34 -88 -89.5t-101.5 -113.5t-77.5 -101h-213z" />
    <glyph glyph-name="tcaron" unicode="&#x165;" horiz-adv-x="668" 
d="M312 -20q-108 0 -166.5 54.5t-58.5 169.5q0 29 4.5 65t12.5 77l125 588h-130l23 110l157 66l110 241h144l-53 -244h224l-37 -173h-223l-127 -599q-5 -25 -9 -49t-4 -43q0 -40 19.5 -60.5t61.5 -20.5q28 0 60 6.5t66 19.5v-168q-38 -18 -92.5 -29t-106.5 -11zM597 1226v22
q23 46 46.5 99.5t44 107t33.5 98.5h206v-20q-19 -42 -52 -97t-71.5 -110.5t-76.5 -99.5h-130z" />
    <glyph glyph-name="Tbar" unicode="&#x166;" horiz-adv-x="899" 
d="M215 0l137 648h-215l38 177h213l95 444h-313l41 193h849l-41 -193h-315l-94 -444h223l-37 -177h-223l-137 -648h-221z" />
    <glyph glyph-name="tbar" unicode="&#x167;" horiz-adv-x="645" 
d="M312 -20q-108 0 -166.5 54.5t-58.5 168.5q0 29 4 64t13 76l41 196h-120l33 155h120l51 240h-130l23 110l157 66l110 241h143l-52 -244h224l-37 -173h-223l-52 -240h203l-33 -155h-202l-43 -204q-6 -25 -9.5 -48t-3.5 -42q0 -41 20 -62t62 -21q28 0 59 6.5t66 19.5v-168
q-38 -18 -92.5 -29t-106.5 -11z" />
    <glyph glyph-name="Utilde" unicode="&#x168;" horiz-adv-x="1201" 
d="M495 -20q-124 0 -210 43t-130 124.5t-44 194.5q0 35 5 80t14 91l203 949h220l-202 -953q-9 -39 -14 -77.5t-5 -67.5q0 -93 47.5 -141.5t139.5 -48.5q85 0 142 36t94 109.5t61 185.5l205 957h221l-210 -980q-32 -153 -97 -266t-172 -174.5t-268 -61.5zM478 1590
q18 89 49 151t77 94.5t108 32.5q45 0 80.5 -17t65 -39.5t55.5 -39.5t53 -17q36 0 58 26t41 89h128q-20 -99 -54 -160.5t-79 -90t-100 -28.5q-44 0 -78.5 17.5t-64 40t-56.5 39.5t-57 17q-34 0 -58 -28.5t-39 -86.5h-129z" />
    <glyph glyph-name="utilde" unicode="&#x169;" horiz-adv-x="1044" 
d="M323 -20q-78 0 -132.5 30.5t-82.5 89t-28 140.5q0 39 6.5 88.5t16.5 97.5l145 681h215l-143 -678q-10 -43 -15.5 -80.5t-5.5 -68.5q0 -56 25.5 -86t79.5 -30q64 0 119.5 49t99 141.5t70.5 221.5l113 531h214l-234 -1107h-170l17 174h-8q-35 -54 -80.5 -98t-100.5 -70
t-121 -26zM335 1243q18 89 49 151t77 94.5t108 32.5q45 0 80.5 -17t65 -39.5t55.5 -39.5t53 -17q36 0 58 26t41 89h128q-20 -99 -54 -160.5t-79 -90t-100 -28.5q-44 0 -78.5 17.5t-64 40t-56.5 39.5t-57 17q-34 0 -58 -28.5t-39 -86.5h-129z" />
    <glyph glyph-name="Umacron" unicode="&#x16a;" horiz-adv-x="1201" 
d="M495 -20q-124 0 -210 43t-130 124.5t-44 194.5q0 35 5 80t14 91l203 949h220l-202 -953q-9 -39 -14 -77.5t-5 -67.5q0 -93 47.5 -141.5t139.5 -48.5q85 0 142 36t94 109.5t61 185.5l205 957h221l-210 -980q-32 -153 -97 -266t-172 -174.5t-268 -61.5zM529 1592l34 160
h546l-34 -160h-546z" />
    <glyph glyph-name="umacron" unicode="&#x16b;" horiz-adv-x="1045" 
d="M323 -20q-78 0 -132.5 30.5t-82.5 89t-28 140.5q0 39 6.5 88.5t16.5 97.5l145 681h215l-143 -678q-10 -43 -15.5 -80.5t-5.5 -68.5q0 -56 25.5 -86t79.5 -30q64 0 119.5 49t99 141.5t70.5 221.5l113 531h214l-234 -1107h-170l17 174h-8q-35 -54 -80.5 -98t-100.5 -70
t-121 -26zM383 1245l34 160h546l-34 -160h-546z" />
    <glyph glyph-name="Ubreve" unicode="&#x16c;" horiz-adv-x="1201" 
d="M495 -20q-124 0 -210 43t-130 124.5t-44 194.5q0 35 5 80t14 91l203 949h220l-202 -953q-9 -39 -14 -77.5t-5 -67.5q0 -93 47.5 -141.5t139.5 -48.5q85 0 142 36t94 109.5t61 185.5l205 957h221l-210 -980q-32 -153 -97 -266t-172 -174.5t-268 -61.5zM809 1588
q-87 0 -143.5 30t-83 82t-26.5 118q0 19 1.5 36t4.5 34h130q0 -46 12.5 -76.5t41 -46t75.5 -15.5q72 0 114 32.5t60 105.5h138q-28 -148 -109 -224t-215 -76z" />
    <glyph glyph-name="ubreve" unicode="&#x16d;" horiz-adv-x="1044" 
d="M323 -20q-78 0 -132.5 30.5t-82.5 89t-28 140.5q0 39 6.5 88.5t16.5 97.5l145 681h215l-143 -678q-10 -43 -15.5 -80.5t-5.5 -68.5q0 -56 25.5 -86t79.5 -30q64 0 119.5 49t99 141.5t70.5 221.5l113 531h214l-234 -1107h-170l17 174h-8q-35 -54 -80.5 -98t-100.5 -70
t-121 -26zM666 1241q-87 0 -143.5 30t-83 82t-26.5 118q0 19 1.5 36t4.5 34h130q0 -46 12.5 -76.5t41 -46t75.5 -15.5q72 0 114 32.5t60 105.5h138q-28 -148 -109 -224t-215 -76z" />
    <glyph glyph-name="Uring" unicode="&#x16e;" horiz-adv-x="1201" 
d="M495 -20q-124 0 -210 43t-130 124.5t-44 194.5q0 35 5 80t14 91l203 949h220l-202 -953q-9 -39 -14 -77.5t-5 -67.5q0 -93 47.5 -141.5t139.5 -48.5q85 0 142 36t94 109.5t61 185.5l205 957h221l-210 -980q-32 -153 -97 -266t-172 -174.5t-268 -61.5zM826 1590
q-103 0 -164 59.5t-61 161.5q0 100 62.5 159.5t162.5 59.5t163.5 -59t63.5 -157q0 -102 -63 -163t-164 -61zM827 1703q48 0 77.5 29t29.5 78t-29.5 78.5t-77.5 29.5t-77.5 -29.5t-29.5 -78.5t27 -78t80 -29z" />
    <glyph glyph-name="uring" unicode="&#x16f;" horiz-adv-x="1044" 
d="M323 -20q-78 0 -132.5 30.5t-82.5 89t-28 140.5q0 39 6.5 88.5t16.5 97.5l145 681h215l-143 -678q-10 -43 -15.5 -80.5t-5.5 -68.5q0 -56 25.5 -86t79.5 -30q64 0 119.5 49t99 141.5t70.5 221.5l113 531h214l-234 -1107h-170l17 174h-8q-35 -54 -80.5 -98t-100.5 -70
t-121 -26zM688 1243q-103 0 -164 59.5t-61 161.5q0 100 62.5 159.5t162.5 59.5t163.5 -59t63.5 -157q0 -102 -63 -163t-164 -61zM689 1356q48 0 77.5 29t29.5 78t-29.5 78.5t-77.5 29.5t-77.5 -29.5t-29.5 -78.5t27 -78t80 -29z" />
    <glyph glyph-name="Uhungarumlaut" unicode="&#x170;" horiz-adv-x="1201" 
d="M495 -20q-124 0 -210 43t-130 124.5t-44 194.5q0 35 5 80t14 91l203 949h220l-202 -953q-9 -39 -14 -77.5t-5 -67.5q0 -93 47.5 -141.5t139.5 -48.5q85 0 142 36t94 109.5t61 185.5l205 957h221l-210 -980q-32 -153 -97 -266t-172 -174.5t-268 -61.5zM890 1588l2 23
q42 52 84 106.5t78.5 106t60.5 92.5h218l-1 -18q-21 -29 -60 -70t-85.5 -85.5t-93 -85t-84.5 -69.5h-119zM545 1588l2 23q43 52 85 107t78 106.5t61 91.5h217l-1 -18q-20 -29 -58.5 -70t-85 -85t-94.5 -84.5t-89 -70.5h-115z" />
    <glyph glyph-name="uhungarumlaut" unicode="&#x171;" horiz-adv-x="1044" 
d="M323 -20q-78 0 -132.5 30.5t-82.5 89t-28 140.5q0 39 6.5 88.5t16.5 97.5l145 681h215l-143 -678q-10 -43 -15.5 -80.5t-5.5 -68.5q0 -56 25.5 -86t79.5 -30q64 0 119.5 49t99 141.5t70.5 221.5l113 531h214l-234 -1107h-170l17 174h-8q-35 -54 -80.5 -98t-100.5 -70
t-121 -26zM740 1241l2 23q42 52 84 106.5t78.5 106t60.5 92.5h218l-1 -18q-21 -29 -60 -70t-85.5 -85.5t-93 -85t-84.5 -69.5h-119zM395 1241l2 23q43 52 85 107t78 106.5t61 91.5h217l-1 -18q-20 -29 -58.5 -70t-85 -85t-94.5 -84.5t-89 -70.5h-115z" />
    <glyph glyph-name="Uogonek" unicode="&#x172;" horiz-adv-x="1201" 
d="M495 -20q-124 0 -210 43t-130 124.5t-44 194.5q0 35 5 80t14 91l203 949h220l-202 -953q-9 -39 -14 -77.5t-5 -67.5q0 -93 47.5 -141.5t139.5 -48.5q85 0 142 36t94 109.5t61 185.5l205 957h221l-210 -980q-32 -153 -97 -266t-172 -174.5t-268 -61.5zM466 -467
q-85 0 -132.5 44.5t-47.5 120.5q0 63 25.5 114.5t73 97.5t112.5 91l142 -1q-51 -44 -91.5 -86t-63.5 -84.5t-23 -88.5q0 -31 16.5 -47.5t45.5 -16.5q21 0 42.5 4t43.5 9l-14 -137q-29 -10 -61 -15t-68 -5z" />
    <glyph glyph-name="uogonek" unicode="&#x173;" horiz-adv-x="1044" 
d="M323 -20q-78 0 -132.5 30.5t-82.5 89t-28 140.5q0 39 6.5 88.5t16.5 97.5l145 681h215l-143 -678q-10 -43 -15.5 -80.5t-5.5 -68.5q0 -56 25.5 -86t79.5 -30q64 0 119.5 49t99 141.5t70.5 221.5l113 531h214l-234 -1107h-170l17 174h-8q-35 -54 -80.5 -98t-100.5 -70
t-121 -26zM600 -467q-85 0 -132.5 44.5t-47.5 120.5q0 63 25.5 114.5t73 97.5t112.5 91l142 -1q-51 -44 -91.5 -86t-63.5 -84.5t-23 -88.5q0 -31 16.5 -47.5t45.5 -16.5q21 0 42.5 4t43.5 9l-14 -137q-29 -10 -61 -15t-68 -5z" />
    <glyph glyph-name="Wcircumflex" unicode="&#x174;" horiz-adv-x="1584" 
d="M200 0l-8 1462h213l-5 -854q-1 -83 -4.5 -162.5t-9.5 -144.5h6q26 73 57 155t63 154l363 852h200l1 -841q1 -81 -1.5 -164t-6.5 -156h6q17 52 36 105.5t39.5 106.5t40.5 104l344 845h225l-614 -1462h-249l-1 825q-1 49 -1 92.5t1.5 85t3.5 83.5h-6q-19 -60 -41 -118
t-49 -122l-358 -846h-245zM672 1588l2 23q42 42 91.5 95t96.5 107.5t79 102.5h212q15 -44 39.5 -100t53 -110.5t50.5 -93.5l-3 -24h-133q-20 23 -43.5 52t-46.5 62t-45 67q-56 -54 -109 -99.5t-102 -81.5h-142z" />
    <glyph glyph-name="wcircumflex" unicode="&#x175;" horiz-adv-x="1357" 
d="M139 0l-14 1107h207l-3 -557q-1 -79 -4 -150t-9 -136h7q12 40 29 88t35 93t31 77l247 585h237l-1 -570q0 -64 -2 -137t-6 -141h6q15 46 33.5 99t39 107.5t40.5 104.5l222 537h219l-481 -1107h-246l3 605q0 40 1.5 83.5t3.5 89t4 89.5h-7q-13 -39 -27.5 -78t-29.5 -78
t-33 -79l-262 -632h-240zM487 1241l2 23q42 42 91.5 95t96.5 107.5t79 102.5h212q15 -44 39.5 -100t53 -110.5t50.5 -93.5l-3 -24h-133q-20 23 -43.5 52t-46.5 62t-45 67q-56 -54 -109 -99.5t-102 -81.5h-142z" />
    <glyph glyph-name="Ycircumflex" unicode="&#x176;" horiz-adv-x="944" 
d="M236 0l119 558l-172 904h226l103 -649l374 649h243l-554 -903l-118 -559h-221zM349 1588l2 23q42 42 91.5 95t96.5 107.5t79 102.5h212q15 -44 39.5 -100t53 -110.5t50.5 -93.5l-3 -24h-133q-20 23 -43.5 52t-46.5 62t-45 67q-56 -54 -109 -99.5t-102 -81.5h-142z" />
    <glyph glyph-name="ycircumflex" unicode="&#x177;" horiz-adv-x="879" 
d="M-41 -493q-45 0 -76 6t-56 14l15 182q24 -7 50 -11.5t54 -4.5q72 0 119.5 47t89.5 130l63 132l-101 1105h214l34 -559q4 -47 5.5 -98t2 -100t-0.5 -88h6q13 36 30.5 82t37 92.5t37.5 85.5l273 585h228l-635 -1290q-49 -99 -104.5 -168t-124.5 -105.5t-161 -36.5z
M234 1241l2 23q42 42 91.5 95t96.5 107.5t79 102.5h212q15 -44 39.5 -100t53 -110.5t50.5 -93.5l-3 -24h-133q-20 23 -43.5 52t-46.5 62t-45 67q-56 -54 -109 -99.5t-102 -81.5h-142z" />
    <glyph glyph-name="Ydieresis" unicode="&#x178;" horiz-adv-x="944" 
d="M236 0l119 558l-172 904h226l103 -649l374 649h243l-554 -903l-118 -559h-221zM852 1632q-43 0 -68.5 22t-25.5 67q0 59 33 100.5t94 41.5q41 0 65.5 -21.5t24.5 -65.5q0 -64 -34 -104t-89 -40zM503 1632q-43 0 -68.5 22t-25.5 67q0 59 32.5 100.5t93.5 41.5
q28 0 47.5 -9.5t30.5 -28.5t11 -49q0 -64 -33.5 -104t-87.5 -40z" />
    <glyph glyph-name="Zacute" unicode="&#x179;" horiz-adv-x="916" 
d="M-62 0l32 159l754 1111h-502l41 192h765l-32 -160l-756 -1109h538l-40 -193h-800zM540 1598l1 23q40 46 81 98.5t78 106t66 100.5h245l-1 -18q-21 -28 -61.5 -70t-88.5 -87.5t-94 -86t-80 -66.5h-146z" />
    <glyph glyph-name="zacute" unicode="&#x17a;" horiz-adv-x="776" 
d="M-58 0l28 136l562 797h-367l37 174h612l-32 -152l-553 -781h405l-37 -174h-655zM402 1240l1 23q40 46 81 98.5t78 106t66 100.5h245l-1 -18q-21 -28 -61.5 -70t-88.5 -87.5t-94 -86t-80 -66.5h-146z" />
    <glyph glyph-name="Zdotaccent" unicode="&#x17b;" horiz-adv-x="916" 
d="M-62 0l32 159l754 1111h-502l41 192h765l-32 -160l-756 -1109h538l-40 -193h-800zM679 1620q-50 0 -80 26t-30 76q0 64 37 108.5t105 44.5q34 0 58 -10.5t37 -32.5t13 -56q0 -66 -37 -111t-103 -45z" />
    <glyph glyph-name="zdotaccent" unicode="&#x17c;" horiz-adv-x="776" 
d="M-58 0l28 136l562 797h-367l37 174h612l-32 -152l-553 -781h405l-37 -174h-655zM543 1273q-50 0 -80 26t-30 76q0 64 37 108.5t105 44.5q34 0 58 -10.5t37 -32.5t13 -56q0 -66 -37 -111t-103 -45z" />
    <glyph glyph-name="Zcaron" unicode="&#x17d;" horiz-adv-x="916" 
d="M-62 0l32 159l754 1111h-502l41 192h765l-32 -160l-756 -1109h538l-40 -193h-800zM558 1588q-14 44 -39 100t-52.5 110.5t-50.5 93.5l2 24h133q20 -21 42.5 -49t46.5 -62t46 -70q56 54 109.5 100t102.5 81h142l-2 -24q-36 -34 -88 -89.5t-101.5 -113.5t-77.5 -101h-213z
" />
    <glyph glyph-name="zcaron" unicode="&#x17e;" horiz-adv-x="776" 
d="M-58 0l28 136l562 797h-367l37 174h612l-32 -152l-553 -781h405l-37 -174h-655zM415 1241q-14 44 -39 100t-52.5 110.5t-50.5 93.5l2 24h133q20 -21 42.5 -49t46.5 -62t46 -70q56 54 109.5 100t102.5 81h142l-2 -24q-36 -34 -88 -89.5t-101.5 -113.5t-77.5 -101h-213z
" />
    <glyph glyph-name="longs" unicode="&#x17f;" horiz-adv-x="557" 
d="M-123 -492q-36 0 -70 5.5t-62 14.5v183q23 -9 49.5 -14t52.5 -5q67 0 103 52t57 154l279 1312q25 118 67.5 197t110.5 119.5t169 40.5q52 0 102 -11t90 -30l-66 -165q-24 12 -52 19t-57 7q-44 0 -74 -24.5t-48.5 -69.5t-31.5 -107l-279 -1312q-23 -108 -62 -190.5
t-105.5 -129t-172.5 -46.5z" />
    <glyph glyph-name="florin" unicode="&#x192;" horiz-adv-x="984" 
d="M84 -492q-43 0 -78.5 7t-61.5 17v181q28 -11 58 -17t55 -6q59 0 94.5 47t57.5 152l197 929h-156l21 107l171 65l30 136q29 134 74.5 211.5t112.5 111.5t162 34q53 0 102 -11.5t93 -32.5l-68 -165q-30 14 -57.5 21t-57.5 7q-62 0 -95.5 -46t-53.5 -142l-26 -124h198
l-36 -172h-199l-201 -941q-24 -118 -65 -200.5t-106.5 -125.5t-164.5 -43z" />
    <glyph glyph-name="Ohorn" unicode="&#x1a0;" horiz-adv-x="1299" 
d="M546 -20q-146 0 -244 58.5t-148 171.5t-50 274q0 117 20 235.5t58.5 230.5t96 209t134 170t171 114.5t207.5 41.5q133 0 225.5 -52.5t142.5 -153.5q66 35 103.5 105.5t53.5 171.5h210l9 -22q-35 -150 -114 -248t-214 -151q9 -34 13 -70.5t4 -77.5q0 -118 -18.5 -238
t-56 -233t-94 -210t-131.5 -170t-169.5 -114.5t-208.5 -41.5zM561 174q69 0 127.5 35.5t107 97t86 142t63 171.5t39 185.5t13.5 182.5q0 147 -57.5 225t-166.5 78q-69 0 -128 -34.5t-108 -95.5t-87 -140.5t-64 -170t-39.5 -184t-13.5 -182.5q0 -104 26.5 -173t77.5 -103
t124 -34z" />
    <glyph glyph-name="ohorn" unicode="&#x1a1;" horiz-adv-x="1082" 
d="M418 -19q-107 0 -185.5 46t-121.5 132.5t-43 206.5q0 109 21.5 217.5t64.5 206t107 173t148.5 119.5t189.5 44q97 0 169.5 -38.5t115.5 -111.5q52 24 85.5 66.5t53 100.5t30.5 127h207l8 -22q-23 -103 -64 -181.5t-106.5 -133t-163.5 -86.5q7 -27 10 -55t3 -57
q0 -108 -21.5 -215.5t-64 -204.5t-106 -172t-148 -118.5t-189.5 -43.5zM438 161q53 0 98.5 34.5t81 94t60.5 135t38 157.5t13 161q0 60 -15 105t-47.5 71t-84.5 26q-57 0 -104 -38t-83 -101t-60 -139.5t-37 -156t-13 -149.5q0 -97 39 -148.5t114 -51.5z" />
    <glyph glyph-name="Uhorn" unicode="&#x1af;" horiz-adv-x="1328" 
d="M495 -20q-123 0 -209 44t-130.5 126t-44.5 195q0 36 5 80t14 88l203 949h220l-202 -954q-9 -40 -14 -76t-5 -65q0 -93 46.5 -143t140.5 -50q82 0 139.5 36t95.5 109.5t62 185.5l205 957h221l-44 -200q52 13 89 51.5t61 100t37 142.5h210l7 -22q-19 -87 -55.5 -160
t-90.5 -127.5t-126 -88t-163 -43.5l-135 -633q-32 -154 -97 -267t-172.5 -174t-267.5 -61z" />
    <glyph glyph-name="uhorn" unicode="&#x1b0;" horiz-adv-x="1187" 
d="M320 -20q-77 0 -131.5 30.5t-82.5 89.5t-28 141q0 39 7 88t17 100l144 678h216l-145 -678q-9 -43 -14 -80t-5 -66q0 -58 25.5 -88t78.5 -30q64 0 119.5 48.5t99 141t70.5 221.5l113 531h215l-28 -131q55 13 91.5 52.5t59.5 100.5t35 141h210l8 -23q-19 -84 -54.5 -156.5
t-89 -127.5t-126 -90t-165.5 -45l-176 -828h-169l17 174h-7q-36 -54 -81.5 -98t-101 -70t-122.5 -26z" />
    <glyph glyph-name="uni01EA" unicode="&#x1ea;" horiz-adv-x="1268" 
d="M546 -20q-146 0 -244 58.5t-148 171.5t-50 274q0 116 19.5 234t58 230t96 209t133.5 171t171 115.5t209 41.5q215 0 324 -129.5t109 -368.5q0 -108 -17 -224t-53 -229t-91 -212.5t-130 -176.5t-171.5 -121t-215.5 -44zM561 174q69 0 128 35t107.5 96.5t85.5 141.5
t62.5 171t39 186t13.5 184q0 147 -57.5 225t-166.5 78q-71 0 -132 -36t-109.5 -99.5t-85.5 -144.5t-62.5 -172t-38 -181.5t-12.5 -173.5q0 -104 26.5 -173t77.5 -103t124 -34zM480 -467q-85 0 -132.5 44.5t-47.5 120.5q0 63 25.5 114.5t73 97.5t112.5 91l142 -1
q-51 -44 -91.5 -86t-63.5 -84.5t-23 -88.5q0 -31 16.5 -47.5t45.5 -16.5q21 0 42.5 4t43.5 9l-14 -137q-29 -10 -61 -15t-68 -5z" />
    <glyph glyph-name="uni01EB" unicode="&#x1eb;" horiz-adv-x="1021" 
d="M421 -19q-107 0 -185.5 46t-121.5 132.5t-43 206.5q0 98 20 203.5t61 204.5t104 178.5t149.5 126.5t197.5 47q108 0 186 -46.5t119.5 -134t41.5 -210.5q0 -104 -20 -210.5t-61.5 -204t-104.5 -174t-148.5 -121t-194.5 -44.5zM441 161q53 0 98.5 34t81 93t60.5 134t38 157
t13 162q0 59 -14.5 105t-47 73t-85.5 27q-58 0 -105.5 -38t-83 -100.5t-59.5 -139t-36.5 -156t-12.5 -148.5q0 -98 39 -150.5t114 -52.5zM346 -467q-85 0 -132.5 44.5t-47.5 120.5q0 63 25.5 114.5t73 97.5t112.5 91l142 -1q-51 -44 -91.5 -86t-63.5 -84.5t-23 -88.5
q0 -31 16.5 -47.5t45.5 -16.5q21 0 42.5 4t43.5 9l-14 -137q-29 -10 -61 -15t-68 -5z" />
    <glyph glyph-name="uni01EC" unicode="&#x1ec;" horiz-adv-x="1268" 
d="M546 -20q-146 0 -244 58.5t-148 171.5t-50 274q0 116 19.5 234t58 230t96 209t133.5 171t171 115.5t209 41.5q215 0 324 -129.5t109 -368.5q0 -108 -17 -224t-53 -229t-91 -212.5t-130 -176.5t-171.5 -121t-215.5 -44zM561 174q69 0 128 35t107.5 96.5t85.5 141.5
t62.5 171t39 186t13.5 184q0 147 -57.5 225t-166.5 78q-71 0 -132 -36t-109.5 -99.5t-85.5 -144.5t-62.5 -172t-38 -181.5t-12.5 -173.5q0 -104 26.5 -173t77.5 -103t124 -34zM567 1605l34 160h546l-34 -160h-546zM480 -467q-85 0 -132.5 44.5t-47.5 120.5q0 63 25.5 114.5
t73 97.5t112.5 91l142 -1q-51 -44 -91.5 -86t-63.5 -84.5t-23 -88.5q0 -31 16.5 -47.5t45.5 -16.5q21 0 42.5 4t43.5 9l-14 -137q-29 -10 -61 -15t-68 -5z" />
    <glyph glyph-name="uni01ED" unicode="&#x1ed;" horiz-adv-x="1021" 
d="M421 -19q-107 0 -185.5 46t-121.5 132.5t-43 206.5q0 98 20 203.5t61 204.5t104 178.5t149.5 126.5t197.5 47q108 0 186 -46.5t119.5 -134t41.5 -210.5q0 -104 -20 -210.5t-61.5 -204t-104.5 -174t-148.5 -121t-194.5 -44.5zM441 161q53 0 98.5 34t81 93t60.5 134t38 157
t13 162q0 59 -14.5 105t-47 73t-85.5 27q-58 0 -105.5 -38t-83 -100.5t-59.5 -139t-36.5 -156t-12.5 -148.5q0 -98 39 -150.5t114 -52.5zM359 1245l34 160h546l-34 -160h-546zM346 -467q-85 0 -132.5 44.5t-47.5 120.5q0 63 25.5 114.5t73 97.5t112.5 91l142 -1
q-51 -44 -91.5 -86t-63.5 -84.5t-23 -88.5q0 -31 16.5 -47.5t45.5 -16.5q21 0 42.5 4t43.5 9l-14 -137q-29 -10 -61 -15t-68 -5z" />
    <glyph glyph-name="uni01F0" unicode="&#x1f0;" horiz-adv-x="492" 
d="M-130 -492q-37 0 -71 5t-61 15v183q23 -9 50 -14t53 -5q43 0 73 21t51.5 67t37.5 121l255 1206h214l-261 -1229q-23 -110 -62 -193.5t-105.5 -130t-173.5 -46.5zM276 1241q-14 44 -39 100t-52.5 110.5t-50.5 93.5l2 24h133q20 -21 42.5 -49t46.5 -62t46 -70
q56 54 109.5 100t102.5 81h142l-2 -24q-36 -34 -88 -89.5t-101.5 -113.5t-77.5 -101h-213z" />
    <glyph glyph-name="Aringacute" unicode="&#x1fa;" horiz-adv-x="1052" 
d="M-123 0l641 1313q-23 23 -35 55.5t-12 73.5q0 101 62.5 160t163.5 59q100 0 164 -60t64 -156q0 -59 -24 -102.5t-64 -68.5l96 -1274h-223l-25 404h-381l-189 -404h-238zM392 598h290l-15 372q-3 47 -5.5 103.5t-2.5 109.5h-13q-17 -50 -39 -102.5t-44 -100.5zM697 1335
q47 0 77 29t30 77t-29.5 77.5t-77.5 29.5q-47 0 -76.5 -29.5t-29.5 -77.5t26.5 -77t79.5 -29zM637 1716v15q35 33 72 72t72.5 80t62.5 79h257l-1 -14q-33 -33 -87.5 -77t-113 -85.5t-104.5 -69.5h-158z" />
    <glyph glyph-name="aringacute" unicode="&#x1fb;" horiz-adv-x="1042" 
d="M334 -20q-79 0 -138.5 38.5t-92.5 116.5t-33 194q0 103 20.5 213.5t60.5 214.5t99 187.5t136 133t171 49.5q58 0 103 -20t77 -57.5t52 -89.5h7l53 147h175l-235 -1107h-169l14 163h-7q-39 -53 -84 -94.5t-97 -65t-112 -23.5zM411 160q67 0 122 53t95.5 137.5t63.5 178.5
q18 73 25.5 130.5t7.5 111.5q0 79 -36.5 126t-101.5 47q-52 0 -98 -37.5t-82.5 -101t-62.5 -142.5t-40 -162.5t-14 -160.5q0 -89 30.5 -134.5t90.5 -45.5zM668 1197q-103 0 -164.5 59t-61.5 160q0 102 62.5 161.5t163.5 59.5q98 0 162 -59t65 -158q0 -102 -63 -162.5
t-164 -60.5zM668 1310q47 0 77.5 29t30.5 77q0 49 -30 79t-78 30t-77.5 -30t-29.5 -79q0 -50 26.5 -78t80.5 -28zM620 1709l1 16q33 33 69 72t71.5 80.5t63.5 81.5h260v-13q-33 -33 -87.5 -77t-114 -87t-107.5 -73h-156z" />
    <glyph glyph-name="AEacute" unicode="&#x1fc;" horiz-adv-x="1477" 
d="M-128 0l814 1462h876l-40 -191h-451l-88 -414h422l-41 -190h-421l-100 -475h450l-40 -192h-671l89 417h-333l-226 -417h-240zM445 611h267l140 660h-54zM841 1598l1 23q40 46 81 98.5t78 106t66 100.5h245l-1 -18q-21 -28 -61.5 -70t-88.5 -87.5t-94 -86t-80 -66.5h-146z
" />
    <glyph glyph-name="aeacute" unicode="&#x1fd;" horiz-adv-x="1520" 
d="M317 -20q-74 0 -130 41t-86.5 119.5t-30.5 191.5q0 116 22 230.5t64 216t101 180t133 123.5t160 45q55 0 97 -19.5t73 -55.5t51 -87h7l47 142h145l-24 -117q47 59 116 98t157 39q120 0 192.5 -69.5t72.5 -191.5q0 -90 -37 -162.5t-110.5 -123.5t-182 -78.5t-250.5 -27.5
h-32q-4 -24 -6.5 -49t-2.5 -50q0 -102 46.5 -162.5t152.5 -60.5q68 0 136 22t138 59l-15 -179q-70 -36 -142 -55t-155 -19q-97 0 -161 35.5t-95 104.5l-25 -120h-145l22 162h-6q-41 -55 -85 -96t-96 -63.5t-116 -22.5zM404 159q47 0 88.5 29.5t76 79.5t60.5 114.5t43 136.5
q18 74 26 135.5t8 114.5q0 82 -31.5 129t-91.5 47q-50 0 -94 -35.5t-80.5 -96.5t-63 -138.5t-41 -162.5t-14.5 -167q0 -95 30.5 -140.5t83.5 -45.5zM900 632h22q118 0 198 27.5t120 77t40 116.5q0 51 -28 78t-78 27q-60 0 -113.5 -42t-94.5 -115.5t-66 -168.5zM765 1240
l1 23q40 46 81 98.5t78 106t66 100.5h245l-1 -18q-21 -28 -61.5 -70t-88.5 -87.5t-94 -86t-80 -66.5h-146z" />
    <glyph glyph-name="Oslashacute" unicode="&#x1fe;" horiz-adv-x="1269" 
d="M164 -93l-116 80l130 183q-37 60 -55.5 139.5t-18.5 174.5q0 116 19.5 234t57.5 230t95.5 209t134 171t171.5 115.5t209 41.5q84 0 151.5 -22.5t119.5 -68.5l108 151l116 -81l-129 -180q34 -57 50.5 -132.5t16.5 -164.5q0 -108 -17 -224t-53 -229t-91 -212.5
t-130.5 -176.5t-171.5 -121t-215 -44q-84 0 -150.5 21t-118.5 63zM562 172q67 0 124.5 32t105.5 88.5t84.5 131.5t62.5 161.5t40.5 178t16.5 181.5q1 28 -1.5 56t-6.5 50l-585 -808q27 -35 67 -53t92 -18zM345 397l590 817q-28 39 -68.5 59t-94.5 20q-70 0 -129 -33.5
t-107 -92t-85 -134.5t-62.5 -162t-39.5 -174t-16 -171q0 -35 3 -68t9 -61zM722 1590l1 23q40 46 81 98.5t78 106t66 100.5h245l-1 -18q-21 -28 -61.5 -70t-88.5 -87.5t-94 -86t-80 -66.5h-146z" />
    <glyph glyph-name="oslashacute" unicode="&#x1ff;" horiz-adv-x="1021" 
d="M122 -107l-109 77l117 162q-28 47 -43 105.5t-15 128.5q0 96 19.5 201t60 204.5t103.5 179.5t150 127.5t198 47.5q61 0 111 -15.5t90 -45.5l88 123l110 -77l-105 -143q26 -46 39.5 -104.5t13.5 -124.5q0 -98 -19.5 -203.5t-60 -204t-103.5 -177.5t-148.5 -126t-196.5 -47
q-57 0 -107 14t-90 41zM441 154q53 0 97.5 31t80 84t61 121t40 143t18.5 149q1 19 0 37.5t-4 32.5l-398 -555q17 -20 44.5 -31.5t60.5 -11.5zM289 341l403 563q-16 22 -43 34.5t-63 12.5q-56 0 -102 -32.5t-82 -87.5t-61 -124t-39.5 -143.5t-17.5 -145.5q0 -22 1 -42t4 -35z
M536 1240l1 23q40 46 81 98.5t78 106t66 100.5h245l-1 -18q-21 -28 -61.5 -70t-88.5 -87.5t-94 -86t-80 -66.5h-146z" />
    <glyph glyph-name="uni0218" unicode="&#x218;" horiz-adv-x="928" 
d="M320 -20q-101 0 -182 19t-141 56l18 217q65 -40 143 -67.5t165 -27.5q54 0 101.5 14t83 42t55.5 71t20 101q0 54 -18 94.5t-57 80.5t-104 91q-62 50 -111.5 103t-78 120t-28.5 157q0 98 33 177.5t94.5 136.5t146.5 87.5t189 30.5q95 0 180 -23t154 -65l-91 -187
q-58 35 -121.5 56.5t-128.5 21.5q-47 0 -88.5 -14t-72 -42t-48 -68t-17.5 -92q0 -54 20 -95t60 -79t100 -86q70 -52 118.5 -107t73 -121.5t24.5 -153.5q0 -104 -34.5 -186.5t-99 -141t-155.5 -89.5t-203 -31zM103 -453v27q21 37 47 90.5t50 110t38 100.5h204v-20
q-17 -42 -52 -98t-76.5 -112t-81.5 -98h-129z" />
    <glyph glyph-name="uni0219" unicode="&#x219;" horiz-adv-x="804" 
d="M282 -20q-92 0 -161.5 16.5t-120.5 44.5v197q53 -35 124.5 -58.5t141.5 -23.5q57 0 99.5 18t66 52.5t23.5 83.5q0 35 -12.5 63t-44 59t-89.5 73q-60 44 -100.5 87t-61 93t-20.5 113q0 98 43 172t124.5 115.5t194.5 41.5q90 0 168.5 -22t139.5 -59l-80 -164
q-48 32 -105.5 51.5t-117.5 19.5q-66 0 -107.5 -34.5t-41.5 -95.5q0 -32 11.5 -58.5t41.5 -54.5t83 -65q60 -45 104 -87.5t68 -95t24 -127.5q0 -109 -47.5 -189t-136 -123t-211.5 -43zM50 -453v27q21 37 47 90.5t50 110t38 100.5h204v-20q-17 -42 -52 -98t-76.5 -112
t-81.5 -98h-129z" />
    <glyph glyph-name="uni021A" unicode="&#x21a;" horiz-adv-x="900" 
d="M215 0l269 1269h-314l41 193h849l-41 -193h-314l-269 -1269h-221zM96 -453v27q21 37 47 90.5t50 110t38 100.5h204v-20q-17 -42 -52 -98t-76.5 -112t-81.5 -98h-129z" />
    <glyph glyph-name="uni021B" unicode="&#x21b;" horiz-adv-x="647" 
d="M312 -20q-108 0 -166.5 54.5t-58.5 169.5q0 29 4.5 65t12.5 77l125 588h-130l23 110l157 66l110 241h144l-53 -244h224l-37 -173h-223l-127 -599q-5 -25 -9 -49t-4 -43q0 -40 19.5 -60.5t61.5 -20.5q28 0 60 6.5t66 19.5v-168q-38 -18 -92.5 -29t-106.5 -11zM25 -453v27
q21 37 47 90.5t50 110t38 100.5h204v-20q-17 -42 -52 -98t-76.5 -112t-81.5 -98h-129z" />
    <glyph glyph-name="uni0237" unicode="&#x237;" horiz-adv-x="492" 
d="M-130 -492q-37 0 -71 5t-61 15v183q23 -9 50 -14t53 -5q43 0 73 21t51.5 67t37.5 121l255 1206h214l-261 -1229q-23 -110 -62 -193.5t-105.5 -130t-173.5 -46.5z" />
    <glyph glyph-name="uni0259" unicode="&#x259;" horiz-adv-x="949" 
d="M327 -20q-140 0 -217 69.5t-77 190.5q0 89 37.5 161.5t111 124t182.5 79t251 27.5h31q4 25 6 50t2 50q0 109 -48.5 165.5t-144.5 56.5q-71 0 -134.5 -19.5t-143.5 -61.5l15 180q70 37 143 55.5t166 18.5q112 0 193 -44.5t125 -130.5t44 -210q0 -147 -37 -283.5
t-108 -244.5t-171 -171t-226 -63zM348 148q56 0 108.5 40.5t95 113.5t65.5 172h-23q-118 0 -197 -27.5t-119 -77t-40 -117.5q0 -49 28.5 -76.5t81.5 -27.5z" />
    <glyph glyph-name="uni02BC" unicode="&#x2bc;" horiz-adv-x="393" 
d="M116 953q36 82 71.5 169.5t67.5 174.5t56 165h214l7 -21q-31 -80 -71.5 -164.5t-86 -166.5t-91.5 -157h-167z" />
    <glyph glyph-name="circumflex" unicode="&#x2c6;" horiz-adv-x="788" 
d="M231 1241l2 23q42 42 91.5 95t96.5 107.5t79 102.5h212q15 -44 39.5 -100t53 -110.5t50.5 -93.5l-3 -24h-133q-20 23 -43.5 52t-46.5 62t-45 67q-56 -54 -109 -99.5t-102 -81.5h-142z" />
    <glyph glyph-name="caron" unicode="&#x2c7;" horiz-adv-x="789" 
d="M438 1241q-14 44 -39 100t-52.5 110.5t-50.5 93.5l2 24h133q20 -21 42.5 -49t46.5 -62t46 -70q56 54 109.5 100t102.5 81h142l-2 -24q-36 -34 -88 -89.5t-101.5 -113.5t-77.5 -101h-213z" />
    <glyph glyph-name="macron" unicode="&#x2c9;" horiz-adv-x="710" 
d="M229 1245l34 160h546l-34 -160h-546z" />
    <glyph glyph-name="breve" unicode="&#x2d8;" horiz-adv-x="736" 
d="M539 1241q-87 0 -143.5 30t-83 82t-26.5 118q0 19 1.5 36t4.5 34h130q0 -46 12.5 -76.5t41 -46t75.5 -15.5q72 0 114 32.5t60 105.5h138q-28 -148 -109 -224t-215 -76z" />
    <glyph glyph-name="dotaccent" unicode="&#x2d9;" horiz-adv-x="412" 
d="M371 1273q-50 0 -80 26t-30 76q0 64 37 108.5t105 44.5q34 0 58 -10.5t37 -32.5t13 -56q0 -66 -37 -111t-103 -45z" />
    <glyph glyph-name="ring" unicode="&#x2da;" horiz-adv-x="629" 
d="M507 1243q-103 0 -164 59.5t-61 161.5q0 100 62.5 159.5t162.5 59.5t163.5 -59t63.5 -157q0 -102 -63 -163t-164 -61zM508 1356q48 0 77.5 29t29.5 78t-29.5 78.5t-77.5 29.5t-77.5 -29.5t-29.5 -78.5t27 -78t80 -29z" />
    <glyph glyph-name="ogonek" unicode="&#x2db;" horiz-adv-x="511" 
d="M87 -467q-85 0 -132.5 44.5t-47.5 120.5q0 63 25.5 114.5t73 97.5t112.5 91l142 -1q-51 -44 -91.5 -86t-63.5 -84.5t-23 -88.5q0 -31 16.5 -47.5t45.5 -16.5q21 0 42.5 4t43.5 9l-14 -137q-29 -10 -61 -15t-68 -5z" />
    <glyph glyph-name="tilde" unicode="&#x2dc;" horiz-adv-x="820" 
d="M229 1243q18 89 49 151t77 94.5t108 32.5q45 0 80.5 -17t65 -39.5t55.5 -39.5t53 -17q36 0 58 26t41 89h128q-20 -99 -54 -160.5t-79 -90t-100 -28.5q-44 0 -78.5 17.5t-64 40t-56.5 39.5t-57 17q-34 0 -58 -28.5t-39 -86.5h-129z" />
    <glyph glyph-name="hungarumlaut" unicode="&#x2dd;" horiz-adv-x="888" 
d="M576 1241l2 23q42 52 84 106.5t78.5 106t60.5 92.5h218l-1 -18q-21 -29 -60 -70t-85.5 -85.5t-93 -85t-84.5 -69.5h-119zM231 1241l2 23q43 52 85 107t78 106.5t61 91.5h217l-1 -18q-20 -29 -58.5 -70t-85 -85t-94.5 -84.5t-89 -70.5h-115z" />
    <glyph glyph-name="uni02F3" unicode="&#x2f3;" horiz-adv-x="689" 
d="M169 -559q-103 0 -164 59t-61 160t62 160t163 59q96 0 162 -58.5t66 -157.5q0 -101 -63.5 -161.5t-164.5 -60.5zM168 -446q49 0 78 29t29 77t-29 78t-78 30t-77.5 -30t-28.5 -78q0 -49 26.5 -77.5t79.5 -28.5z" />
    <glyph glyph-name="gravecomb" unicode="&#x300;" 
d="M-481 1241q-33 38 -74 93.5t-76.5 113.5t-55.5 101v20h234q13 -48 30 -98.5t38 -102.5t44 -103l-1 -24h-139z" />
    <glyph glyph-name="acutecomb" unicode="&#x301;" 
d="M-513 1241l1 23q40 46 81 98.5t78 106t66 100.5h245l-1 -18q-21 -28 -61.5 -70t-88.5 -87.5t-94 -86t-80 -66.5h-146z" />
    <glyph glyph-name="uni0302" unicode="&#x302;" 
d="M-173 1241l2 23q42 42 91.5 95t96.5 107.5t79 102.5h212q15 -44 39.5 -100t53 -110.5t50.5 -93.5l-3 -24h-133q-20 23 -43.5 52t-46.5 62t-45 67q-56 -54 -109 -99.5t-102 -81.5h-142z" />
    <glyph glyph-name="tildecomb" unicode="&#x303;" 
d="M-793 1243q18 89 49 151t77 94.5t108 32.5q45 0 80.5 -17t65 -39.5t55.5 -39.5t53 -17q36 0 58 26t41 89h128q-20 -99 -54 -160.5t-79 -90t-100 -28.5q-44 0 -78.5 17.5t-64 40t-56.5 39.5t-57 17q-34 0 -58 -28.5t-39 -86.5h-129z" />
    <glyph glyph-name="uni0304" unicode="&#x304;" 
d="M-129 1245l34 160h546l-34 -160h-546z" />
    <glyph glyph-name="uni0306" unicode="&#x306;" 
d="M161 1241q-87 0 -143.5 30t-83 82t-26.5 118q0 19 1.5 36t4.5 34h130q0 -46 12.5 -76.5t41 -46t75.5 -15.5q72 0 114 32.5t60 105.5h138q-28 -148 -109 -224t-215 -76z" />
    <glyph glyph-name="uni0307" unicode="&#x307;" 
d="M165 1273q-50 0 -80 26t-30 76q0 64 37 108.5t105 44.5q34 0 58 -10.5t37 -32.5t13 -56q0 -66 -37 -111t-103 -45z" />
    <glyph glyph-name="uni0308" unicode="&#x308;" 
d="M341 1285q-43 0 -68.5 22t-25.5 67q0 59 33 100.5t94 41.5q41 0 65.5 -21.5t24.5 -65.5q0 -64 -34 -104t-89 -40zM-8 1285q-43 0 -68.5 22t-25.5 67q0 59 32.5 100.5t93.5 41.5q28 0 47.5 -9.5t30.5 -28.5t11 -49q0 -64 -33.5 -104t-87.5 -40z" />
    <glyph glyph-name="hookabovecomb" unicode="&#x309;" 
d="M-496 1214l22 160q45 6 79 19.5t53 37t19 58.5t-22.5 51t-59.5 16q-27 0 -51.5 -4t-46.5 -10v125q30 11 67 17t77 6q99 0 156 -45.5t57 -128.5q0 -84 -53.5 -137.5t-146.5 -73.5l-26 -91h-124z" />
    <glyph glyph-name="uni030A" unicode="&#x30a;" 
d="M185 1243q-103 0 -164 59.5t-61 161.5q0 100 62.5 159.5t162.5 59.5t163.5 -59t63.5 -157q0 -102 -63 -163t-164 -61zM186 1356q48 0 77.5 29t29.5 78t-29.5 78.5t-77.5 29.5t-77.5 -29.5t-29.5 -78.5t27 -78t80 -29z" />
    <glyph glyph-name="uni030B" unicode="&#x30b;" 
d="M169 1241l2 23q42 52 84 106.5t78.5 106t60.5 92.5h218l-1 -18q-21 -29 -60 -70t-85.5 -85.5t-93 -85t-84.5 -69.5h-119zM-176 1241l2 23q43 52 85 107t78 106.5t61 91.5h217l-1 -18q-20 -29 -58.5 -70t-85 -85t-94.5 -84.5t-89 -70.5h-115z" />
    <glyph glyph-name="uni030C" unicode="&#x30c;" 
d="M46 1241q-14 44 -39 100t-52.5 110.5t-50.5 93.5l2 24h133q20 -21 42.5 -49t46.5 -62t46 -70q56 54 109.5 100t102.5 81h142l-2 -24q-36 -34 -88 -89.5t-101.5 -113.5t-77.5 -101h-213z" />
    <glyph glyph-name="uni030F" unicode="&#x30f;" 
d="M-327 1241q-39 42 -79.5 97t-73.5 111t-51 100l1 20h210q12 -47 28.5 -97.5t37.5 -102.5t43 -104l-2 -24h-114zM-657 1241q-37 41 -77.5 96.5t-74 112t-50.5 99.5l1 20h210q12 -48 29 -101t38 -105.5t44 -97.5l-3 -24h-117z" />
    <glyph glyph-name="uni0312" unicode="&#x312;" 
d="M-54 953l-7 21q33 82 73.5 166.5t85.5 166.5t91 155h167q-25 -55 -52 -121t-53.5 -135.5t-50 -135t-40.5 -117.5h-214z" />
    <glyph glyph-name="dotbelowcomb" unicode="&#x323;" 
d="M-712 -388q-49 0 -79 25.5t-30 76.5q0 64 36.5 108.5t104.5 44.5q35 0 58.5 -11t36.5 -33t13 -56q0 -65 -37 -110t-103 -45z" />
    <glyph glyph-name="uni0326" unicode="&#x326;" 
d="M113 -453v27q21 37 47 90.5t50 110t38 100.5h204v-20q-17 -42 -52 -98t-76.5 -112t-81.5 -98h-129z" />
    <glyph glyph-name="uni0327" unicode="&#x327;" 
d="M-245 -492q-38 0 -71 5t-60 12v127q20 -5 48.5 -9.5t59.5 -4.5q42 0 71.5 12t45 35t15.5 55q0 41 -34 64t-103 30l101 166h128l-57 -96q60 -14 100 -53.5t40 -109.5q0 -72 -34.5 -124.5t-97.5 -80.5t-152 -28z" />
    <glyph glyph-name="uni0328" unicode="&#x328;" 
d="M-150 -467q-85 0 -132.5 44.5t-47.5 120.5q0 63 25.5 114.5t73 97.5t112.5 91l142 -1q-51 -44 -91.5 -86t-63.5 -84.5t-23 -88.5q0 -31 16.5 -47.5t45.5 -16.5q21 0 42.5 4t43.5 9l-14 -137q-29 -10 -61 -15t-68 -5z" />
    <glyph glyph-name="tonos" unicode="&#x384;" horiz-adv-x="1043" 
d="M531 1241l3 27q17 32 39 77t44 94.5t41 96t32 79.5h210l-2 -23q-17 -31 -45.5 -76t-61.5 -95t-66.5 -97t-61.5 -83h-132z" />
    <glyph glyph-name="dieresistonos" unicode="&#x385;" horiz-adv-x="991" 
d="M563 1395v21q20 38 44 93.5t47 111.5t36 95h197l-2 -18q-22 -40 -59.5 -95.5t-79.5 -111t-79 -96.5h-104zM394 1285q-41 0 -65.5 22t-24.5 67q0 59 32 100.5t89 41.5q40 0 63.5 -21.5t23.5 -65.5q0 -64 -33.5 -104t-84.5 -40zM865 1285q-40 0 -64.5 22t-24.5 67
q0 59 32 100.5t89 41.5q39 0 62.5 -21.5t23.5 -65.5q0 -64 -32.5 -104t-85.5 -40z" />
    <glyph glyph-name="Alphatonos" unicode="&#x386;" horiz-adv-x="1069" 
d="M-108 0l701 1465h267l88 -1465h-223l-19 416h-385l-191 -416h-238zM407 610h296l-11 421q-3 59 -5 118.5t0 113.5h-5q-17 -52 -40 -108.5t-52 -118.5zM76 1088l3 27q17 32 39 77t44 94.5t41 96t32 79.5h210l-2 -23q-17 -31 -45.5 -76t-61.5 -95t-66.5 -97t-61.5 -83h-132
z" />
    <glyph glyph-name="anoteleia" unicode="&#x387;" horiz-adv-x="498" 
d="M312 832q-57 0 -86 30t-29 80q0 69 40.5 124.5t124.5 55.5q50 0 79.5 -29.5t29.5 -82.5q0 -75 -44.5 -126.5t-114.5 -51.5z" />
    <glyph glyph-name="Epsilontonos" unicode="&#x388;" horiz-adv-x="1136" 
d="M240 0l309 1462h671l-41 -191h-450l-87 -414h420l-41 -190h-420l-101 -475h450l-40 -192h-670zM88 1088l3 27q17 32 39 77t44 94.5t41 96t32 79.5h210l-2 -23q-17 -31 -45.5 -76t-61.5 -95t-66.5 -97t-61.5 -83h-132z" />
    <glyph glyph-name="Etatonos" unicode="&#x389;" horiz-adv-x="1420" 
d="M233 0l310 1462h220l-128 -602h468l128 602h220l-310 -1462h-221l141 666h-467l-140 -666h-221zM84 1088l3 27q17 32 39 77t44 94.5t41 96t32 79.5h210l-2 -23q-17 -31 -45.5 -76t-61.5 -95t-66.5 -97t-61.5 -83h-132z" />
    <glyph glyph-name="Iotatonos" unicode="&#x38a;" horiz-adv-x="735" 
d="M237 0l311 1462h219l-310 -1462h-220zM84 1088l3 27q17 32 39 77t44 94.5t41 96t32 79.5h210l-2 -23q-17 -31 -45.5 -76t-61.5 -95t-66.5 -97t-61.5 -83h-132z" />
    <glyph glyph-name="Omicrontonos" unicode="&#x38c;" horiz-adv-x="1394" 
d="M672 -20q-146 0 -244 58.5t-148 171.5t-50 274q0 116 19.5 234t58 230t96 209t133.5 171t171 115.5t209 41.5q215 0 324 -129.5t109 -368.5q0 -108 -17 -224t-53 -229t-91 -212.5t-130 -176.5t-171.5 -121t-215.5 -44zM687 174q69 0 128 35t107.5 96.5t85.5 141.5
t62.5 171t39 186t13.5 184q0 147 -57.5 225t-166.5 78q-71 0 -132 -36t-109.5 -99.5t-85.5 -144.5t-62.5 -172t-38 -181.5t-12.5 -173.5q0 -104 26.5 -173t77.5 -103t124 -34zM84 1088l3 27q17 32 39 77t44 94.5t41 96t32 79.5h210l-2 -23q-17 -31 -45.5 -76t-61.5 -95
t-66.5 -97t-61.5 -83h-132z" />
    <glyph glyph-name="Upsilontonos" unicode="&#x38e;" horiz-adv-x="1232" 
d="M524 0l119 558l-172 904h226l103 -649l374 649h243l-554 -903l-118 -559h-221zM54 1088l3 27q17 32 39 77t44 94.5t41 96t32 79.5h210l-2 -23q-17 -31 -45.5 -76t-61.5 -95t-66.5 -97t-61.5 -83h-132z" />
    <glyph glyph-name="Omegatonos" unicode="&#x38f;" horiz-adv-x="1437" 
d="M88 1088l3 27q17 32 39 77t44 94.5t41 96t32 79.5h210l-2 -23q-17 -31 -45.5 -76t-61.5 -95t-66.5 -97t-61.5 -83h-132zM97 0l39 193h307q-47 45 -85 111.5t-60.5 152.5t-22.5 189q0 117 26.5 236.5t79 227.5t131.5 192.5t185.5 133.5t239.5 49q153 0 254.5 -61.5
t153 -169.5t51.5 -248q0 -137 -31 -259t-86 -226t-128.5 -186.5t-158.5 -141.5h311l-41 -193h-520l40 195q91 62 162.5 148.5t121 190t75 217t25.5 229.5q0 99 -27.5 168.5t-82 106t-138.5 36.5q-87 0 -155.5 -44t-119 -118t-83.5 -165.5t-48.5 -187t-15.5 -181.5
q0 -133 33.5 -229.5t99.5 -170.5l-41 -195h-491z" />
    <glyph glyph-name="iotadieresistonos" unicode="&#x390;" horiz-adv-x="602" 
d="M295 -20q-103 0 -163.5 51t-60.5 163q0 27 5.5 64.5t15.5 83.5l162 765h215l-166 -781q-5 -24 -8.5 -46.5t-3.5 -41.5q0 -35 18 -55.5t55 -20.5q28 0 57.5 7.5t62.5 19.5v-167q-37 -18 -88 -30t-101 -12zM340 1395v21q20 38 44 93.5t47 111.5t36 95h197l-2 -18
q-22 -40 -59.5 -95.5t-79.5 -111t-79 -96.5h-104zM171 1285q-41 0 -65.5 22t-24.5 67q0 59 32 100.5t89 41.5q40 0 63.5 -21.5t23.5 -65.5q0 -64 -33.5 -104t-84.5 -40zM642 1285q-40 0 -64.5 22t-24.5 67q0 59 32 100.5t89 41.5q39 0 62.5 -21.5t23.5 -65.5
q0 -64 -32.5 -104t-85.5 -40z" />
    <glyph glyph-name="Alpha" unicode="&#x391;" horiz-adv-x="1052" 
d="M-125 0l701 1465h267l88 -1465h-223l-19 416h-385l-191 -416h-238zM390 610h296l-11 421q-3 59 -5 118.5t0 113.5h-5q-17 -52 -40 -108.5t-52 -118.5z" />
    <glyph glyph-name="Beta" unicode="&#x392;" horiz-adv-x="1085" 
d="M34 0l309 1462h350q115 0 203 -32.5t137.5 -100.5t49.5 -177q0 -94 -34.5 -173.5t-101 -134.5t-164.5 -79v-7q88 -26 140.5 -98.5t52.5 -179.5q0 -145 -64 -253.5t-181 -167.5t-276 -59h-421zM294 189h168q93 0 157 37.5t96.5 104t32.5 152.5q0 90 -49 139t-147 49h-156z
M435 853h150q81 0 141 33t93 92t33 137q0 79 -45.5 119.5t-143.5 40.5h-139z" />
    <glyph glyph-name="Gamma" unicode="&#x393;" horiz-adv-x="855" 
d="M34 0l309 1462h665l-40 -192h-446l-269 -1270h-219z" />
    <glyph glyph-name="uni0394" unicode="&#x394;" horiz-adv-x="1038" 
d="M-67 0l15 139l631 1327h260l84 -1330l-28 -136h-962zM198 194h507l-36 802q-2 29 -3 59t-2 61t-1.5 63.5t0.5 66.5q-12 -35 -27 -76t-33 -84.5t-39 -87.5z" />
    <glyph glyph-name="Epsilon" unicode="&#x395;" horiz-adv-x="930" 
d="M34 0l309 1462h671l-41 -191h-450l-87 -414h420l-41 -190h-420l-101 -475h450l-40 -192h-670z" />
    <glyph glyph-name="Zeta" unicode="&#x396;" horiz-adv-x="916" 
d="M-62 0l32 159l754 1111h-502l41 192h765l-32 -160l-756 -1109h538l-40 -193h-800z" />
    <glyph glyph-name="Eta" unicode="&#x397;" horiz-adv-x="1220" 
d="M34 0l310 1462h220l-128 -602h468l128 602h220l-310 -1462h-221l141 666h-467l-140 -666h-221z" />
    <glyph glyph-name="Theta" unicode="&#x398;" horiz-adv-x="1292" 
d="M558 -20q-148 0 -249.5 59t-153 173t-51.5 277q0 112 19.5 228t58 227.5t96 209t135 172t174.5 117t214 42.5q215 0 329.5 -130.5t114.5 -376.5q0 -120 -19.5 -240.5t-58 -232t-96 -207t-134 -167t-171 -111.5t-208.5 -40zM570 174q75 0 138 37.5t113 102t87 146.5
t62 173t37 181.5t12 170.5q0 147 -60 226.5t-173 79.5q-78 0 -141.5 -37t-114 -101.5t-88 -146.5t-62 -172.5t-36.5 -179.5t-12 -167q0 -103 27.5 -172.5t81 -105t129.5 -35.5zM470 653l40 187h369l-39 -187h-370z" />
    <glyph glyph-name="Iota" unicode="&#x399;" horiz-adv-x="532" 
d="M33 0l311 1462h219l-310 -1462h-220z" />
    <glyph glyph-name="Kappa" unicode="&#x39a;" horiz-adv-x="1041" 
d="M34 0l309 1462h221l-151 -704l123 168l432 536h253l-540 -671l243 -791h-242l-186 647l-127 -101l-115 -546h-220z" />
    <glyph glyph-name="Lambda" unicode="&#x39b;" horiz-adv-x="1032" 
d="M-125 0l702 1466h250l87 -1466h-222l-40 908q-3 64 -4 141.5t0 147.5q-26 -76 -59.5 -154.5t-67.5 -153.5l-412 -889h-234z" />
    <glyph glyph-name="Mu" unicode="&#x39c;" horiz-adv-x="1563" 
d="M33 0l310 1462h299l73 -1134h7l554 1134h318l-308 -1462h-213l182 858q11 53 23.5 105t25 101.5t23.5 90.5h-5l-572 -1155h-197l-77 1153h-6q-6 -42 -14.5 -95.5t-18.5 -110.5t-22 -112l-176 -835h-206z" />
    <glyph glyph-name="Nu" unicode="&#x39d;" horiz-adv-x="1294" 
d="M33 0l310 1462h251l293 -1119h6q9 56 20.5 122t23.5 130.5t22 114.5l161 752h206l-310 -1462h-246l-299 1138h-6q-5 -38 -13 -89t-18 -107t-20 -109t-19 -94l-156 -739h-206z" />
    <glyph glyph-name="Xi" unicode="&#x39e;" horiz-adv-x="918" 
d="M-44 0l40 192h762l-40 -192h-762zM189 669l40 191h581l-41 -191h-580zM254 1271l41 191h705l-40 -191h-706z" />
    <glyph glyph-name="Omicron" unicode="&#x39f;" horiz-adv-x="1268" 
d="M546 -20q-146 0 -244 58.5t-148 171.5t-50 274q0 116 19.5 234t58 230t96 209t133.5 171t171 115.5t209 41.5q215 0 324 -129.5t109 -368.5q0 -108 -17 -224t-53 -229t-91 -212.5t-130 -176.5t-171.5 -121t-215.5 -44zM561 174q69 0 128 35t107.5 96.5t85.5 141.5
t62.5 171t39 186t13.5 184q0 147 -57.5 225t-166.5 78q-71 0 -132 -36t-109.5 -99.5t-85.5 -144.5t-62.5 -172t-38 -181.5t-12.5 -173.5q0 -104 26.5 -173t77.5 -103t124 -34z" />
    <glyph glyph-name="Pi" unicode="&#x3a0;" horiz-adv-x="1209" 
d="M34 0l309 1462h898l-309 -1462h-221l269 1269h-458l-268 -1269h-220z" />
    <glyph glyph-name="Rho" unicode="&#x3a1;" horiz-adv-x="1033" 
d="M34 0l309 1462h310q142 0 231.5 -45t131.5 -127t42 -192q0 -122 -38 -222t-111 -173t-178 -112.5t-240 -39.5h-121l-116 -551h-220zM411 740h93q103 0 176.5 41.5t112.5 118t39 182.5q0 98 -51 144.5t-154 46.5h-103z" />
    <glyph glyph-name="Sigma" unicode="&#x3a3;" horiz-adv-x="938" 
d="M-53 0l35 179l487 580l-238 528l36 175h758l-40 -191h-510l233 -522l-464 -557h556l-41 -192h-812z" />
    <glyph glyph-name="Tau" unicode="&#x3a4;" horiz-adv-x="900" 
d="M215 0l269 1269h-314l41 193h849l-41 -193h-314l-269 -1269h-221z" />
    <glyph glyph-name="Upsilon" unicode="&#x3a5;" horiz-adv-x="944" 
d="M236 0l119 558l-172 904h226l103 -649l374 649h243l-554 -903l-118 -559h-221z" />
    <glyph glyph-name="Phi" unicode="&#x3a6;" horiz-adv-x="1413" 
d="M465 -20l49 225q-133 9 -223 63.5t-135.5 148.5t-45.5 222q0 142 42 261.5t123.5 208t200 139t271.5 55.5l38 180h213l-37 -180q130 -8 220 -62.5t136.5 -148t46.5 -218.5q0 -137 -41 -257t-121 -211.5t-199 -144.5t-276 -56l-49 -225h-213zM552 388l156 730
q-94 -2 -164.5 -42t-117.5 -106.5t-70.5 -150t-23.5 -174.5q0 -80 25.5 -136.5t74.5 -86.5t120 -34zM766 388q91 4 161 43.5t118 105.5t72 150.5t24 178.5q0 78 -25 133.5t-74 86t-122 32.5z" />
    <glyph glyph-name="Chi" unicode="&#x3a7;" horiz-adv-x="988" 
d="M-116 0l518 765l-180 697h229l118 -521l334 521h241l-479 -713l196 -749h-237l-126 567l-373 -567h-241z" />
    <glyph glyph-name="Psi" unicode="&#x3a8;" horiz-adv-x="1410" 
d="M472 0l93 434h-8q-133 2 -219 47.5t-127 126t-41 186.5q0 43 6.5 98.5t19.5 118.5l96 451h219l-101 -476q-10 -51 -16 -93t-6 -75q0 -70 24.5 -112.5t70.5 -61.5t112 -19h10l177 837h214l-178 -837h10q102 0 166.5 40t103.5 116t62 184l106 497h220l-110 -518
q-24 -117 -66.5 -211t-109.5 -160.5t-166.5 -102.5t-238.5 -36h-17l-92 -434h-214z" />
    <glyph glyph-name="uni03A9" unicode="&#x3a9;" horiz-adv-x="1285" 
d="M-54 0l39 193h307q-47 45 -85 111.5t-60.5 152.5t-22.5 189q0 117 26.5 236.5t79 227.5t131.5 192.5t185.5 133.5t239.5 49q153 0 254.5 -61.5t153 -169.5t51.5 -248q0 -137 -31 -259t-86 -226t-128.5 -186.5t-158.5 -141.5h311l-41 -193h-520l40 195q91 62 162.5 148.5
t121 190t75 217t25.5 229.5q0 99 -27.5 168.5t-82 106t-138.5 36.5q-87 0 -155.5 -44t-119 -118t-83.5 -165.5t-48.5 -187t-15.5 -181.5q0 -133 33.5 -229.5t99.5 -170.5l-41 -195h-491z" />
    <glyph glyph-name="Iotadieresis" unicode="&#x3aa;" horiz-adv-x="532" 
d="M33 0l311 1462h219l-310 -1462h-220zM671 1653q-43 0 -68.5 22t-25.5 67q0 59 33 100.5t94 41.5q41 0 65.5 -21.5t24.5 -65.5q0 -64 -34 -104t-89 -40zM322 1653q-43 0 -68.5 22t-25.5 67q0 59 32.5 100.5t93.5 41.5q28 0 47.5 -9.5t30.5 -28.5t11 -49q0 -64 -33.5 -104
t-87.5 -40z" />
    <glyph glyph-name="Upsilondieresis" unicode="&#x3ab;" horiz-adv-x="944" 
d="M236 0l119 558l-172 904h226l103 -649l374 649h243l-554 -903l-118 -559h-221zM852 1632q-43 0 -68.5 22t-25.5 67q0 59 33 100.5t94 41.5q41 0 65.5 -21.5t24.5 -65.5q0 -64 -34 -104t-89 -40zM503 1632q-43 0 -68.5 22t-25.5 67q0 59 32.5 100.5t93.5 41.5
q28 0 47.5 -9.5t30.5 -28.5t11 -49q0 -64 -33.5 -104t-87.5 -40z" />
    <glyph glyph-name="alphatonos" unicode="&#x3ac;" horiz-adv-x="1068" 
d="M332 -20q-118 0 -190 89.5t-72 262.5q0 117 22 232t64 216.5t101.5 179.5t135 122.5t165.5 44.5q94 0 152.5 -48t86.5 -128h8q11 26 25.5 55t30.5 55.5t32 45.5h182q-25 -49 -51 -116t-49.5 -146t-42.5 -165l-76 -356q-6 -28 -9.5 -54t-3.5 -45q0 -33 14 -47t38 -14
q13 0 29.5 3.5t31.5 9.5v-169q-23 -11 -61 -19.5t-73 -8.5q-68 0 -108.5 24t-58.5 65t-20 91h-7q-38 -52 -81.5 -92.5t-96 -64t-118.5 -23.5zM415 159q65 0 117 49.5t90.5 129t60.5 167.5q19 77 28.5 142.5t9.5 118.5q0 85 -35 132t-101 47q-54 0 -100 -39t-82 -103.5
t-61 -142.5t-38.5 -158.5t-13.5 -150.5q0 -97 31.5 -144.5t93.5 -47.5zM573 1241l3 27q17 32 39 77t44 94.5t41 96t32 79.5h210l-2 -23q-17 -31 -45.5 -76t-61.5 -95t-66.5 -97t-61.5 -83h-132z" />
    <glyph glyph-name="epsilontonos" unicode="&#x3ad;" horiz-adv-x="843" 
d="M371 -20q-111 0 -188.5 33t-117.5 95.5t-40 149.5q0 88 34.5 155t99 110.5t152.5 59.5l1 7q-57 25 -94.5 78.5t-37.5 134.5q0 104 52 176.5t139.5 110t194.5 37.5q95 0 171 -19.5t139 -58.5l-84 -162q-46 29 -101 47t-117 18q-85 0 -138.5 -43t-53.5 -124
q0 -61 39.5 -93.5t123.5 -32.5h96l-34 -163h-106q-75 0 -132 -23.5t-88.5 -68t-31.5 -106.5q0 -65 40 -103t126 -38q79 0 146 21.5t130 54.5v-181q-61 -32 -142 -52t-178 -20zM496 1241l3 27q17 32 39 77t44 94.5t41 96t32 79.5h210l-2 -23q-17 -31 -45.5 -76t-61.5 -95
t-66.5 -97t-61.5 -83h-132z" />
    <glyph glyph-name="etatonos" unicode="&#x3ae;" horiz-adv-x="1044" 
d="M473 -492l247 1162q10 45 16.5 85.5t6.5 72.5q0 55 -26 84t-81 29q-63 0 -118 -48.5t-98.5 -140t-71.5 -221.5l-112 -531h-216l235 1107h170l-19 -177h7q36 56 81 100.5t101 70.5t122 26q74 0 129 -28.5t86 -85.5t31 -144q0 -41 -7.5 -90t-17.5 -98l-250 -1173h-215z
M575 1241l3 27q17 32 39 77t44 94.5t41 96t32 79.5h210l-2 -23q-17 -31 -45.5 -76t-61.5 -95t-66.5 -97t-61.5 -83h-132z" />
    <glyph glyph-name="iotatonos" unicode="&#x3af;" horiz-adv-x="599" 
d="M295 -20q-103 0 -163.5 51t-60.5 163q0 27 5.5 64.5t15.5 83.5l162 765h215l-166 -781q-5 -24 -8.5 -46.5t-3.5 -41.5q0 -35 18 -55.5t55 -20.5q28 0 57.5 7.5t62.5 19.5v-167q-37 -18 -88 -30t-101 -12zM301 1241l3 27q17 32 39 77t44 94.5t41 96t32 79.5h210l-2 -23
q-17 -31 -45.5 -76t-61.5 -95t-66.5 -97t-61.5 -83h-132z" />
    <glyph glyph-name="upsilondieresistonos" unicode="&#x3b0;" horiz-adv-x="1051" 
d="M420 -19q-167 0 -248 84.5t-81 231.5q0 43 7.5 95t20.5 118l126 597h215l-129 -612q-12 -54 -18.5 -97.5t-6.5 -78.5q0 -79 36 -117t99 -38t112.5 41t85.5 112.5t61.5 164.5t41.5 199t23.5 215t7.5 211h214q-1 -150 -14.5 -308t-48.5 -304t-98 -262t-162.5 -184
t-243.5 -68zM594 1395v21q20 38 44 93.5t47 111.5t36 95h197l-2 -18q-22 -40 -59.5 -95.5t-79.5 -111t-79 -96.5h-104zM425 1285q-41 0 -65.5 22t-24.5 67q0 59 32 100.5t89 41.5q40 0 63.5 -21.5t23.5 -65.5q0 -64 -33.5 -104t-84.5 -40zM896 1285q-40 0 -64.5 22t-24.5 67
q0 59 32 100.5t89 41.5q39 0 62.5 -21.5t23.5 -65.5q0 -64 -32.5 -104t-85.5 -40z" />
    <glyph glyph-name="alpha" unicode="&#x3b1;" horiz-adv-x="1068" 
d="M332 -20q-118 0 -190 89.5t-72 262.5q0 117 22 232t64 216.5t101.5 179.5t135 122.5t165.5 44.5q94 0 152.5 -48t86.5 -128h8q11 26 25.5 55t30.5 55.5t32 45.5h182q-25 -49 -51 -116t-49.5 -146t-42.5 -165l-76 -356q-6 -28 -9.5 -54t-3.5 -45q0 -33 14 -47t38 -14
q13 0 29.5 3.5t31.5 9.5v-169q-23 -11 -61 -19.5t-73 -8.5q-68 0 -108.5 24t-58.5 65t-20 91h-7q-38 -52 -81.5 -92.5t-96 -64t-118.5 -23.5zM415 159q65 0 117 49.5t90.5 129t60.5 167.5q19 77 28.5 142.5t9.5 118.5q0 85 -35 132t-101 47q-54 0 -100 -39t-82 -103.5
t-61 -142.5t-38.5 -158.5t-13.5 -150.5q0 -97 31.5 -144.5t93.5 -47.5z" />
    <glyph glyph-name="beta" unicode="&#x3b2;" horiz-adv-x="1065" 
d="M-83 -491l346 1632q28 132 81.5 227.5t143.5 147t228 51.5q108 0 184.5 -39.5t117 -111.5t40.5 -169q0 -112 -36.5 -201t-107.5 -147.5t-177 -80.5q102 -20 163 -103t61 -210q0 -93 -26.5 -185.5t-82 -169.5t-141.5 -123.5t-206 -46.5q-88 0 -151.5 24t-105.5 54
l-118 -549h-213zM473 162q71 0 121.5 31t82.5 82t47.5 111t15.5 119q0 103 -49 159t-146 56h-49l38 181h49q64 0 111.5 27t79 73t47 104.5t15.5 121.5q0 75 -36.5 118t-106.5 43q-59 0 -100.5 -29.5t-69.5 -87t-46 -141.5l-191 -896q32 -33 84.5 -52.5t102.5 -19.5z" />
    <glyph glyph-name="gamma" unicode="&#x3b3;" horiz-adv-x="871" 
d="M31 -492q17 83 42.5 166.5t58 166.5t70.5 165l-89 1101h215l29 -533q2 -35 3.5 -75.5t1.5 -81.5t-0.5 -81t-2.5 -74h8q27 77 61 158t69 155l250 532h230l-518 -1045q-48 -97 -87 -193.5t-68 -187.5t-47 -173h-226z" />
    <glyph glyph-name="delta" unicode="&#x3b4;" horiz-adv-x="1025" 
d="M418 -20q-124 0 -205 48t-121.5 130.5t-40.5 187.5q0 142 55.5 258t156.5 200t238 129q-62 64 -101.5 136t-39.5 162q0 103 48.5 178t134.5 116t197 41t195 -30t142 -71l-94 -162q-57 39 -118 63t-128 24q-76 0 -120 -39.5t-44 -110.5q0 -46 20 -85.5t56 -78.5t82 -86
q60 -62 102 -128t65 -141.5t23 -163.5q0 -120 -32.5 -224.5t-96 -184t-157.5 -124t-217 -44.5zM439 160q65 0 113.5 35t81 92.5t48.5 126t16 134.5q0 92 -28 160t-75 119q-69 -26 -127.5 -72t-102 -108t-67.5 -134.5t-24 -150.5q0 -93 42 -147.5t123 -54.5z" />
    <glyph glyph-name="epsilon" unicode="&#x3b5;" horiz-adv-x="843" 
d="M371 -20q-111 0 -188.5 33t-117.5 95.5t-40 149.5q0 88 34.5 155t99 110.5t152.5 59.5l1 7q-57 25 -94.5 78.5t-37.5 134.5q0 104 52 176.5t139.5 110t194.5 37.5q95 0 171 -19.5t139 -58.5l-84 -162q-46 29 -101 47t-117 18q-85 0 -138.5 -43t-53.5 -124
q0 -61 39.5 -93.5t123.5 -32.5h96l-34 -163h-106q-75 0 -132 -23.5t-88.5 -68t-31.5 -106.5q0 -65 40 -103t126 -38q79 0 146 21.5t130 54.5v-181q-61 -32 -142 -52t-178 -20z" />
    <glyph glyph-name="zeta" unicode="&#x3b6;" horiz-adv-x="804" 
d="M249 -396q45 45 84.5 92.5t64 95t24.5 92.5q0 46 -35 76t-103 65q-72 39 -122 84t-75.5 107t-25.5 151q0 139 49.5 271.5t137 260t202.5 250.5t246 243q-39 -6 -84.5 -8.5t-93.5 -2.5h-201l39 175h628l-31 -145q-142 -131 -263.5 -260.5t-212.5 -255t-141.5 -246
t-50.5 -233.5q0 -61 20.5 -103t58 -73t89.5 -61q54 -28 98 -60.5t70 -76t26 -105.5q0 -65 -23 -122.5t-62 -109.5t-89 -101h-224z" />
    <glyph glyph-name="eta" unicode="&#x3b7;" horiz-adv-x="1044" 
d="M473 -492l247 1162q10 45 16.5 85.5t6.5 72.5q0 55 -26 84t-81 29q-63 0 -118 -48.5t-98.5 -140t-71.5 -221.5l-112 -531h-216l235 1107h170l-19 -177h7q36 56 81 100.5t101 70.5t122 26q74 0 129 -28.5t86 -85.5t31 -144q0 -41 -7.5 -90t-17.5 -98l-250 -1173h-215z" />
    <glyph glyph-name="theta" unicode="&#x3b8;" horiz-adv-x="1024" 
d="M400 -20q-108 0 -179 47.5t-105.5 140t-34.5 226.5q0 63 6.5 135.5t19 151.5t30.5 160q35 153 84 286t116 233.5t156.5 157t204.5 56.5q99 0 169 -44t107.5 -136.5t37.5 -239.5q0 -78 -11 -176t-32.5 -201.5t-52.5 -199.5q-37 -133 -85 -242.5t-110.5 -189t-142 -122.5
t-178.5 -43zM416 151q53 0 99 39.5t84.5 112t71.5 174.5t62 226h-406q-19 -100 -29 -183t-10 -146q0 -113 32 -168t96 -55zM365 877h403q15 91 24 169t9 141q0 107 -30.5 160.5t-92.5 53.5q-52 0 -96.5 -36.5t-83 -105.5t-71.5 -165.5t-62 -216.5z" />
    <glyph glyph-name="iota" unicode="&#x3b9;" horiz-adv-x="599" 
d="M295 -20q-103 0 -163.5 51t-60.5 163q0 27 5.5 64.5t15.5 83.5l162 765h215l-166 -781q-5 -24 -8.5 -46.5t-3.5 -41.5q0 -35 18 -55.5t55 -20.5q28 0 57.5 7.5t62.5 19.5v-167q-37 -18 -88 -30t-101 -12z" />
    <glyph glyph-name="kappa" unicode="&#x3ba;" horiz-adv-x="940" 
d="M20 0l236 1107h215l-58 -265q-13 -57 -29.5 -118.5t-33.5 -119.5h6l430 503h243l-415 -472l210 -635h-235l-150 480l-127 -112l-76 -368h-216z" />
    <glyph glyph-name="lambda" unicode="&#x3bb;" horiz-adv-x="943" 
d="M728 -20q-73 0 -117 28.5t-65.5 85t-27.5 138.5l-17 330q-3 52 -5 110.5t-2 110.5q-9 -22 -18 -46t-18.5 -48t-20 -47.5t-22.5 -46.5l-292 -595h-228l563 1077l-7 159q-5 81 -30.5 116t-78.5 35q-22 0 -42 -3t-40 -9l-15 176q29 8 69 13.5t77 5.5q95 0 151 -37t82.5 -107
t34.5 -171l59 -954q4 -49 13 -79t25 -43t39 -13q14 0 30 2.5t34 8.5v-176q-24 -8 -60 -14.5t-71 -6.5z" />
    <glyph glyph-name="uni03BC" unicode="&#x3bc;" horiz-adv-x="1050" 
d="M-84 -491l339 1598h214l-142 -676q-9 -43 -14 -78.5t-5 -62.5q0 -60 27 -92.5t79 -32.5q61 0 115 44t97.5 133.5t72.5 225.5l115 539h213l-234 -1107h-167l13 159h-6q-33 -55 -72.5 -95t-85 -62t-100.5 -22q-48 0 -81.5 21t-53.5 57h-6q-3 -27 -7.5 -61.5t-10 -69
t-11.5 -65.5l-74 -353h-215z" />
    <glyph glyph-name="nu" unicode="&#x3bd;" horiz-adv-x="927" 
d="M184 0l-67 1107h215l30 -628q3 -64 4 -129t1 -122q92 112 163.5 245.5t126 291.5t93.5 342h219q-43 -214 -115.5 -405t-182.5 -365t-269 -337h-218z" />
    <glyph glyph-name="xi" unicode="&#x3be;" horiz-adv-x="813" 
d="M245 -396q46 46 86.5 95.5t66 98t25.5 92.5q-1 44 -30 72t-101 61q-78 37 -129.5 84t-77.5 110t-26 149q0 112 41.5 204t121 156.5t193.5 93.5l1 6q-81 27 -125 83.5t-44 138.5q0 63 22 118t61.5 99t93.5 76.5t119 49.5q-48 -4 -89.5 -7t-85.5 -3h-72l38 175h607
l-36 -167h-42q-61 0 -119 -14.5t-108.5 -41.5t-88.5 -66t-60 -89t-22 -109q0 -84 52 -127t159 -43h90l-36 -170h-83q-110 0 -192.5 -40.5t-127.5 -114t-45 -172.5q0 -59 18 -96.5t55.5 -65t94.5 -56.5q55 -26 98.5 -57t69.5 -75.5t26 -110.5q0 -62 -21.5 -119.5t-60.5 -111
t-92 -106.5h-225z" />
    <glyph glyph-name="omicron" unicode="&#x3bf;" horiz-adv-x="1021" 
d="M421 -19q-107 0 -185.5 46t-121.5 132.5t-43 206.5q0 98 20 203.5t61 204.5t104 178.5t149.5 126.5t197.5 47q108 0 186 -46.5t119.5 -134t41.5 -210.5q0 -104 -20 -210.5t-61.5 -204t-104.5 -174t-148.5 -121t-194.5 -44.5zM441 161q53 0 98.5 34t81 93t60.5 134t38 157
t13 162q0 59 -14.5 105t-47 73t-85.5 27q-58 0 -105.5 -38t-83 -100.5t-59.5 -139t-36.5 -156t-12.5 -148.5q0 -98 39 -150.5t114 -52.5z" />
    <glyph glyph-name="pi" unicode="&#x3c0;" horiz-adv-x="1150" 
d="M823 -17q-97 0 -150.5 50.5t-53.5 147.5q0 28 5 63t13 74l128 612h-277l-199 -930h-216l199 930h-188l20 98l158 79h939l-36 -177h-185l-130 -625q-4 -21 -7 -40.5t-3 -36.5q0 -32 16 -48t47 -16q24 0 47.5 6.5t42.5 15.5v-165q-34 -17 -77.5 -27.5t-92.5 -10.5z" />
    <glyph glyph-name="rho" unicode="&#x3c1;" horiz-adv-x="1039" 
d="M-81 -491l232 1105q34 160 88.5 274.5t146.5 176.5t237 62q114 0 191.5 -47t117 -133.5t39.5 -206.5q0 -99 -19 -205t-57.5 -204.5t-96.5 -178t-135.5 -126t-175.5 -46.5q-82 0 -142 29t-100 76q-7 -56 -17.5 -112.5t-23.5 -116.5l-73 -347h-212zM456 161
q60 0 107.5 39.5t83 104t59 142t35 154.5t11.5 139q0 98 -36.5 152t-108.5 54q-63 0 -108.5 -38.5t-78 -118t-58.5 -204.5l-70 -332q25 -40 67 -66t97 -26z" />
    <glyph glyph-name="uni03C2" unicode="&#x3c2;" horiz-adv-x="814" 
d="M260 -399q52 56 90 104t59 91t21 82q0 30 -12 53t-40.5 45.5t-78.5 48.5q-71 39 -122 87.5t-78.5 118t-27.5 172.5q0 95 21 196.5t63.5 195.5t107.5 169t152.5 119t198.5 44q75 0 138 -15.5t116 -44.5l-74 -170q-38 20 -83 34t-93 14q-63 0 -114.5 -33.5t-90.5 -89
t-66 -123.5t-40.5 -137.5t-13.5 -130.5q0 -68 19 -113.5t56 -77.5t89 -61q56 -30 100.5 -63t71 -79t26.5 -115q0 -55 -20 -109t-58 -106.5t-92 -105.5h-225z" />
    <glyph glyph-name="sigma" unicode="&#x3c3;" horiz-adv-x="1065" 
d="M424 -19q-161 0 -256.5 101t-95.5 295q0 108 22 214t68 199t117 164.5t169 112t224 40.5h457l-36 -176h-225q27 -47 46 -113t19 -157q0 -80 -18 -172.5t-56 -182.5t-97.5 -163.5t-143.5 -117.5t-194 -44zM442 161q58 0 103 33.5t78.5 91t55.5 130.5t33 153t11 157
q0 64 -9.5 115.5t-23.5 89.5h-42q-95 0 -163 -49.5t-111.5 -131t-63.5 -178.5t-20 -193q0 -108 38.5 -163t113.5 -55z" />
    <glyph glyph-name="tau" unicode="&#x3c4;" horiz-adv-x="784" 
d="M414 -21q-108 0 -172 52.5t-64 170.5q0 32 5.5 72t15.5 85l122 570h-242l21 98l155 80h596l-38 -178h-277l-124 -583q-6 -29 -10 -54t-4 -47q0 -40 21.5 -62t63.5 -22q30 0 60.5 8t62.5 19v-167q-37 -19 -88.5 -30.5t-103.5 -11.5z" />
    <glyph glyph-name="upsilon" unicode="&#x3c5;" horiz-adv-x="1051" 
d="M420 -19q-167 0 -248 84.5t-81 231.5q0 43 7.5 95t20.5 118l126 597h215l-129 -612q-12 -54 -18.5 -97.5t-6.5 -78.5q0 -79 36 -117t99 -38t112.5 41t85.5 112.5t61.5 164.5t41.5 199t23.5 215t7.5 211h214q-1 -150 -14.5 -308t-48.5 -304t-98 -262t-162.5 -184
t-243.5 -68z" />
    <glyph glyph-name="phi" unicode="&#x3c6;" horiz-adv-x="1319" 
d="M321 -491l101 477q-101 13 -180 63.5t-124.5 140.5t-45.5 221q0 137 38.5 261.5t112 237t178.5 213.5l144 -115q-77 -84 -134.5 -177.5t-89 -196t-31.5 -215.5q0 -79 21.5 -133t60 -83.5t88.5 -39.5l127 603q37 170 120.5 265.5t238.5 95.5q145 0 223.5 -96t78.5 -271
q0 -115 -25 -225.5t-75 -207.5t-124.5 -172.5t-173 -121t-221.5 -51.5l-99 -473h-209zM669 163q81 11 141.5 54t102.5 107.5t68 141t38 155t12 147.5q0 90 -25.5 136.5t-73.5 46.5q-49 0 -82 -44.5t-56 -155.5z" />
    <glyph glyph-name="chi" unicode="&#x3c7;" horiz-adv-x="925" 
d="M-245 -492l552 862l-34 433q-6 69 -24.5 100.5t-57.5 31.5q-18 0 -35.5 -4.5t-34.5 -10.5l-10 177q29 11 68 17.5t76 6.5q108 0 156 -64.5t59 -188.5l17 -260l300 499h232l-494 -777l42 -507q6 -69 26 -99t61 -30q18 0 40 4.5t43 11.5v-173q-34 -13 -73 -21t-81 -8
q-71 0 -116 30t-69 90.5t-32 152.5l-23 319l-354 -592h-234z" />
    <glyph glyph-name="psi" unicode="&#x3c8;" horiz-adv-x="1344" 
d="M340 -492l101 472q-177 18 -262.5 112t-85.5 247q0 46 7 97t18 110l119 561h215l-122 -578q-11 -49 -17 -92.5t-6 -81.5q0 -88 41 -136.5t131 -56.5l296 1394h208l-295 -1391q88 6 153 60t109 145t70.5 209.5t38.5 253t12 274.5h214q-1 -166 -16.5 -326.5t-55 -301.5
t-110.5 -251t-182.5 -175.5t-271.5 -72.5l-100 -472h-209z" />
    <glyph glyph-name="omega" unicode="&#x3c9;" horiz-adv-x="1355" 
d="M325 -20q-132 0 -197 92t-65 250q0 127 32.5 263t88.5 269.5t127 252.5h218q-71 -123 -128.5 -257t-91 -267.5t-33.5 -256.5q0 -83 26 -122t72 -39q68 0 107 71t69 214l60 281h208l-60 -275q-7 -37 -12.5 -68.5t-8 -57.5t-2.5 -48q0 -57 21 -87t64 -30q53 0 94 46
t72 122.5t51 168.5t30 184t10 169q0 74 -4.5 135.5t-14.5 116.5h211q9 -50 14 -113t5 -133q0 -112 -16 -234t-50 -237t-89 -207.5t-133.5 -147.5t-183.5 -55q-69 0 -114 24.5t-70 66t-34 92.5q-47 -87 -112.5 -135t-160.5 -48z" />
    <glyph glyph-name="iotadieresis" unicode="&#x3ca;" horiz-adv-x="599" 
d="M295 -20q-103 0 -163.5 51t-60.5 163q0 27 5.5 64.5t15.5 83.5l162 765h215l-166 -781q-5 -24 -8.5 -46.5t-3.5 -41.5q0 -35 18 -55.5t55 -20.5q28 0 57.5 7.5t62.5 19.5v-167q-37 -18 -88 -30t-101 -12zM576 1285q-43 0 -68.5 22t-25.5 67q0 59 33 100.5t94 41.5
q41 0 65.5 -21.5t24.5 -65.5q0 -64 -34 -104t-89 -40zM227 1285q-43 0 -68.5 22t-25.5 67q0 59 32.5 100.5t93.5 41.5q28 0 47.5 -9.5t30.5 -28.5t11 -49q0 -64 -33.5 -104t-87.5 -40z" />
    <glyph glyph-name="upsilondieresis" unicode="&#x3cb;" horiz-adv-x="1051" 
d="M420 -19q-167 0 -248 84.5t-81 231.5q0 43 7.5 95t20.5 118l126 597h215l-129 -612q-12 -54 -18.5 -97.5t-6.5 -78.5q0 -79 36 -117t99 -38t112.5 41t85.5 112.5t61.5 164.5t41.5 199t23.5 215t7.5 211h214q-1 -150 -14.5 -308t-48.5 -304t-98 -262t-162.5 -184
t-243.5 -68zM828 1285q-43 0 -68.5 22t-25.5 67q0 59 33 100.5t94 41.5q41 0 65.5 -21.5t24.5 -65.5q0 -64 -34 -104t-89 -40zM479 1285q-43 0 -68.5 22t-25.5 67q0 59 32.5 100.5t93.5 41.5q28 0 47.5 -9.5t30.5 -28.5t11 -49q0 -64 -33.5 -104t-87.5 -40z" />
    <glyph glyph-name="omicrontonos" unicode="&#x3cc;" horiz-adv-x="1021" 
d="M421 -19q-107 0 -185.5 46t-121.5 132.5t-43 206.5q0 98 20 203.5t61 204.5t104 178.5t149.5 126.5t197.5 47q108 0 186 -46.5t119.5 -134t41.5 -210.5q0 -104 -20 -210.5t-61.5 -204t-104.5 -174t-148.5 -121t-194.5 -44.5zM441 161q53 0 98.5 34t81 93t60.5 134t38 157
t13 162q0 59 -14.5 105t-47 73t-85.5 27q-58 0 -105.5 -38t-83 -100.5t-59.5 -139t-36.5 -156t-12.5 -148.5q0 -98 39 -150.5t114 -52.5zM528 1241l3 27q17 32 39 77t44 94.5t41 96t32 79.5h210l-2 -23q-17 -31 -45.5 -76t-61.5 -95t-66.5 -97t-61.5 -83h-132z" />
    <glyph glyph-name="upsilontonos" unicode="&#x3cd;" horiz-adv-x="1051" 
d="M420 -19q-167 0 -248 84.5t-81 231.5q0 43 7.5 95t20.5 118l126 597h215l-129 -612q-12 -54 -18.5 -97.5t-6.5 -78.5q0 -79 36 -117t99 -38t112.5 41t85.5 112.5t61.5 164.5t41.5 199t23.5 215t7.5 211h214q-1 -150 -14.5 -308t-48.5 -304t-98 -262t-162.5 -184
t-243.5 -68zM547 1241l3 27q17 32 39 77t44 94.5t41 96t32 79.5h210l-2 -23q-17 -31 -45.5 -76t-61.5 -95t-66.5 -97t-61.5 -83h-132z" />
    <glyph glyph-name="omegatonos" unicode="&#x3ce;" horiz-adv-x="1355" 
d="M325 -20q-132 0 -197 92t-65 250q0 127 32.5 263t88.5 269.5t127 252.5h218q-71 -123 -128.5 -257t-91 -267.5t-33.5 -256.5q0 -83 26 -122t72 -39q68 0 107 71t69 214l60 281h208l-60 -275q-7 -37 -12.5 -68.5t-8 -57.5t-2.5 -48q0 -57 21 -87t64 -30q53 0 94 46
t72 122.5t51 168.5t30 184t10 169q0 74 -4.5 135.5t-14.5 116.5h211q9 -50 14 -113t5 -133q0 -112 -16 -234t-50 -237t-89 -207.5t-133.5 -147.5t-183.5 -55q-69 0 -114 24.5t-70 66t-34 92.5q-47 -87 -112.5 -135t-160.5 -48zM708 1241l3 27q17 32 39 77t44 94.5t41 96
t32 79.5h210l-2 -23q-17 -31 -45.5 -76t-61.5 -95t-66.5 -97t-61.5 -83h-132z" />
    <glyph glyph-name="uni03D1" unicode="&#x3d1;" horiz-adv-x="1135" 
d="M415 -20q-99 0 -168.5 30.5t-106.5 87.5t-37 138q0 58 15 113.5t34 109.5q14 42 26 79.5t12 67.5q0 27 -12.5 41t-35.5 14q-17 0 -39 -6.5t-42 -16.5l2 169q30 13 74 23t93 10q82 0 128.5 -45t46.5 -124q0 -47 -14 -97.5t-31 -101.5q-17 -52 -30.5 -103t-13.5 -98
q0 -54 28 -85t89 -31q55 0 102.5 30t88 86.5t74.5 136t61.5 179t50.5 214.5q-152 3 -255 51.5t-155 133.5t-52 199q0 109 44.5 197t127.5 140t199 52q122 0 198 -54.5t111.5 -153.5t35.5 -234q0 -38 -2.5 -77.5t-7.5 -79.5h129l-37 -174h-120q-26 -140 -62.5 -264.5
t-86.5 -226t-116.5 -175.5t-152 -114.5t-193.5 -40.5zM837 975q6 43 9 85t3 79q0 123 -33 192t-105 69q-49 0 -82 -29.5t-50 -77.5t-17 -102q0 -71 31.5 -118.5t92.5 -72t151 -25.5z" />
    <glyph glyph-name="uni03D2" unicode="&#x3d2;" horiz-adv-x="948" 
d="M235 0l118 557l-171 905h225l101 -650q38 78 76.5 153t76.5 144.5t74 128t66 101.5q51 69 102 102.5t122 33.5q35 0 64.5 -6t54.5 -16l-39 -177q-11 5 -25 8.5t-30 3.5q-33 0 -62 -25t-70 -88q-29 -47 -66.5 -111t-81.5 -143.5t-94 -173t-105 -199.5l-116 -548h-220z" />
    <glyph glyph-name="uni03D6" unicode="&#x3d6;" horiz-adv-x="1481" 
d="M385 -20q-131 0 -197.5 89.5t-66.5 249.5q0 99 23.5 206t64.5 211t92 194h-210l20 97l159 80h1279l-39 -177h-192q6 -36 10.5 -79t4.5 -94q0 -100 -17.5 -208t-53 -209t-90 -182.5t-128.5 -129.5t-169 -48q-99 0 -152.5 50t-64.5 141q-48 -92 -112.5 -141.5t-160.5 -49.5
zM430 165q50 0 83 37.5t55 102t40 145.5l39 179h207l-37 -173q-7 -36 -13 -67t-9 -58t-3 -49q0 -57 22 -87t64 -30q48 0 86.5 39t68 105t49.5 147t30 165t10 159q0 43 -2.5 80t-6.5 70h-601q-50 -96 -90 -199t-63.5 -206.5t-23.5 -201.5q0 -78 25 -118t70 -40z" />
    <glyph glyph-name="uni0400" unicode="&#x400;" horiz-adv-x="930" 
d="M34 0l309 1462h671l-41 -191h-450l-87 -414h420l-41 -190h-420l-101 -475h450l-40 -192h-670zM673 1598q-33 38 -74 93.5t-76.5 113.5t-55.5 101v20h234q13 -48 30 -98.5t38 -102.5t44 -103l-1 -24h-139z" />
    <glyph glyph-name="uni0401" unicode="&#x401;" horiz-adv-x="930" 
d="M34 0l309 1462h671l-41 -191h-450l-87 -414h420l-41 -190h-420l-101 -475h450l-40 -192h-670zM877 1632q-43 0 -68.5 22t-25.5 67q0 59 33 100.5t94 41.5q41 0 65.5 -21.5t24.5 -65.5q0 -64 -34 -104t-89 -40zM528 1632q-43 0 -68.5 22t-25.5 67q0 59 32.5 100.5
t93.5 41.5q28 0 47.5 -9.5t30.5 -28.5t11 -49q0 -64 -33.5 -104t-87.5 -40z" />
    <glyph glyph-name="uni0402" unicode="&#x402;" horiz-adv-x="1218" 
d="M702 -20q-40 0 -80.5 7t-70.5 19l18 189q27 -13 54.5 -18.5t53.5 -5.5q49 0 81 21.5t51.5 62.5t30.5 99l32 145q4 24 7.5 50t3.5 49q0 60 -34 90t-112 30h-184l-153 -718h-221l270 1269h-279l41 193h825l-41 -193h-326l-75 -357h185q163 0 244 -74t81 -205
q0 -31 -3.5 -69t-11.5 -74l-37 -181q-22 -111 -64.5 -184t-112 -109t-173.5 -36z" />
    <glyph glyph-name="uni0403" unicode="&#x403;" horiz-adv-x="855" 
d="M34 0l309 1462h665l-40 -192h-446l-269 -1270h-219zM559 1598l1 23q40 46 81 98.5t78 106t66 100.5h245l-1 -18q-21 -28 -61.5 -70t-88.5 -87.5t-94 -86t-80 -66.5h-146z" />
    <glyph glyph-name="uni0404" unicode="&#x404;" horiz-adv-x="1051" 
d="M545 -20q-147 0 -244.5 62.5t-146.5 179.5t-49 281q0 135 29.5 273t87.5 265t144.5 227t201 158t256.5 58q100 0 181.5 -21.5t149.5 -64.5l-97 -180q-52 33 -109 53t-123 20q-87 0 -157 -37.5t-125 -100.5t-94 -141.5t-63 -161.5h482l-40 -191h-483q-5 -39 -8 -78.5
t-3 -75.5q0 -106 26.5 -180t83.5 -113t146 -39q44 0 90 8.5t93 23.5t92 33v-194q-49 -20 -102.5 -34.5t-108.5 -22t-110 -7.5z" />
    <glyph glyph-name="uni0405" unicode="&#x405;" horiz-adv-x="928" 
d="M320 -20q-101 0 -182 19t-141 56l18 217q65 -40 143 -67.5t165 -27.5q54 0 101.5 14t83 42t55.5 71t20 101q0 54 -18 94.5t-57 80.5t-104 91q-62 50 -111.5 103t-78 120t-28.5 157q0 98 33 177.5t94.5 136.5t146.5 87.5t189 30.5q95 0 180 -23t154 -65l-91 -187
q-58 35 -121.5 56.5t-128.5 21.5q-47 0 -88.5 -14t-72 -42t-48 -68t-17.5 -92q0 -54 20 -95t60 -79t100 -86q70 -52 118.5 -107t73 -121.5t24.5 -153.5q0 -104 -34.5 -186.5t-99 -141t-155.5 -89.5t-203 -31z" />
    <glyph glyph-name="uni0406" unicode="&#x406;" horiz-adv-x="532" 
d="M33 0l311 1462h219l-310 -1462h-220z" />
    <glyph glyph-name="uni0407" unicode="&#x407;" horiz-adv-x="532" 
d="M33 0l311 1462h219l-310 -1462h-220zM669 1653q-43 0 -68.5 22t-25.5 67q0 59 33 100.5t94 41.5q41 0 65.5 -21.5t24.5 -65.5q0 -64 -34 -104t-89 -40zM320 1653q-43 0 -68.5 22t-25.5 67q0 59 32.5 100.5t93.5 41.5q28 0 47.5 -9.5t30.5 -28.5t11 -49q0 -64 -33.5 -104
t-87.5 -40z" />
    <glyph glyph-name="uni0408" unicode="&#x408;" horiz-adv-x="531" 
d="M-154 -407q-52 0 -91 6.5t-69 18.5l23 189q29 -9 60.5 -15.5t66.5 -6.5q57 0 98 30t69 85.5t45 134.5l302 1427h221l-309 -1459q-31 -146 -87.5 -236.5t-138 -132t-190.5 -41.5z" />
    <glyph glyph-name="uni0409" unicode="&#x409;" horiz-adv-x="1635" 
d="M28 -18q-34 0 -63.5 5.5t-52.5 14.5v191q21 -8 43.5 -13.5t44.5 -5.5q43 0 77.5 19t67.5 72.5t71 155.5q29 76 64 184.5t75 243t84 289.5t91 324h660l-126 -592h69q141 0 230.5 -43.5t131.5 -122.5t42 -188q0 -113 -34.5 -207.5t-103.5 -163.5t-171.5 -107t-237.5 -38
h-329l267 1263h-240q-33 -123 -70.5 -254.5t-75 -256t-71 -228.5t-59.5 -173q-51 -134 -103 -215t-118.5 -117.5t-162.5 -36.5zM920 189h104q74 0 128.5 23.5t89.5 65.5t52.5 99t17.5 126q0 93 -51.5 135t-151.5 42h-84z" />
    <glyph glyph-name="uni040A" unicode="&#x40a;" horiz-adv-x="1617" 
d="M34 0l309 1462h221l-127 -595h389l128 595h220l-125 -592h70q139 0 227.5 -43t131 -122.5t42.5 -189.5q0 -119 -36.5 -214.5t-107 -162.5t-172 -102.5t-230.5 -35.5h-329l142 676h-390l-143 -676h-220zM905 189h105q94 0 157 38.5t95 108.5t32 164t-52.5 137t-154.5 43
h-77z" />
    <glyph glyph-name="uni040B" unicode="&#x40b;" horiz-adv-x="1226" 
d="M183 0l270 1269h-279l41 193h825l-41 -193h-326l-76 -357h185q163 0 242.5 -74.5t79.5 -206.5q0 -36 -6 -78t-14 -85l-98 -468h-222l108 498q5 27 8 53.5t3 45.5q0 61 -34 91t-115 30h-178l-153 -718h-220z" />
    <glyph glyph-name="uni040C" unicode="&#x40c;" horiz-adv-x="1029" 
d="M34 0l309 1462h221l-149 -699l547 699h249l-578 -719l292 -743h-242l-274 734l-155 -734h-220zM633 1598l1 23q40 46 81 98.5t78 106t66 100.5h245l-1 -18q-21 -28 -61.5 -70t-88.5 -87.5t-94 -86t-80 -66.5h-146z" />
    <glyph glyph-name="uni040D" unicode="&#x40d;" horiz-adv-x="1297" 
d="M34 0l309 1462h210l-148 -694q-13 -63 -29 -135t-32.5 -142t-32.5 -128h7l750 1099h261l-309 -1462h-208l145 691q16 69 32.5 144.5t33.5 147.5t34 130l-7 1l-753 -1114h-263zM842 1598q-33 38 -74 93.5t-76.5 113.5t-55.5 101v20h234q13 -48 30 -98.5t38 -102.5t44 -103
l-1 -24h-139z" />
    <glyph glyph-name="uni040E" unicode="&#x40e;" horiz-adv-x="995" 
d="M135 -19q-47 0 -89 7.5t-73 19.5v199q33 -17 72.5 -25t74.5 -8q42 0 75.5 14t62 44t57 76.5t62.5 112.5l-190 1041h224l99 -601q5 -30 10 -69t10 -76.5t8 -67.5q21 50 44.5 104t48.5 105l312 605h240l-590 -1097q-66 -122 -131 -207.5t-143 -131t-184 -45.5zM701 1594
q-112 0 -179.5 33.5t-97.5 91t-30 131.5q0 16 2 35.5t5 34.5h183q-2 -17 -4 -33.5t-2 -32.5q0 -60 34 -92t103 -32q80 0 129 45t71 145h188q-23 -106 -72.5 -178.5t-130 -110t-199.5 -37.5z" />
    <glyph glyph-name="uni040F" unicode="&#x40f;" horiz-adv-x="1209" 
d="M290 -404l86 404h-341l309 1462h222l-271 -1269h458l269 1269h220l-310 -1462h-340l-86 -404h-216z" />
    <glyph glyph-name="uni0410" unicode="&#x410;" horiz-adv-x="1052" 
d="M-125 0l701 1465h267l88 -1465h-223l-19 416h-385l-191 -416h-238zM390 610h296l-11 421q-3 59 -5 118.5t0 113.5h-5q-17 -52 -40 -108.5t-52 -118.5z" />
    <glyph glyph-name="uni0411" unicode="&#x411;" horiz-adv-x="1026" 
d="M34 0l309 1462h694l-40 -192h-474l-85 -400h86q141 0 230.5 -43.5t132 -124t42.5 -191.5q0 -117 -36.5 -211.5t-107 -161t-172.5 -102.5t-234 -36h-345zM293 189h118q98 0 162.5 38.5t97 108t32.5 162.5q0 96 -53.5 139t-154.5 43h-97z" />
    <glyph glyph-name="uni0412" unicode="&#x412;" horiz-adv-x="1085" 
d="M34 0l309 1462h350q115 0 203 -32.5t137.5 -100.5t49.5 -177q0 -94 -34.5 -173.5t-101 -134.5t-164.5 -79v-7q88 -26 140.5 -98.5t52.5 -179.5q0 -145 -64 -253.5t-181 -167.5t-276 -59h-421zM294 189h168q93 0 157 37.5t96.5 104t32.5 152.5q0 90 -49 139t-147 49h-156z
M435 853h150q81 0 141 33t93 92t33 137q0 79 -45.5 119.5t-143.5 40.5h-139z" />
    <glyph glyph-name="uni0413" unicode="&#x413;" horiz-adv-x="855" 
d="M34 0l309 1462h665l-40 -192h-446l-269 -1270h-219z" />
    <glyph glyph-name="uni0414" unicode="&#x414;" horiz-adv-x="1198" 
d="M-189 -404l126 597h100q78 125 154.5 272t146.5 310t130 336.5t107 350.5h620l-270 -1269h155l-127 -597h-216l86 404h-711l-87 -404h-214zM277 193h426l230 1077h-203q-37 -131 -88 -275t-110.5 -288t-124.5 -275.5t-130 -238.5z" />
    <glyph glyph-name="uni0415" unicode="&#x415;" horiz-adv-x="930" 
d="M34 0l309 1462h671l-41 -191h-450l-87 -414h420l-41 -190h-420l-101 -475h450l-40 -192h-670z" />
    <glyph glyph-name="uni0416" unicode="&#x416;" horiz-adv-x="1467" 
d="M-124 0l575 770l-254 692h226l243 -696l148 696h214l-149 -696l523 696h243l-556 -720l257 -742h-233l-240 736l-156 -736h-212l155 735l-535 -735h-249z" />
    <glyph glyph-name="uni0417" unicode="&#x417;" horiz-adv-x="1000" 
d="M334 -20q-114 0 -196 17t-147 51v210q66 -43 153.5 -67t178.5 -24q81 0 143 20.5t104 59.5t63 92.5t21 119.5q0 109 -69.5 158t-196.5 49h-145l39 186h138q99 0 177 31.5t124 93.5t46 153q0 78 -47.5 121.5t-135.5 43.5q-82 0 -153.5 -29.5t-140.5 -77.5l-82 157
q95 66 196 102t233 36q111 0 190.5 -40t122 -111.5t43.5 -166.5q0 -109 -44 -192.5t-124.5 -136.5t-188.5 -71l-1 -6q73 -14 128.5 -53.5t86 -103.5t30.5 -151q0 -103 -36 -189t-106 -149.5t-171.5 -98t-232.5 -34.5z" />
    <glyph glyph-name="uni0418" unicode="&#x418;" horiz-adv-x="1297" 
d="M34 0l309 1462h210l-148 -694q-13 -63 -29 -135t-32.5 -142t-32.5 -128h7l750 1099h261l-309 -1462h-208l145 691q16 69 32.5 144.5t33.5 147.5t34 130l-7 1l-753 -1114h-263z" />
    <glyph glyph-name="uni0419" unicode="&#x419;" horiz-adv-x="1297" 
d="M34 0l309 1462h210l-148 -694q-13 -63 -29 -135t-32.5 -142t-32.5 -128h7l750 1099h261l-309 -1462h-208l145 691q16 69 32.5 144.5t33.5 147.5t34 130l-7 1l-753 -1114h-263zM859 1594q-112 0 -179.5 33.5t-97.5 91t-30 131.5q0 16 2 35.5t5 34.5h183q-2 -17 -4 -33.5
t-2 -32.5q0 -60 34 -92t103 -32q80 0 129 45t71 145h188q-23 -106 -72.5 -178.5t-130 -110t-199.5 -37.5z" />
    <glyph glyph-name="uni041A" unicode="&#x41a;" horiz-adv-x="1029" 
d="M34 0l309 1462h221l-149 -699l547 699h249l-578 -719l292 -743h-242l-274 734l-155 -734h-220z" />
    <glyph glyph-name="uni041B" unicode="&#x41b;" horiz-adv-x="1182" 
d="M32 -18q-33 0 -63.5 5.5t-53.5 14.5v191q20 -8 43 -13.5t47 -5.5q41 0 75 19t66 67.5t65 137.5q29 77 66 193t79.5 258t87.5 298.5t89 314.5h690l-311 -1462h-220l269 1263h-270q-25 -92 -54.5 -197t-60.5 -211t-62 -206t-59.5 -185.5t-51.5 -145.5q-47 -118 -97 -192.5
t-115 -109t-159 -34.5z" />
    <glyph glyph-name="uni041C" unicode="&#x41c;" horiz-adv-x="1563" 
d="M33 0l310 1462h299l73 -1134h7l554 1134h318l-308 -1462h-213l182 858q11 53 23.5 105t25 101.5t23.5 90.5h-5l-572 -1155h-197l-77 1153h-6q-6 -42 -14.5 -95.5t-18.5 -110.5t-22 -112l-176 -835h-206z" />
    <glyph glyph-name="uni041D" unicode="&#x41d;" horiz-adv-x="1220" 
d="M34 0l310 1462h220l-128 -602h468l128 602h220l-310 -1462h-221l141 666h-467l-140 -666h-221z" />
    <glyph glyph-name="uni041E" unicode="&#x41e;" horiz-adv-x="1268" 
d="M546 -20q-146 0 -244 58.5t-148 171.5t-50 274q0 116 19.5 234t58 230t96 209t133.5 171t171 115.5t209 41.5q215 0 324 -129.5t109 -368.5q0 -108 -17 -224t-53 -229t-91 -212.5t-130 -176.5t-171.5 -121t-215.5 -44zM561 174q69 0 128 35t107.5 96.5t85.5 141.5
t62.5 171t39 186t13.5 184q0 147 -57.5 225t-166.5 78q-71 0 -132 -36t-109.5 -99.5t-85.5 -144.5t-62.5 -172t-38 -181.5t-12.5 -173.5q0 -104 26.5 -173t77.5 -103t124 -34z" />
    <glyph glyph-name="uni041F" unicode="&#x41f;" horiz-adv-x="1209" 
d="M34 0l309 1462h898l-309 -1462h-221l269 1269h-458l-268 -1269h-220z" />
    <glyph glyph-name="uni0420" unicode="&#x420;" horiz-adv-x="1033" 
d="M34 0l309 1462h310q142 0 231.5 -45t131.5 -127t42 -192q0 -122 -38 -222t-111 -173t-178 -112.5t-240 -39.5h-121l-116 -551h-220zM411 740h93q103 0 176.5 41.5t112.5 118t39 182.5q0 98 -51 144.5t-154 46.5h-103z" />
    <glyph glyph-name="uni0421" unicode="&#x421;" horiz-adv-x="1030" 
d="M537 -20q-140 0 -236.5 61.5t-146 178t-49.5 279.5q0 130 28 267.5t85 265.5t142.5 230t200 162t257.5 60q98 0 177.5 -21t149.5 -65l-97 -180q-51 34 -106.5 53.5t-122.5 19.5q-100 0 -178 -51.5t-136 -137t-95.5 -189t-56.5 -208.5t-19 -194q0 -169 63 -253.5
t189 -84.5q67 0 135 17.5t136 44.5v-194q-66 -27 -146 -44t-174 -17z" />
    <glyph glyph-name="uni0422" unicode="&#x422;" horiz-adv-x="900" 
d="M215 0l269 1269h-314l41 193h849l-41 -193h-314l-269 -1269h-221z" />
    <glyph glyph-name="uni0423" unicode="&#x423;" horiz-adv-x="995" 
d="M135 -19q-47 0 -89 7.5t-73 19.5v199q33 -17 72.5 -25t74.5 -8q42 0 75.5 14t62 44t57 76.5t62.5 112.5l-190 1041h224l99 -601q5 -30 10 -69t10 -76.5t8 -67.5q21 50 44.5 104t48.5 105l312 605h240l-590 -1097q-66 -122 -131 -207.5t-143 -131t-184 -45.5z" />
    <glyph glyph-name="uni0424" unicode="&#x424;" horiz-adv-x="1413" 
d="M465 -20l49 225q-133 9 -223 63.5t-135.5 148.5t-45.5 222q0 142 42 261.5t123.5 208t200 139t271.5 55.5l38 180h213l-37 -180q130 -8 220 -62.5t136.5 -148t46.5 -218.5q0 -137 -41 -257t-121 -211.5t-199 -144.5t-276 -56l-49 -225h-213zM552 388l156 730
q-94 -2 -164.5 -42t-117.5 -106.5t-70.5 -150t-23.5 -174.5q0 -80 25.5 -136.5t74.5 -86.5t120 -34zM766 388q91 4 161 43.5t118 105.5t72 150.5t24 178.5q0 78 -25 133.5t-74 86t-122 32.5z" />
    <glyph glyph-name="uni0425" unicode="&#x425;" horiz-adv-x="988" 
d="M-116 0l518 765l-180 697h229l118 -521l334 521h241l-479 -713l196 -749h-237l-126 567l-373 -567h-241z" />
    <glyph glyph-name="uni0426" unicode="&#x426;" horiz-adv-x="1256" 
d="M791 -404l87 404h-842l310 1462h222l-270 -1269h455l269 1269h221l-270 -1272h161l-127 -594h-216z" />
    <glyph glyph-name="uni0427" unicode="&#x427;" horiz-adv-x="1160" 
d="M657 0l123 581q-66 -33 -149.5 -59t-166.5 -26q-87 0 -151.5 31t-100 92t-35.5 151q0 34 4.5 71t13.5 75l115 546h220l-111 -524q-7 -34 -11 -61.5t-4 -51.5q0 -68 35 -101.5t105 -33.5q73 0 143.5 22.5t131.5 52.5l148 697h221l-310 -1462h-221z" />
    <glyph glyph-name="uni0428" unicode="&#x428;" horiz-adv-x="1725" 
d="M33 0l310 1462h223l-271 -1269h376l270 1269h223l-269 -1269h374l270 1269h222l-310 -1462h-1418z" />
    <glyph glyph-name="uni0429" unicode="&#x429;" horiz-adv-x="1770" 
d="M1311 -404l86 404h-1364l310 1462h223l-271 -1269h376l270 1269h223l-269 -1269h375l270 1269h222l-271 -1272h163l-128 -594h-215z" />
    <glyph glyph-name="uni042A" unicode="&#x42a;" horiz-adv-x="1181" 
d="M191 0l268 1268h-296l42 194h516l-125 -592h83q141 0 230 -43.5t131.5 -123.5t42.5 -192q0 -116 -36.5 -210.5t-106 -161.5t-170.5 -103t-231 -36h-348zM452 189h114q98 0 163 38.5t97 108t32 162.5q0 96 -52.5 139t-149.5 43h-99z" />
    <glyph glyph-name="uni042B" unicode="&#x42b;" horiz-adv-x="1512" 
d="M34 0l309 1462h220l-125 -592h77q141 0 230 -43t131 -123t42 -191q0 -113 -35 -207t-104.5 -162.5t-171.5 -106t-235 -37.5h-338zM294 189h105q76 0 131.5 23.5t91 65t53.5 98t18 123.5q0 96 -52.5 138.5t-153.5 42.5h-89zM1010 0l310 1462h222l-310 -1462h-222z" />
    <glyph glyph-name="uni042C" unicode="&#x42c;" horiz-adv-x="1024" 
d="M34 0l309 1462h220l-125 -592h85q142 0 231 -43.5t131 -123.5t42 -190q0 -113 -35.5 -207t-104.5 -162.5t-171 -106t-236 -37.5h-346zM294 189h114q76 0 131.5 23.5t91 65t53 98t17.5 123.5q0 96 -52.5 138.5t-150.5 42.5h-100z" />
    <glyph glyph-name="uni042D" unicode="&#x42d;" horiz-adv-x="1054" 
d="M304 -20q-94 0 -167.5 16t-137.5 51v203q49 -26 98.5 -43t99 -25.5t99.5 -8.5q115 0 202 56.5t147 164.5t94 264h-488l40 192h478q4 26 6 54.5t2 57.5q0 105 -27.5 178.5t-81.5 112t-135 38.5q-73 0 -134 -17.5t-131 -49.5l-58 177q77 38 166 60.5t187 22.5
q140 0 238.5 -60t150.5 -176.5t52 -286.5q0 -136 -25 -275t-77.5 -265t-135 -225.5t-197.5 -157.5t-265 -58z" />
    <glyph glyph-name="uni042E" unicode="&#x42e;" horiz-adv-x="1714" 
d="M1027 -20q-141 0 -232.5 59t-136.5 169.5t-45 264.5q0 42 4 91t12 102h-234l-141 -666h-220l309 1462h221l-128 -603h227q31 124 83.5 236.5t127 200t172.5 138.5t220 51q195 0 300 -125.5t105 -362.5q0 -108 -17 -224t-51 -230.5t-86.5 -215.5t-124 -179t-162.5 -123
t-203 -45zM1039 174q65 0 120.5 39t100.5 105.5t79 151.5t57 177.5t35 183.5t12 169q0 141 -51.5 216t-149.5 75q-64 0 -119 -37.5t-100.5 -103t-80.5 -149t-58.5 -175.5t-36 -182.5t-12.5 -171.5q0 -97 22.5 -164t67.5 -100.5t114 -33.5z" />
    <glyph glyph-name="uni042F" unicode="&#x42f;" horiz-adv-x="1056" 
d="M-109 0l468 655q-76 44 -121.5 118t-45.5 191q0 114 36 205.5t105.5 157t169 100.5t227.5 35h356l-308 -1462h-221l124 591h-127l-406 -591h-257zM622 776h99l106 498h-116q-70 0 -124 -21t-91 -61t-56.5 -95.5t-19.5 -123.5q0 -96 54 -146.5t148 -50.5z" />
    <glyph glyph-name="uni0430" unicode="&#x430;" horiz-adv-x="1041" 
d="M332 -20q-77 0 -136 39t-92.5 117.5t-33.5 195.5q0 103 20.5 213.5t60.5 214t99 186.5t135.5 132t170.5 49q59 0 104 -21t77.5 -59t50.5 -91h8l53 151h175l-235 -1107h-169l15 165h-6q-40 -53 -84.5 -95t-97 -66t-115.5 -24zM413 160q66 0 120.5 53t95 137.5t62.5 178.5
q18 73 25.5 131t7.5 111q0 79 -36 126.5t-101 47.5q-52 0 -98 -37.5t-82.5 -100.5t-62.5 -141.5t-40 -161.5t-14 -158q0 -93 31.5 -139.5t91.5 -46.5z" />
    <glyph glyph-name="uni0431" unicode="&#x431;" horiz-adv-x="1007" 
d="M419 -20q-105 0 -181.5 44t-118.5 137t-42 238q0 106 17 233.5t55 258t99.5 248t149.5 206t206 129.5q38 15 94 29t120.5 26t132 22t128.5 17l12 -189q-62 -7 -131 -17.5t-135.5 -24t-123.5 -30.5q-85 -25 -149.5 -83t-111 -146t-77.5 -205l7 -1q49 65 123.5 111
t165.5 46q87 0 147 -39.5t91 -115.5t31 -188q0 -124 -32 -248.5t-95 -228.5t-158.5 -166.5t-223.5 -62.5zM435 161q53 0 96.5 33t76 88.5t55 123t33.5 136.5t11 129q0 83 -28.5 134t-96.5 51q-49 0 -97 -27.5t-89 -71t-69 -89.5q-15 -75 -24.5 -146t-9.5 -132
q0 -72 15 -123.5t46.5 -78.5t80.5 -27z" />
    <glyph glyph-name="uni0432" unicode="&#x432;" horiz-adv-x="1017" 
d="M456 -20q-122 0 -208 46t-131.5 135.5t-45.5 219.5q0 106 21 212t64 202t110 170.5t158.5 118t209.5 43.5q102 0 177 -31.5t116 -92t41 -147.5q0 -80 -31.5 -138t-89 -95t-136.5 -55l-1 -7q75 -17 125.5 -72t50.5 -157q0 -90 -46 -170.5t-141.5 -131t-242.5 -50.5z
M472 144q64 0 108.5 26t68 69.5t23.5 95.5q0 48 -20.5 81.5t-64.5 51.5t-114 18h-177q-3 -25 -5.5 -52.5t-2.5 -57.5q0 -126 50.5 -179t133.5 -53zM327 647h178q71 0 126.5 21t87 63.5t31.5 106.5q0 56 -32.5 89t-98.5 33q-70 0 -126.5 -38.5t-98 -108.5t-67.5 -166z" />
    <glyph glyph-name="uni0433" unicode="&#x433;" horiz-adv-x="824" 
d="M347 -20q-91 0 -165 27.5t-118.5 89t-45.5 160.5q0 80 26 139.5t71 103.5t103 78t122 62q77 34 128 64.5t76.5 66t25.5 85.5q0 46 -29.5 71t-89.5 25q-63 0 -119.5 -19.5t-108.5 -46.5l-55 160q67 35 147 58t170 23q92 0 160 -29t105.5 -87.5t37.5 -147.5
q0 -75 -24.5 -131.5t-68 -98.5t-100.5 -74.5t-122 -61.5q-81 -38 -132.5 -70t-76 -68.5t-24.5 -88.5q0 -55 37.5 -85t110.5 -30q47 0 92.5 10t89 27.5t84.5 38.5v-180q-67 -34 -142 -52.5t-165 -18.5z" />
    <glyph glyph-name="uni0434" unicode="&#x434;" horiz-adv-x="1040" 
d="M420 -20q-116 0 -193.5 47t-116 132.5t-38.5 199.5q0 92 18 189.5t55 187t92.5 160.5t130 112.5t168.5 41.5q60 0 105 -18.5t77.5 -49.5t53.5 -67h6q3 27 3 55.5v50.5q0 193 -53 283.5t-167 90.5q-47 0 -97.5 -13t-96.5 -37l-49 169q58 28 131 44t145 16q141 0 230 -67
t131.5 -192.5t42.5 -300.5q0 -105 -13 -222t-40.5 -233t-72.5 -220t-109 -185t-149.5 -127.5t-193.5 -46.5zM433 158q54 0 99 34.5t81 93.5t62.5 133t44.5 154.5t27 156.5q-14 42 -39.5 75.5t-60 53t-78.5 19.5q-53 0 -96.5 -31.5t-77.5 -84.5t-57.5 -120.5t-35.5 -140.5
t-12 -144q0 -95 35 -147t108 -52z" />
    <glyph glyph-name="uni0435" unicode="&#x435;" horiz-adv-x="949" 
d="M433 -20q-111 0 -192 44.5t-125.5 130.5t-44.5 209q0 147 37 283.5t107.5 244.5t171 171.5t227.5 63.5q140 0 216.5 -69.5t76.5 -191.5q0 -89 -37.5 -161.5t-111 -124t-182 -79t-251.5 -27.5h-30q-4 -24 -6.5 -49.5t-2.5 -50.5q0 -109 49 -165.5t144 -56.5
q72 0 132.5 18.5t137.5 57.5v-171q-72 -39 -147.5 -58t-168.5 -19zM323 632h21q119 0 198.5 27t119.5 77t40 118q0 48 -27 76t-82 28t-108 -40t-95 -113.5t-67 -172.5z" />
    <glyph glyph-name="uni0436" unicode="&#x436;" horiz-adv-x="1597" 
d="M49 -18q-29 0 -56.5 3t-50.5 8l41 178q14 -4 30.5 -6.5t36.5 -2.5q63 0 112.5 37.5t86 100t61 138t36 153t11.5 144.5q0 102 -35.5 156t-107.5 54q-21 0 -41.5 -4t-42.5 -11v178q25 7 57 12.5t70 5.5q149 0 231 -97t82 -279q0 -26 -1.5 -54t-5.5 -56h149l100 467h205
l-100 -467h142q23 95 63 182t99.5 155.5t140.5 108.5t183 40q30 0 57 -3t52 -9l-44 -178q-14 4 -30.5 6t-35.5 2q-61 0 -110 -36t-85.5 -96.5t-61.5 -135.5t-37 -154t-12 -150q0 -102 35 -156t107 -54q24 0 44 4t41 10v-177q-24 -7 -56.5 -12t-69.5 -5q-100 0 -170.5 42.5
t-107.5 126t-37 205.5q0 29 2 60t6 61h-150l-100 -477h-206l102 477h-141q-26 -110 -70 -201t-104.5 -157t-139 -101.5t-174.5 -35.5z" />
    <glyph glyph-name="uni0437" unicode="&#x437;" horiz-adv-x="838" 
d="M282 -20q-87 0 -165 18t-132 48v193q59 -36 132.5 -59t155.5 -23q72 0 124 23t81 67t29 105q0 69 -40 106.5t-128 37.5h-125l36 163h95q67 0 119.5 19.5t83 58.5t30.5 98q0 58 -33 88t-101 30q-55 0 -111.5 -16t-118.5 -46l-56 160q80 39 158.5 57.5t169.5 18.5
q95 0 164 -29t106 -86t37 -142q0 -75 -29 -132t-81 -95t-124 -58l-1 -7q77 -21 120.5 -79.5t43.5 -150.5q0 -105 -49.5 -188.5t-147.5 -131.5t-243 -48z" />
    <glyph glyph-name="uni0438" unicode="&#x438;" horiz-adv-x="1044" 
d="M323 -20q-78 0 -132.5 30.5t-82.5 89t-28 140.5q0 39 6.5 88.5t16.5 97.5l145 681h215l-143 -678q-10 -43 -15.5 -80.5t-5.5 -68.5q0 -56 25.5 -86t79.5 -30q64 0 119.5 49t99 141.5t70.5 221.5l113 531h214l-234 -1107h-170l17 174h-8q-35 -54 -80.5 -98t-100.5 -70
t-121 -26z" />
    <glyph glyph-name="uni0439" unicode="&#x439;" horiz-adv-x="1044" 
d="M323 -20q-78 0 -132.5 30.5t-82.5 89t-28 140.5q0 39 6.5 88.5t16.5 97.5l145 681h215l-143 -678q-10 -43 -15.5 -80.5t-5.5 -68.5q0 -56 25.5 -86t79.5 -30q64 0 119.5 49t99 141.5t70.5 221.5l113 531h214l-234 -1107h-170l17 174h-8q-35 -54 -80.5 -98t-100.5 -70
t-121 -26zM660 1237q-112 0 -179.5 33.5t-97.5 91t-30 131.5q0 16 2 35.5t5 34.5h183q-2 -17 -4 -33.5t-2 -32.5q0 -60 34 -92t103 -32q80 0 129 45t71 145h188q-23 -106 -72.5 -178.5t-130 -110t-199.5 -37.5z" />
    <glyph glyph-name="uni043A" unicode="&#x43a;" horiz-adv-x="938" 
d="M21 0l235 1107h215l-112 -522l420 522h248l-451 -544l248 -563h-239l-232 553l-117 -553h-215z" />
    <glyph glyph-name="uni043B" unicode="&#x43b;" horiz-adv-x="1016" 
d="M17 -15q-33 0 -56.5 5t-45.5 14v183q15 -8 32.5 -11.5t36.5 -3.5q38 1 68.5 23t57 70t52 125t54.5 186q37 138 78.5 240.5t98.5 169.5t140 100.5t203 33.5q76 0 141 -9.5t123 -22.5l-230 -1088h-215l199 931q-13 2 -28 3.5t-32 1.5q-75 0 -123 -44t-84.5 -139.5
t-79.5 -250.5q-33 -120 -67 -215.5t-77 -163t-102.5 -103t-143.5 -35.5z" />
    <glyph glyph-name="uni043C" unicode="&#x43c;" horiz-adv-x="1304" 
d="M23 0l235 1106h290l41 -814h5l393 814h302l-234 -1106h-202l126 584q16 68 31.5 132.5t29.5 121.5h-4l-411 -838h-183l-49 838h-4q-9 -61 -20.5 -122.5t-23.5 -123.5l-124 -592h-198z" />
    <glyph glyph-name="uni043D" unicode="&#x43d;" horiz-adv-x="1065" 
d="M21 0l236 1107h215l-95 -447h354l94 447h215l-234 -1107h-215l102 483h-354l-102 -483h-216z" />
    </font>
</defs>
</svg>
