<?xml version="1.0" standalone="no"?>
<!DOCTYPE svg PUBLIC "-//W3C//DTD SVG 1.1//EN" "http://www.w3.org/Graphics/SVG/1.1/DTD/svg11.dtd" >
<svg xmlns="http://www.w3.org/2000/svg" xmlns:xlink="http://www.w3.org/1999/xlink" version="1.1">
<metadata>
Created by FontForge 20170731 at Wed Feb 10 17:54:38 2021
 By Aleksey,,,
Copyright 2020 The Open Sans Project Authors (https://github.com/googlefonts/opensans)
</metadata>
<defs>
<font id="OpenSansSemiCondensed-Medium" horiz-adv-x="0" >
  <font-face 
    font-family="Open Sans SemiCondensed Medium"
    font-weight="500"
    font-stretch="semi-condensed"
    units-per-em="2048"
    panose-1="0 0 0 0 0 0 0 0 0 0"
    ascent="1638"
    descent="-410"
    x-height="1103"
    cap-height="1462"
    bbox="-1121 -561 2221 2147"
    underline-thickness="50"
    underline-position="-175"
    unicode-range="U+000D-FFFD"
  />
<missing-glyph horiz-adv-x="1229" 
 />
    <glyph glyph-name="f_f" unicode="ff" horiz-adv-x="1249" 
d="M600 949h-223v-949h-191v949h-161v97l161 60v70q0 134 33 220.5t101.5 128.5t173.5 42q59 0 107.5 -10t92.5 -27l-48 -149q-31 11 -64.5 18.5t-68.5 7.5q-72 0 -103.5 -53t-32.5 -175v-76h223v-154zM1225 949h-223v-949h-191v949h-161v97l161 60v70q0 134 33 220.5
t101.5 128.5t173.5 42q59 0 107.5 -10t92.5 -27l-48 -149q-31 11 -64.5 18.5t-68.5 7.5q-72 0 -103.5 -53t-32.5 -175v-76h223v-154z" />
    <glyph glyph-name="fi" unicode="fi" horiz-adv-x="1117" 
d="M600 949h-223v-949h-191v949h-161v97l161 60v70q0 134 33 220.5t101.5 128.5t173.5 42q59 0 107.5 -10t92.5 -27l-48 -149q-31 11 -64.5 18.5t-68.5 7.5q-72 0 -103.5 -53t-32.5 -175v-76h223v-154zM966 1103v-1103h-191v1103h191zM873 1521q50 0 80 -30t30 -91
q0 -60 -30.5 -90.5t-79.5 -30.5q-50 0 -81 30.5t-31 90.5q0 62 30.5 91.5t81.5 29.5z" />
    <glyph glyph-name="fl" unicode="fl" horiz-adv-x="1115" 
d="M600 949h-223v-949h-191v949h-161v97l161 60v70q0 134 33 220.5t101.5 128.5t173.5 42q59 0 107.5 -10t92.5 -27l-48 -149q-31 11 -64.5 18.5t-68.5 7.5q-72 0 -103.5 -53t-32.5 -175v-76h223v-154zM966 0h-192v1556h192v-1556z" />
    <glyph glyph-name="f_f_i" unicode="ffi" horiz-adv-x="1741" 
d="M600 949h-223v-949h-191v949h-161v97l161 60v70q0 134 33 220.5t101.5 128.5t173.5 42q59 0 107.5 -10t92.5 -27l-48 -149q-31 11 -64.5 18.5t-68.5 7.5q-72 0 -103.5 -53t-32.5 -175v-76h223v-154zM1224 949h-223v-949h-191v949h-161v97l161 60v70q0 134 33 220.5
t101.5 128.5t173.5 42q59 0 107.5 -10t92.5 -27l-48 -149q-31 11 -64.5 18.5t-68.5 7.5q-72 0 -103.5 -53t-32.5 -175v-76h223v-154zM1589 1103v-1103h-191v1103h191zM1496 1521q50 0 80 -30t30 -91q0 -60 -30.5 -90.5t-79.5 -30.5q-50 0 -81 30.5t-31 90.5q0 62 30.5 91.5
t81.5 29.5z" />
    <glyph glyph-name="f_f_l" unicode="ffl" horiz-adv-x="1739" 
d="M600 949h-223v-949h-191v949h-161v97l161 60v70q0 134 33 220.5t101.5 128.5t173.5 42q59 0 107.5 -10t92.5 -27l-48 -149q-31 11 -64.5 18.5t-68.5 7.5q-72 0 -103.5 -53t-32.5 -175v-76h223v-154zM1224 949h-223v-949h-191v949h-161v97l161 60v70q0 134 33 220.5
t101.5 128.5t173.5 42q59 0 107.5 -10t92.5 -27l-48 -149q-31 11 -64.5 18.5t-68.5 7.5q-72 0 -103.5 -53t-32.5 -175v-76h223v-154zM1589 0h-192v1556h192v-1556z" />
    <glyph glyph-name=".notdef" horiz-adv-x="1229" 
 />
    <glyph glyph-name=".null" 
 />
    <glyph glyph-name="nonmarkingreturn" horiz-adv-x="682" 
 />
    <glyph glyph-name="NULL" 
 />
    <glyph glyph-name="NULL" 
 />
    <glyph glyph-name="CR" unicode="&#xd;" horiz-adv-x="454" 
 />
    <glyph glyph-name="space" unicode=" " horiz-adv-x="454" 
 />
    <glyph glyph-name="exclam" unicode="!" horiz-adv-x="519" 
d="M331 424h-143l-43 1038h228zM134 115q0 71 34 104.5t91 33.5q55 0 90 -32.5t35 -105.5q0 -71 -35.5 -104.5t-89.5 -33.5q-56 0 -90.5 34t-34.5 104z" />
    <glyph glyph-name="quotedbl" unicode="&#x22;" horiz-adv-x="824" 
d="M330 1462l-35 -528h-135l-36 528h206zM701 1462l-36 -528h-134l-36 528h206z" />
    <glyph glyph-name="numbersign" unicode="#" horiz-adv-x="1143" 
d="M863 899l-51 -322h229v-145h-251l-70 -432h-148l70 432h-237l-67 -432h-145l65 432h-213v145h237l51 322h-227v143h249l66 420h148l-66 -420h237l68 420h144l-67 -420h215v-143h-237zM428 577h237l51 322h-237z" />
    <glyph glyph-name="dollar" unicode="$" horiz-adv-x="1032" 
d="M457 -119v211q-105 2 -197.5 21.5t-157.5 49.5v180q66 -35 163 -62t192 -30v422q-124 44 -203 94t-116.5 118.5t-37.5 163.5q0 100 44.5 173t125 116t187.5 51v166h114v-163q93 -3 174.5 -23t154.5 -54l-56 -153q-63 28 -132 45.5t-141 23.5v-418q118 -41 199 -87.5
t123.5 -112t42.5 -163.5q0 -143 -95 -236t-270 -115v-218h-114zM571 260q94 14 141.5 61t47.5 117q0 48 -19.5 81.5t-60.5 60t-109 50.5v-370zM457 858v370q-59 -7 -99 -30t-60.5 -59t-20.5 -84q0 -51 18 -86t57.5 -61t104.5 -50z" />
    <glyph glyph-name="percent" unicode="%" horiz-adv-x="1565" 
d="M363 1483q137 0 210 -119t73 -338t-71 -340t-212 -121q-134 0 -206 121.5t-72 339.5q0 219 69 338t209 119zM363 1346q-63 0 -91.5 -80t-28.5 -240q0 -161 29 -242t92 -81t93.5 80t30.5 243q0 160 -31 240t-94 80zM1193 1462l-667 -1462h-157l667 1462h157zM1198 898
q136 0 209.5 -119t73.5 -338q0 -220 -71.5 -340t-211.5 -120q-135 0 -206.5 121.5t-71.5 338.5q0 222 69.5 339.5t208.5 117.5zM1198 761q-63 0 -91.5 -79.5t-28.5 -240.5t28.5 -241.5t92.5 -80.5t93.5 81.5t29.5 240.5q0 157 -30.5 238.5t-93.5 81.5z" />
    <glyph glyph-name="ampersand" unicode="&#x26;" horiz-adv-x="1258" 
d="M532 1484q98 0 168 -37.5t108 -107.5t38 -169q0 -128 -65.5 -222t-176.5 -172l288 -349q39 59 63 134.5t38 162.5h197q-20 -116 -64 -233t-110 -209l240 -282h-243l-124 153q-54 -54 -114.5 -92.5t-132.5 -59.5t-162 -21q-127 0 -216.5 49t-136 139t-46.5 211
q0 97 31 171.5t91 135.5t148 118q-46 60 -78.5 116t-50.5 116.5t-18 132.5q0 98 40.5 168t114 108.5t173.5 38.5zM453 681q-57 -41 -96 -83.5t-58.5 -92.5t-19.5 -116q0 -109 60 -174t159 -65q90 0 158 36.5t121 99.5zM528 1331q-62 0 -101 -42.5t-39 -123.5
q0 -68 29.5 -136.5t82.5 -132.5q87 58 126 124t39 149q0 77 -37.5 119.5t-99.5 42.5z" />
    <glyph glyph-name="quotesingle" unicode="'" horiz-adv-x="453" 
d="M330 1462l-35 -528h-135l-36 528h206z" />
    <glyph glyph-name="parenleft" unicode="(" horiz-adv-x="614" 
d="M90 565q0 172 33.5 333.5t99.5 306.5t162 265h172q-139 -195 -209.5 -425.5t-70.5 -477.5q0 -161 32 -317.5t94 -301t152 -272.5h-170q-98 118 -163.5 259t-98.5 300.5t-33 329.5z" />
    <glyph glyph-name="parenright" unicode=")" horiz-adv-x="614" 
d="M524 566q0 -169 -33 -328.5t-98.5 -302t-163.5 -259.5h-170q91 128 153 273.5t93.5 302t31.5 316.5q0 165 -31.5 323t-93.5 304t-154 275h171q98 -120 163.5 -265t98.5 -306.5t33 -332.5z" />
    <glyph glyph-name="asterisk" unicode="*" horiz-adv-x="976" 
d="M583 1558l-35 -331l320 96l31 -181l-308 -31l209 -272l-163 -95l-151 297l-146 -297l-165 95l206 272l-306 30l34 181l315 -95l-33 331h192z" />
    <glyph glyph-name="plus" unicode="+" horiz-adv-x="1034" 
d="M594 800h356v-155h-356v-409h-155v409h-358v155h358v412h155v-412z" />
    <glyph glyph-name="comma" unicode="," horiz-adv-x="507" 
d="M368 239l13 -22q-18 -80 -43 -164t-54.5 -165.5t-62.5 -155.5h-146q21 82 40 171.5t34 176.5t23 159h196z" />
    <glyph glyph-name="hyphen" unicode="-" horiz-adv-x="617" 
d="M66 463v176h485v-176h-485z" />
    <glyph glyph-name="period" unicode="." horiz-adv-x="510" 
d="M130 115q0 71 34 104.5t91 33.5q55 0 90.5 -32.5t35.5 -105.5q0 -71 -36 -104.5t-90 -33.5q-55 0 -90 34t-35 104z" />
    <glyph glyph-name="slash" unicode="/" horiz-adv-x="772" 
d="M750 1466l-542 -1470h-181l544 1470h179z" />
    <glyph glyph-name="zero" unicode="0" horiz-adv-x="1032" 
d="M942 732q0 -176 -23.5 -315t-74.5 -236.5t-132.5 -149t-196.5 -51.5q-141 0 -235.5 80t-142.5 246.5t-48 425.5q0 243 44 410.5t138 254.5t244 87q146 0 240 -87t140.5 -254.5t46.5 -410.5zM285 732q0 -195 22.5 -324.5t73.5 -194t134 -64.5t134 64.5t74 194.5t23 324
q0 192 -23 321.5t-73.5 195t-134.5 65.5t-134.5 -65t-73 -194.5t-22.5 -322.5z" />
    <glyph glyph-name="one" unicode="1" horiz-adv-x="1032" 
d="M688 0h-193v978q0 48 1 93t2.5 87.5t4.5 84.5q-20 -23 -45 -47.5t-59 -55.5l-148 -131l-106 123l378 330h165v-1462z" />
    <glyph glyph-name="two" unicode="2" horiz-adv-x="1032" 
d="M932 0h-850v148l336 404q98 118 158.5 204t89 164t28.5 168q0 107 -57.5 166t-157.5 59q-81 0 -147.5 -30.5t-137.5 -93.5l-102 130q56 52 116.5 88.5t130 56t152.5 19.5q124 0 213.5 -47.5t138 -133.5t48.5 -201t-36 -212.5t-106 -194t-171 -210.5l-258 -302v-9h612
v-173z" />
    <glyph glyph-name="three" unicode="3" horiz-adv-x="1032" 
d="M894 1124q0 -92 -33.5 -163.5t-95 -119.5t-146.5 -72v-7q152 -26 230.5 -116.5t78.5 -236.5q0 -126 -54.5 -223t-162.5 -151.5t-271 -54.5q-104 0 -190.5 16.5t-167.5 54.5v183q80 -43 169.5 -66t173.5 -23q157 0 228 73.5t71 198.5q0 87 -38.5 143.5t-115.5 84
t-192 27.5h-106v164h109q105 0 175.5 33t106.5 92.5t36 139.5q0 103 -59 159.5t-167 56.5q-61 0 -112 -14t-96 -39t-90 -58l-92 135q81 67 180.5 104.5t225.5 37.5q194 0 299.5 -97.5t105.5 -261.5z" />
    <glyph glyph-name="four" unicode="4" horiz-adv-x="1032" 
d="M1000 323h-181v-323h-191v323h-590v156l583 991h198v-982h181v-165zM628 488v474q0 35 1 73t2.5 74.5t3 68t2.5 55.5h-8q-17 -43 -37.5 -86.5t-42.5 -81.5l-334 -577h413z" />
    <glyph glyph-name="five" unicode="5" horiz-adv-x="1032" 
d="M512 905q128 0 222 -52.5t145.5 -150t51.5 -231.5q0 -150 -57 -260t-166.5 -170.5t-267.5 -60.5q-100 0 -183.5 18t-144.5 53v184q66 -40 152 -64.5t168 -24.5q96 0 163 38t102 108.5t35 166.5q0 136 -73 209t-221 73q-54 0 -113.5 -9.5t-106.5 -23.5l-82 60l50 694h655
v-174h-490l-31 -405q40 9 88 15.5t104 6.5z" />
    <glyph glyph-name="six" unicode="6" horiz-adv-x="1032" 
d="M96 623q0 145 18 275t58.5 237t108 184.5t166.5 120t235 42.5q45 0 92 -4.5t81 -14.5v-167q-35 11 -77.5 16.5t-87.5 5.5q-142 0 -229.5 -68.5t-129 -195t-48.5 -300.5h10q26 50 65.5 89t95.5 61t128 22q115 0 196.5 -56.5t124.5 -158.5t43 -240q0 -147 -48.5 -257.5
t-140 -172t-222.5 -61.5q-99 0 -180 41t-139 122.5t-89 201.5t-31 278zM532 146q102 0 162 80t60 242q0 142 -54.5 219.5t-163.5 77.5q-75 0 -129.5 -36.5t-84 -94t-29.5 -121.5q0 -61 14 -125.5t43 -119t74 -88.5t108 -34z" />
    <glyph glyph-name="seven" unicode="7" horiz-adv-x="1032" 
d="M231 0l513 1288h-669v174h872v-140l-508 -1322h-208z" />
    <glyph glyph-name="eight" unicode="8" horiz-adv-x="1032" 
d="M517 1483q117 0 205.5 -41t137.5 -118t49 -187q0 -85 -31 -152t-87.5 -120t-133.5 -95q84 -48 150 -104t104 -127t38 -164q0 -120 -53 -208.5t-149.5 -137.5t-226.5 -49q-139 0 -237.5 47t-149.5 133.5t-51 206.5q0 94 34 167t95 129.5t143 101.5q-70 46 -122 101
t-80.5 122t-28.5 149q0 108 50.5 185.5t139.5 119t204 41.5zM270 369q0 -102 62 -167.5t183 -65.5q120 0 183 66t63 173q0 59 -27 109t-78.5 93t-123.5 82l-36 20q-75 -39 -125 -84t-75.5 -100t-25.5 -126zM515 1326q-91 0 -147.5 -53t-56.5 -149q0 -63 26 -111t72.5 -85.5
t108.5 -71.5q63 34 108.5 72.5t70 86t24.5 110.5q0 95 -56 148t-150 53z" />
    <glyph glyph-name="nine" unicode="9" horiz-adv-x="1032" 
d="M935 845q0 -147 -18.5 -278t-60 -238.5t-109.5 -185.5t-167 -120.5t-234 -42.5q-41 0 -92 5.5t-85 14.5v168q35 -12 79 -18.5t91 -6.5q149 0 236.5 75t127 203t44.5 286h-10q-26 -49 -65.5 -88t-95 -61.5t-129.5 -22.5q-115 0 -196 56.5t-124 159t-43 239.5
q0 147 49.5 258t142 173t224.5 62q99 0 179 -41.5t137 -122t88 -199.5t31 -275zM501 1315q-103 0 -163 -79.5t-60 -241.5q0 -142 53.5 -220t163.5 -78q78 0 132 38t82.5 97t28.5 123q0 55 -13 117.5t-40.5 118t-73 90.5t-110.5 35z" />
    <glyph glyph-name="colon" unicode=":" horiz-adv-x="512" 
d="M131 116q0 70 34 103.5t91 33.5q55 0 90 -32.5t35 -104.5t-35.5 -105.5t-89.5 -33.5q-57 0 -91 34t-34 105zM131 980q0 72 34 105.5t91 33.5q56 0 90.5 -33t34.5 -105q0 -71 -35.5 -105t-89.5 -34q-56 0 -90.5 34.5t-34.5 103.5z" />
    <glyph glyph-name="semicolon" unicode=";" horiz-adv-x="512" 
d="M362 239l13 -22q-17 -80 -42.5 -164t-55.5 -165.5t-62 -155.5h-147q22 83 41 172.5t34 175.5t24 159h195zM130 981q0 71 34 104.5t91 33.5t91 -33.5t34 -104.5t-35 -105t-90 -34q-56 0 -90.5 34.5t-34.5 104.5z" />
    <glyph glyph-name="less" unicode="&#x3c;" horiz-adv-x="1034" 
d="M952 250l-873 421v106l873 443v-171l-662 -322l662 -306v-171z" />
    <glyph glyph-name="equal" unicode="=" horiz-adv-x="1034" 
d="M86 856v154h860v-154h-860zM86 433v154h860v-154h-860z" />
    <glyph glyph-name="greater" unicode="&#x3e;" horiz-adv-x="1034" 
d="M81 421l662 305l-662 323v171l872 -443v-106l-872 -421v171z" />
    <glyph glyph-name="question" unicode="?" horiz-adv-x="788" 
d="M243 424v60q0 74 13.5 129.5t45 105t86.5 103.5q61 59 97 104.5t52.5 91.5t16.5 105q0 94 -51 143t-144 49q-75 0 -139 -23t-128 -60l-69 150q78 47 164 74t184 27q177 0 273 -93t96 -256q0 -90 -24 -155t-70 -121.5t-113 -122.5q-54 -53 -82.5 -93t-39 -81t-10.5 -96
v-41h-158zM202 115q0 71 34 104.5t91 33.5q55 0 90 -32.5t35 -104.5t-35.5 -105.5t-89.5 -33.5q-56 0 -90.5 34t-34.5 104z" />
    <glyph glyph-name="at" unicode="@" horiz-adv-x="1599" 
d="M1497 735q0 -108 -20 -200.5t-59 -161.5t-97 -108t-134 -39q-85 0 -134 49t-62 127h-10q-33 -83 -91 -129.5t-142 -46.5q-136 0 -210 101.5t-74 278.5q0 142 46 247t131.5 162.5t204.5 57.5q71 0 142.5 -13t121.5 -32l-18 -415q-1 -31 -2.5 -57.5t-1.5 -41.5
q0 -87 29 -121.5t73 -34.5q51 0 86 45t53 130.5t18 204.5q0 183 -62.5 317t-174.5 207t-261 73t-260 -59t-185 -162t-111.5 -236.5t-37.5 -283.5q0 -192 59 -335.5t175.5 -222t290.5 -78.5q100 0 198.5 24.5t176.5 59.5v-141q-78 -36 -171 -56.5t-204 -20.5q-215 0 -366 90
t-230.5 260t-79.5 410q0 198 52.5 360t150 280t235 181.5t307.5 62.5q195 0 341 -93t226.5 -258t80.5 -382zM624 602q0 -125 38.5 -184.5t107.5 -59.5q80 0 118.5 81t47.5 238l13 254q-21 7 -48 10.5t-57 3.5q-75 0 -124 -44.5t-72.5 -121.5t-23.5 -177z" />
    <glyph glyph-name="A" unicode="A" horiz-adv-x="1137" 
d="M927 0l-131 438h-457l-131 -438h-208l456 1465h222l458 -1465h-209zM751 613l-129 449q-7 31 -17.5 72t-21 82.5t-17.5 73.5q-6 -37 -15.5 -77.5t-19 -79t-17.5 -69.5l-129 -451h366z" />
    <glyph glyph-name="B" unicode="B" horiz-adv-x="1166" 
d="M171 1462h380q239 0 360.5 -84.5t121.5 -273.5q0 -88 -27.5 -156.5t-80 -112.5t-129.5 -60v-9q86 -17 147 -59t94 -113t33 -175q0 -131 -54 -225t-155 -144t-242 -50h-448v1462zM368 844h200q144 0 203.5 60t59.5 178q0 109 -67.5 161.5t-209.5 52.5h-186v-452zM368 681
v-513h226q143 0 206.5 69t63.5 196q0 80 -30 135t-93 84t-162 29h-211z" />
    <glyph glyph-name="C" unicode="C" horiz-adv-x="1110" 
d="M713 1311q-97 0 -171.5 -43t-124.5 -121.5t-75 -184.5t-25 -232q0 -179 45.5 -308.5t134.5 -199t219 -69.5q80 0 152 17.5t140 43.5v-173q-68 -31 -144 -46t-172 -15q-189 0 -318.5 91t-196 259.5t-66.5 401.5q0 162 38.5 299t114 238.5t187.5 158t258 56.5
q93 0 180.5 -21.5t163.5 -61.5l-69 -165q-61 32 -128.5 53.5t-142.5 21.5z" />
    <glyph glyph-name="D" unicode="D" horiz-adv-x="1283" 
d="M1172 748q0 -247 -75.5 -413t-220.5 -250.5t-354 -84.5h-351v1462h381q196 0 334 -81t212 -240t74 -393zM966 740q0 187 -48.5 309.5t-143 182.5t-233.5 60h-173v-1121h148q228 0 339 143t111 426z" />
    <glyph glyph-name="E" unicode="E" horiz-adv-x="986" 
d="M879 0h-708v1462h708v-171h-511v-442h480v-171h-480v-505h511v-173z" />
    <glyph glyph-name="F" unicode="F" horiz-adv-x="932" 
d="M368 0h-197v1462h707v-171h-510v-503h479v-171h-479v-617z" />
    <glyph glyph-name="G" unicode="G" horiz-adv-x="1307" 
d="M714 780h461v-724q-104 -38 -214.5 -57t-236.5 -19q-203 0 -339 93.5t-205 262.5t-69 397q0 225 76 393.5t224 262.5t361 94q107 0 205 -23.5t181 -66.5l-69 -166q-72 39 -152.5 61.5t-166.5 22.5q-144 0 -245.5 -69.5t-154.5 -199.5t-53 -312q0 -170 44.5 -300.5
t140 -204t246.5 -73.5q72 0 128.5 9t104.5 23v424h-267v172z" />
    <glyph glyph-name="H" unicode="H" horiz-adv-x="1316" 
d="M1145 0h-197v677h-580v-677h-197v1462h197v-612h580v612h197v-1462z" />
    <glyph glyph-name="I" unicode="I" horiz-adv-x="539" 
d="M171 0v1462h197v-1462h-197z" />
    <glyph glyph-name="J" unicode="J" horiz-adv-x="527" 
d="M17 -399q-45 0 -82.5 6t-66.5 18v170q29 -9 61.5 -15t69.5 -6q52 0 89 23.5t57.5 78t20.5 149.5v1437h197v-1437q0 -151 -41 -244t-119 -136.5t-186 -43.5z" />
    <glyph glyph-name="K" unicode="K" horiz-adv-x="1109" 
d="M1113 0h-225l-394 675l-126 -123v-552h-197v1462h197v-719q31 45 71 100.5t86 121.5l352 497h220l-463 -642z" />
    <glyph glyph-name="L" unicode="L" horiz-adv-x="932" 
d="M171 0v1462h197v-1288h519v-174h-716z" />
    <glyph glyph-name="M" unicode="M" horiz-adv-x="1675" 
d="M746 0l-397 1229h-8q4 -54 7 -113.5t4.5 -118.5t1.5 -109v-888h-183v1462h280l382 -1177h6l387 1177h280v-1462h-191v892q0 49 1.5 106t4.5 116.5t6 113.5h-8l-403 -1228h-170z" />
    <glyph glyph-name="N" unicode="N" horiz-adv-x="1377" 
d="M1207 0h-236l-623 1180h-8q4 -56 7 -114.5t5 -117.5t2 -116v-832h-183v1462h235l622 -1167h7q-3 52 -5.5 111.5t-4.5 119t-2 111.5v825h184v-1462z" />
    <glyph glyph-name="O" unicode="O" horiz-adv-x="1372" 
d="M1261 733q0 -165 -34.5 -303t-105 -239t-178.5 -156t-255 -55q-150 0 -259 56t-179.5 157t-104.5 239.5t-34 302.5q0 237 64 404.5t192.5 256t321.5 88.5q195 0 321.5 -95t188.5 -264t62 -392zM317 733q0 -184 40.5 -314t123 -198t206.5 -68q126 0 207 67.5t120.5 197
t39.5 315.5q0 280 -89 429t-276 149q-126 0 -208.5 -67.5t-123 -196.5t-40.5 -314z" />
    <glyph glyph-name="P" unicode="P" horiz-adv-x="1084" 
d="M517 1462q250 0 367.5 -110t117.5 -324q0 -103 -28.5 -188.5t-89 -148t-156 -96.5t-230.5 -34h-130v-561h-197v1462h346zM504 1294h-136v-564h111q108 0 179.5 29.5t107 94t35.5 169.5q0 140 -72 205.5t-225 65.5z" />
    <glyph glyph-name="Q" unicode="Q" horiz-adv-x="1372" 
d="M1261 733q0 -181 -38.5 -323.5t-115 -240t-189.5 -144.5l285 -373h-251l-230 331q-9 -1 -20 -2t-21 -1q-148 0 -255.5 56.5t-177 158.5t-103.5 240t-34 300q0 237 64 404.5t192.5 256t321.5 88.5q187 0 314.5 -88.5t192.5 -256t65 -406.5zM317 733q0 -184 40.5 -314
t122.5 -198t207 -68q126 0 207 67.5t120.5 197t39.5 315.5q0 280 -89 429t-276 149q-126 0 -208.5 -67.5t-123 -196.5t-40.5 -314z" />
    <glyph glyph-name="R" unicode="R" horiz-adv-x="1123" 
d="M509 1462q168 0 277.5 -45t163.5 -137t54 -233q0 -104 -32.5 -180.5t-90 -129t-134.5 -84.5l353 -653h-222l-307 602h-203v-602h-197v1462h338zM502 1292h-134v-527h150q143 0 213.5 68.5t70.5 204.5t-73 195t-227 59z" />
    <glyph glyph-name="S" unicode="S" horiz-adv-x="990" 
d="M906 400q0 -128 -56.5 -222.5t-159.5 -146t-243 -51.5q-70 0 -133.5 7.5t-120 23t-104.5 39.5v195q77 -39 172 -64t187 -25q85 0 142.5 29t87 80.5t29.5 117.5q0 69 -27 116.5t-87.5 87t-162.5 84.5q-73 34 -133.5 72t-103.5 86.5t-66.5 113.5t-23.5 153q-1 119 53 206
t151 134.5t224 46.5q101 0 190 -22t165 -59l-61 -171q-74 36 -147.5 55.5t-146.5 19.5q-74 0 -125 -25.5t-78 -71.5t-27 -108q0 -70 26.5 -117t85.5 -85t156 -82q110 -50 185 -106t113.5 -130.5t38.5 -180.5z" />
    <glyph glyph-name="T" unicode="T" horiz-adv-x="970" 
d="M583 0h-197v1289h-363v173h922v-173h-362v-1289z" />
    <glyph glyph-name="U" unicode="U" horiz-adv-x="1295" 
d="M1136 1462v-972q0 -161 -55 -275t-164 -174.5t-272 -60.5q-238 0 -362.5 132.5t-124.5 377.5v972h198v-967q0 -175 74.5 -258.5t219.5 -83.5q98 0 162 38t95.5 114.5t31.5 190.5v966h197z" />
    <glyph glyph-name="V" unicode="V" horiz-adv-x="1088" 
d="M1088 1462l-437 -1462h-216l-435 1462h205l270 -952q13 -46 26 -98.5t24 -104t18 -96.5q7 45 18 96.5t24.5 104.5t26.5 101l271 949h205z" />
    <glyph glyph-name="W" unicode="W" horiz-adv-x="1701" 
d="M1687 1462l-342 -1462h-220l-222 911q-7 30 -15 66.5t-16 76.5t-14 79t-11 73q-3 -26 -8 -61.5t-12.5 -75t-16 -80.5t-17.5 -78l-218 -911h-218l-342 1462h199l197 -883q10 -47 19.5 -95t18 -94.5t15 -88.5t10.5 -78q6 42 13.5 88t16 92.5t18 91t18.5 83.5l214 884h188
l216 -885q10 -41 19.5 -85t18 -90t16 -91t12.5 -88q8 56 18 117t21.5 122t24.5 118l198 882h201z" />
    <glyph glyph-name="X" unicode="X" horiz-adv-x="1037" 
d="M1029 0h-218l-292 601l-303 -601h-208l400 759l-366 703h212l270 -551l270 551h209l-367 -707z" />
    <glyph glyph-name="Y" unicode="Y" horiz-adv-x="1005" 
d="M503 774l293 688h209l-404 -894v-568h-197v561l-404 901h210z" />
    <glyph glyph-name="Z" unicode="Z" horiz-adv-x="972" 
d="M915 0h-854v145l612 1144h-595v173h820v-145l-612 -1143h629v-174z" />
    <glyph glyph-name="bracketleft" unicode="[" horiz-adv-x="654" 
d="M598 -328h-448v1798h448v-152h-269v-1493h269v-153z" />
    <glyph glyph-name="backslash" unicode="\" horiz-adv-x="772" 
d="M206 1466l544 -1470h-182l-542 1470h180z" />
    <glyph glyph-name="bracketright" unicode="]" horiz-adv-x="654" 
d="M55 -175h270v1493h-270v152h449v-1798h-449v153z" />
    <glyph glyph-name="asciicircum" unicode="^" horiz-adv-x="1050" 
d="M50 600l411 866h107l433 -866h-173l-312 643l-294 -643h-172z" />
    <glyph glyph-name="underscore" unicode="_" horiz-adv-x="895" 
d="M899 -309h-903v134h903v-134z" />
    <glyph glyph-name="grave" unicode="`" horiz-adv-x="586" 
d="M306 1569q24 -47 58.5 -103.5t72 -109.5t68.5 -91v-24h-129q-33 27 -75 66.5t-84.5 84t-78 86t-56.5 71.5v20h224z" />
    <glyph glyph-name="a" unicode="a" horiz-adv-x="1016" 
d="M520 1122q179 0 265 -94t86 -285v-743h-141l-33 157h-6q-38 -58 -81 -97.5t-99 -59.5t-134 -20q-94 0 -160 41t-101.5 115t-35.5 173q0 167 112 255.5t330 96.5l159 8v65q0 125 -45.5 180t-135.5 55q-66 0 -131 -20.5t-132 -56.5l-59 142q72 41 159.5 64.5t182.5 23.5z
M681 538l-125 -6q-149 -7 -214 -62.5t-65 -158.5q0 -92 43.5 -135.5t117.5 -43.5q109 0 176 78.5t67 223.5v104z" />
    <glyph glyph-name="b" unicode="b" horiz-adv-x="1111" 
d="M342 1556v-411q0 -49 -2.5 -101.5t-5.5 -94.5h9q43 80 115 126t176 46q179 0 280.5 -144.5t101.5 -423.5q0 -185 -46 -313t-132 -194t-205 -66q-104 0 -174 42.5t-116 117.5h-13l-32 -140h-148v1556h192zM588 959q-93 0 -147 -46t-76.5 -133t-22.5 -211v-32
q0 -197 56.5 -296.5t190.5 -99.5q115 0 173 104t58 310q0 201 -57 302.5t-175 101.5z" />
    <glyph glyph-name="c" unicode="c" horiz-adv-x="865" 
d="M538 -20q-139 0 -238 62t-151 187.5t-52 315.5q0 189 54.5 317.5t156 194.5t242.5 66q79 0 145 -16.5t116 -42.5l-58 -156q-47 22 -98.5 35.5t-99.5 13.5q-87 0 -145 -46.5t-87.5 -137.5t-29.5 -227q0 -131 29 -220.5t86 -135.5t143 -46q68 0 128 17.5t114 46.5v-165
q-52 -31 -116 -47t-139 -16z" />
    <glyph glyph-name="d" unicode="d" horiz-adv-x="1111" 
d="M480 -20q-181 0 -282.5 145t-101.5 424t103 426.5t280 147.5q69 0 124 -21.5t97 -59t71 -88.5h10q-4 41 -7.5 88.5t-3.5 84.5v429h192v-1556h-153l-29 148h-10q-29 -50 -70 -88t-95 -59t-125 -21zM525 139q131 0 189.5 93t59.5 278v51q0 198 -56.5 298.5t-193.5 100.5
q-117 0 -174.5 -108t-57.5 -305q0 -199 58 -303.5t175 -104.5z" />
    <glyph glyph-name="e" unicode="e" horiz-adv-x="1017" 
d="M525 1122q130 0 219.5 -63t136 -174.5t46.5 -257.5v-117h-637q3 -183 76.5 -277.5t212.5 -94.5q83 0 153.5 19t146.5 59v-164q-71 -37 -145.5 -54.5t-169.5 -17.5q-151 0 -255.5 68t-158 195t-53.5 301q0 184 51 313t147 197t230 68zM525 970q-102 0 -162 -78.5
t-70 -235.5h448q-1 90 -24 161t-70.5 112t-121.5 41z" />
    <glyph glyph-name="f" unicode="f" horiz-adv-x="625" 
d="M600 949h-223v-949h-191v949h-161v97l161 60v70q0 134 33 220.5t101.5 128.5t173.5 42q59 0 107.5 -10t92.5 -27l-48 -149q-31 11 -64.5 18.5t-68.5 7.5q-72 0 -103.5 -53t-32.5 -175v-76h223v-154z" />
    <glyph glyph-name="g" unicode="g" horiz-adv-x="975" 
d="M423 -492q-192 0 -298 80.5t-106 226.5q0 106 60 177.5t162 96.5q-44 20 -73.5 61t-29.5 94q0 60 30.5 105t89.5 87q-75 37 -120 121t-45 194q0 117 44 200t128 127.5t203 44.5q31 0 59 -3t52 -8t40 -11h332v-116l-169 -26q27 -40 42 -93t15 -112q0 -170 -99.5 -267
t-277.5 -97q-47 0 -85 8q-33 -23 -53.5 -52.5t-20.5 -70.5q0 -29 16 -48t47.5 -28.5t77.5 -9.5h179q153 0 234.5 -74t81.5 -221q0 -185 -132.5 -285.5t-383.5 -100.5zM434 -348q107 0 179 25.5t108 74.5t36 119q0 60 -23.5 91.5t-70 43t-114.5 11.5h-158q-56 0 -99 -20.5
t-67.5 -62t-24.5 -106.5q0 -86 61.5 -131t172.5 -45zM467 524q89 0 134.5 58.5t45.5 170.5q0 118 -46.5 177t-135.5 59q-86 0 -132.5 -61.5t-46.5 -177.5q0 -108 46 -167t135 -59z" />
    <glyph glyph-name="h" unicode="h" horiz-adv-x="1114" 
d="M342 1556v-427q0 -49 -3 -96t-9 -84h12q28 56 71.5 94.5t99.5 58.5t120 20q111 0 186 -43t112.5 -129.5t37.5 -218.5v-731h-191v697q0 135 -45 198t-140 63q-91 0 -146.5 -43.5t-80 -131.5t-24.5 -219v-564h-192v1556h192z" />
    <glyph glyph-name="i" unicode="i" horiz-adv-x="494" 
d="M342 1103v-1103h-191v1103h191zM249 1521q50 0 80 -30t30 -91q0 -60 -30.5 -90.5t-79.5 -30.5q-50 0 -81 30.5t-31 90.5q0 62 30.5 91.5t81.5 29.5z" />
    <glyph glyph-name="j" unicode="j" horiz-adv-x="494" 
d="M63 -492q-41 0 -76 6.5t-61 15.5v161q25 -9 50.5 -14t54.5 -5q57 0 88.5 39t31.5 133v1259h191v-1265q0 -106 -30.5 -180t-92.5 -111.5t-156 -38.5zM137 1400q0 62 30.5 91.5t81.5 29.5q50 0 80 -30t30 -91q0 -60 -30.5 -90.5t-79.5 -30.5q-50 0 -81 30.5t-31 90.5z" />
    <glyph glyph-name="k" unicode="k" horiz-adv-x="983" 
d="M341 1556v-766q0 -53 -2.5 -112t-7.5 -112h7q21 33 49 74t53 73l296 390h215l-357 -452l381 -651h-217l-294 516l-123 -126v-390h-191v1556h191z" />
    <glyph glyph-name="l" unicode="l" horiz-adv-x="492" 
d="M342 0h-192v1556h192v-1556z" />
    <glyph glyph-name="m" unicode="m" horiz-adv-x="1671" 
d="M1211 1123q158 0 237 -95t79 -298v-730h-191v698q0 134 -43.5 197.5t-129.5 63.5q-122 0 -175.5 -91t-53.5 -266v-602h-191v699q0 90 -19 147.5t-57.5 85t-96.5 27.5q-87 0 -136.5 -46.5t-70.5 -133.5t-21 -208v-571h-192v1103h152l25 -153h11q27 56 69.5 94.5t96.5 58.5
t118 20q110 0 180 -47.5t99 -131.5h14q45 91 120.5 135t175.5 44z" />
    <glyph glyph-name="n" unicode="n" horiz-adv-x="1114" 
d="M635 1123q162 0 248 -95t86 -296v-732h-191v697q0 131 -44.5 196.5t-140.5 65.5q-137 0 -194 -96.5t-57 -297.5v-565h-192v1103h152l25 -155h11q29 56 74 95t102 59.5t121 20.5z" />
    <glyph glyph-name="o" unicode="o" horiz-adv-x="1084" 
d="M988 553q0 -131 -29 -237t-85.5 -181t-140.5 -115t-194 -40q-103 0 -185 40t-139.5 114.5t-88 180.5t-30.5 238q0 180 51.5 307.5t151.5 195t245 67.5q136 0 236 -66t154 -193t54 -311zM292 553q0 -132 26.5 -224t82 -140t142.5 -48t142 47.5t81 139.5t26 225
q0 131 -26 222t-81 138.5t-143 47.5q-131 0 -190.5 -104.5t-59.5 -303.5z" />
    <glyph glyph-name="p" unicode="p" horiz-adv-x="1111" 
d="M633 1123q180 0 281.5 -143.5t101.5 -426.5q0 -185 -46.5 -312.5t-132 -194t-202.5 -66.5q-70 0 -126 21.5t-97 59.5t-70 87h-10q3 -42 6.5 -88t3.5 -82v-468h-192v1593h156l26 -158h10q30 55 71 95t95.5 61.5t124.5 21.5zM587 962q-85 0 -139 -41.5t-79.5 -125
t-26.5 -209.5v-43q0 -133 25 -222t79.5 -134t142.5 -45q77 0 128.5 47.5t77 139.5t25.5 224q0 198 -56 303.5t-177 105.5z" />
    <glyph glyph-name="q" unicode="q" horiz-adv-x="1111" 
d="M770 -490v463q0 36 2 84.5t7 99.5h-10q-44 -82 -116 -129.5t-179 -47.5q-175 0 -276.5 144t-101.5 423q0 188 47 316t134 194t205 66q105 0 174.5 -45.5t114.5 -126.5h9l22 152h159v-1593h-191zM526 141q86 0 140 41t80 122.5t27 202.5v51q0 202 -57 302t-193 100
q-117 0 -174 -108.5t-57 -307.5q0 -201 58 -302t176 -101z" />
    <glyph glyph-name="r" unicode="r" horiz-adv-x="749" 
d="M614 1122q26 0 54.5 -3t54.5 -10l-23 -188q-21 7 -47 10.5t-52 3.5q-55 0 -102.5 -25.5t-82.5 -73t-54.5 -113t-19.5 -145.5v-578h-191v1103h151l25 -196h10q28 60 68 109t92.5 77.5t116.5 28.5z" />
    <glyph glyph-name="s" unicode="s" horiz-adv-x="847" 
d="M771 304q0 -105 -45 -177.5t-130.5 -109.5t-207.5 -37q-96 0 -170.5 17.5t-133.5 47.5v181q59 -36 140.5 -61.5t161.5 -25.5q101 0 149 40.5t48 111.5q0 41 -19.5 73t-67 63t-132.5 69q-87 41 -150 84.5t-96.5 102t-33.5 146.5q0 138 100 216t265 78q87 0 163 -19.5
t146 -55.5l-63 -150q-58 30 -120.5 49.5t-127.5 19.5q-85 0 -131.5 -34.5t-46.5 -95.5q0 -43 21 -73t70 -59t132 -68q85 -41 147.5 -84t97 -101.5t34.5 -147.5z" />
    <glyph glyph-name="t" unicode="t" horiz-adv-x="661" 
d="M485 142q35 0 70.5 6.5t64.5 18.5v-151q-35 -16 -83 -26t-101 -10q-84 0 -145.5 32.5t-94.5 103.5t-33 188v645h-129v96l137 61l59 244h125v-247h254v-154h-254v-635q0 -87 32.5 -129.5t97.5 -42.5z" />
    <glyph glyph-name="u" unicode="u" horiz-adv-x="1114" 
d="M963 1103v-1103h-152l-25 152h-11q-29 -55 -73.5 -93.5t-101 -58.5t-122.5 -20q-112 0 -186.5 45t-111.5 134.5t-37 220.5v723h192v-688q0 -137 45 -204t138 -67q94 0 149.5 43t79.5 129t24 212v575h192z" />
    <glyph glyph-name="v" unicode="v" horiz-adv-x="921" 
d="M354 0l-350 1103h200l190 -653q19 -62 35.5 -131.5t25.5 -128.5h7q7 46 24 112t36 132l195 669h200l-352 -1103h-211z" />
    <glyph glyph-name="w" unicode="w" horiz-adv-x="1446" 
d="M933 1l-146 614q-8 34 -17 73.5t-17 79t-15 75.5t-12 63h-6q-4 -28 -11 -64.5t-15 -76.5t-17 -79t-18 -73l-153 -612h-215l-271 1102h193l130 -557q12 -56 24 -116t21.5 -117t15.5 -105h7q5 31 11 69.5t14 81t17 85.5t19 82l148 577h211l145 -579q11 -43 22 -97t21 -110
t16 -108h8q3 34 11 81t18.5 101.5t23.5 109.5l141 602h189l-274 -1102h-219z" />
    <glyph glyph-name="x" unicode="x" horiz-adv-x="943" 
d="M355 566l-309 537h212l215 -398l216 398h210l-310 -541l326 -562h-212l-232 423l-232 -423h-210z" />
    <glyph glyph-name="y" unicode="y" horiz-adv-x="924" 
d="M6 1103h203l192 -626q13 -45 25 -88t21.5 -84t14.5 -81h8q9 53 26 118t38 135l184 626h202l-402 -1261q-35 -111 -83.5 -185.5t-115 -111.5t-156.5 -37q-38 0 -69 5t-58 12v161q20 -6 46.5 -10t52.5 -4q51 0 87 21.5t62.5 66.5t48.5 114l41 131z" />
    <glyph glyph-name="z" unicode="z" horiz-adv-x="806" 
d="M747 0h-685v124l458 823h-430v156h643v-136l-451 -812h465v-155z" />
    <glyph glyph-name="braceleft" unicode="{" horiz-adv-x="759" 
d="M684 -328q-134 2 -221 35.5t-129 103.5t-42 180v306q0 69 -24 112t-74.5 63.5t-129.5 20.5v153q76 0 126.5 19t76 61.5t25.5 114.5v309q0 107 42 176.5t128.5 104t221.5 35.5v-153q-68 -2 -115 -20t-71 -58t-24 -107v-305q0 -107 -48.5 -168t-154.5 -80v-10
q108 -19 155.5 -81t47.5 -167v-307q0 -65 23 -105t69.5 -59t117.5 -20v-154z" />
    <glyph glyph-name="bar" unicode="|" horiz-adv-x="978" 
d="M407 1560h163v-2046h-163v2046z" />
    <glyph glyph-name="braceright" unicode="}" horiz-adv-x="759" 
d="M75 -328v154q70 2 116.5 20.5t69.5 58.5t23 106v305q0 107 49 168t153 80v10q-105 19 -153.5 80t-48.5 168v306q0 68 -24.5 108t-71 58t-113.5 19v153q133 -1 220 -34.5t129 -103t42 -179.5v-307q0 -68 23.5 -111.5t74.5 -64t131 -20.5v-153q-78 0 -129 -19.5
t-75.5 -62.5t-24.5 -113v-308q0 -107 -41.5 -177t-128 -105t-221.5 -36z" />
    <glyph glyph-name="asciitilde" unicode="~" horiz-adv-x="1034" 
d="M490 648q-60 29 -107 43t-90 14q-52 0 -108 -33t-106 -88v170q46 52 102 79t125 27q59 0 112.5 -15.5t125.5 -48.5q63 -29 108.5 -42.5t88.5 -13.5q53 0 110 33.5t103 85.5v-168q-44 -50 -100.5 -77.5t-124.5 -27.5q-60 0 -112.5 14t-126.5 48z" />
    <glyph glyph-name="uni00A0" unicode="&#xa0;" horiz-adv-x="454" 
 />
    <glyph glyph-name="exclamdown" unicode="&#xa1;" horiz-adv-x="519" 
d="M186 666h144l42 -1044h-229zM386 976q0 -73 -35.5 -105.5t-90.5 -32.5q-57 0 -91 33.5t-34 104.5q0 69 34 104t91 35q54 0 90 -34t36 -105z" />
    <glyph glyph-name="cent" unicode="&#xa2;" horiz-adv-x="1034" 
d="M647 1483v-164q66 -3 125 -19t104 -39l-56 -157q-49 23 -102 36.5t-98 13.5q-89 0 -147.5 -45.5t-87 -137t-28.5 -228.5t28.5 -225.5t86 -132t143.5 -43.5q68 0 127.5 17t116.5 44v-164q-45 -25 -97 -40.5t-116 -20.5v-198h-127v202q-116 16 -196 82.5t-121 185.5
t-41 291q0 176 42 296.5t122 189t193 86.5v170h129z" />
    <glyph glyph-name="sterling" unicode="&#xa3;" horiz-adv-x="1032" 
d="M617 1482q92 0 169.5 -22.5t142.5 -60.5l-66 -153q-58 32 -116.5 50.5t-119.5 18.5q-90 0 -136 -55.5t-46 -179.5v-273h329v-147h-329v-212q0 -73 -17.5 -125.5t-48 -88t-70.5 -60.5h649v-174h-877v163q53 20 91 55t59 91t21 138v213h-171v147h171v281q0 130 43.5 217.5
t125.5 132t196 44.5z" />
    <glyph glyph-name="currency" unicode="&#xa4;" horiz-adv-x="1149" 
d="M176 723q0 62 18.5 119t53.5 107l-135 137l99 97l133 -135q50 36 107.5 54.5t121.5 18.5q62 0 119 -18t107 -54l135 134l99 -96l-133 -137q33 -48 52.5 -106t19.5 -121t-18.5 -121t-53.5 -108l132 -135l-97 -96l-136 133q-49 -34 -106.5 -52t-119.5 -18q-65 0 -123.5 18
t-105.5 54l-133 -133l-97 97l133 134q-35 50 -53.5 107t-18.5 120zM312 723q0 -73 35 -133t94.5 -94.5t132.5 -34.5q75 0 135 35.5t95 95t35 131.5q0 73 -36 133t-96 96t-133 36q-72 0 -131.5 -35.5t-95 -95.5t-35.5 -134z" />
    <glyph glyph-name="yen" unicode="&#xa5;" horiz-adv-x="1032" 
d="M515 783l266 679h202l-332 -768h225v-133h-267v-168h267v-133h-267v-260h-190v260h-266v133h266v168h-266v133h220l-328 768h202z" />
    <glyph glyph-name="brokenbar" unicode="&#xa6;" horiz-adv-x="978" 
d="M407 1555h163v-794h-163v794zM407 309h163v-795h-163v795z" />
    <glyph glyph-name="section" unicode="&#xa7;" horiz-adv-x="905" 
d="M108 818q0 88 44.5 149t111.5 95q-69 44 -106 100.5t-37 132.5q0 124 96 195.5t257 71.5q91 0 161 -18.5t140 -51.5l-57 -136q-61 30 -119.5 48.5t-127.5 18.5q-92 0 -136.5 -33t-44.5 -91q0 -41 22.5 -71t70 -57t120.5 -60q92 -39 156.5 -82.5t98.5 -99.5t34 -134
q0 -91 -38.5 -155t-96.5 -101q65 -43 98 -97.5t33 -128.5q0 -137 -103 -216.5t-282 -79.5q-94 0 -168.5 18t-133.5 51v157q40 -24 91 -44t106 -31.5t106 -11.5q112 0 162 42t50 104q0 44 -19.5 74t-68.5 59t-138 69q-93 43 -155.5 85.5t-94.5 97t-32 131.5zM266 839
q0 -46 23 -80.5t70 -64t118 -62.5l59 -28q41 26 69.5 67t28.5 98q0 49 -21 85t-74.5 70t-150.5 74q-52 -17 -87 -59t-35 -100z" />
    <glyph glyph-name="dieresis" unicode="&#xa8;" horiz-adv-x="1127" 
d="M282 1385q0 55 28.5 81t69.5 26q42 0 70.5 -26t28.5 -81q0 -53 -28.5 -80.5t-70.5 -27.5q-41 0 -69.5 27t-28.5 81zM646 1385q0 55 28.5 81t69.5 26q42 0 71 -26t29 -81q0 -53 -29 -80.5t-71 -27.5t-70 27.5t-28 80.5z" />
    <glyph glyph-name="copyright" unicode="&#xa9;" horiz-adv-x="1701" 
d="M849 -20q-167 0 -305.5 57t-238.5 159.5t-153.5 239t-53.5 295.5q0 164 57 302t159.5 238.5t239.5 156t297 55.5q161 0 298.5 -57t239.5 -158.5t158.5 -239t56.5 -297.5q0 -163 -56.5 -300.5t-158 -238.5t-239.5 -156.5t-301 -55.5zM882 272q-199 0 -305 122t-106 335
q0 138 49.5 241.5t143 160.5t225.5 57q67 0 133 -15.5t126 -45.5l-57 -120q-51 26 -101 38.5t-97 12.5q-126 0 -195.5 -86t-69.5 -241q0 -164 65 -246t199 -82q50 0 107.5 13t111.5 36v-129q-52 -23 -107 -37t-122 -14zM851 90q136 0 251.5 48t201 134.5t133 203.5t47.5 255
q0 136 -47.5 253t-132.5 204.5t-201 136t-253 48.5q-140 0 -256 -48.5t-200.5 -135.5t-131 -204t-46.5 -255q0 -139 47.5 -255.5t133 -203t201.5 -134t253 -47.5z" />
    <glyph glyph-name="ordfeminine" unicode="&#xaa;" horiz-adv-x="682" 
d="M346 1479q120 0 179 -59.5t59 -178.5v-451h-99l-24 98q-36 -52 -88 -81t-122 -29q-59 0 -103 24.5t-67.5 71t-23.5 109.5q0 72 33.5 117.5t99 69t161.5 28.5l95 5v44q0 63 -30.5 91t-87.5 28q-46 0 -91 -14t-90 -38l-45 103q54 28 115 45t129 17zM446 1110l-79 -5
q-96 -5 -133 -35t-37 -85q0 -49 25 -72.5t69 -23.5q77 0 116 47.5t39 126.5v47z" />
    <glyph glyph-name="guillemotleft" unicode="&#xab;" horiz-adv-x="1020" 
d="M74 561l323 414l136 -74l-251 -353l251 -351l-136 -75l-323 412v27zM487 561l325 414l135 -74l-251 -353l251 -351l-135 -75l-325 412v27z" />
    <glyph glyph-name="logicalnot" unicode="&#xac;" horiz-adv-x="1034" 
d="M942 800v-548h-156v393h-705v155h861z" />
    <glyph glyph-name="uni00AD" unicode="&#xad;" horiz-adv-x="617" 
d="M66 463v176h485v-176h-485z" />
    <glyph glyph-name="registered" unicode="&#xae;" horiz-adv-x="1701" 
d="M572 292v887h256q160 0 241 -65.5t81 -197.5q0 -93 -43 -151t-112 -87l217 -386h-170l-185 349h-133v-349h-152zM723 760h98q81 0 127.5 38.5t46.5 112.5q0 75 -42.5 108t-131.5 33h-98v-292zM849 -20q-167 0 -305.5 57t-238.5 159.5t-153.5 239t-53.5 295.5
q0 164 57 302t159.5 238.5t239.5 156t297 55.5q161 0 298.5 -57t239.5 -158.5t158.5 -239t56.5 -297.5q0 -163 -56.5 -300.5t-158 -238.5t-239.5 -156.5t-301 -55.5zM851 90q136 0 251.5 48t201 134.5t133 203.5t47.5 255q0 136 -47.5 253t-132.5 204.5t-201 136t-253 48.5
q-140 0 -256 -48.5t-200.5 -135.5t-131 -204t-46.5 -255q0 -139 47.5 -255.5t133 -203t201.5 -134t253 -47.5z" />
    <glyph glyph-name="overscore" unicode="&#xaf;" horiz-adv-x="964" 
d="M970 1556h-976v144h976v-144z" />
    <glyph glyph-name="degree" unicode="&#xb0;" horiz-adv-x="811" 
d="M405 883q-90 0 -159.5 37t-109 105t-39.5 157q0 90 39.5 157.5t109 105t159.5 37.5t159.5 -37.5t109 -105t39.5 -157.5t-40 -157.5t-109.5 -104.5t-158.5 -37zM406 1007q81 0 127 48t46 127q0 81 -46 129t-127 48q-85 0 -129.5 -49t-44.5 -128q0 -80 46.5 -127.5
t127.5 -47.5z" />
    <glyph glyph-name="plusminus" unicode="&#xb1;" horiz-adv-x="1034" 
d="M81 0v154h870v-154h-870zM594 833h356v-155h-356v-409h-155v409h-358v155h358v412h155v-412z" />
    <glyph glyph-name="uni00B2" unicode="&#xb2;" horiz-adv-x="689" 
d="M605 851h-552v122l207 225q66 71 105 120.5t56 91t17 89.5q0 55 -33 87t-91 32q-49 0 -93 -21.5t-89 -64.5l-77 100q52 53 120 84.5t152 31.5q125 0 195.5 -64.5t70.5 -174.5q0 -69 -25.5 -127.5t-78.5 -121.5t-134 -147l-123 -130h373v-132z" />
    <glyph glyph-name="uni00B3" unicode="&#xb3;" horiz-adv-x="689" 
d="M321 1747q126 0 197.5 -61t71.5 -163q0 -79 -40 -131.5t-107 -76.5v-8q83 -21 127.5 -75t44.5 -139q0 -118 -84 -187.5t-239 -69.5q-67 0 -126.5 13t-114.5 42v140q57 -33 118 -50.5t123 -17.5q89 0 131 37.5t42 101.5q0 70 -48 105.5t-144 35.5h-95v119h90
q90 0 132 38.5t42 101.5q0 57 -34.5 87.5t-95.5 30.5q-52 0 -97 -19t-93 -56l-72 101q58 47 123.5 74t147.5 27z" />
    <glyph glyph-name="acute" unicode="&#xb4;" horiz-adv-x="586" 
d="M504 1569v-20q-21 -30 -56.5 -70.5t-77.5 -84.5t-84 -84t-76 -69h-128v24q36 47 72 99.5t68.5 105.5t56.5 99h225z" />
    <glyph glyph-name="uni00B5" unicode="&#xb5;" horiz-adv-x="1120" 
d="M969 1103v-1103h-151l-26 153h-10q-26 -54 -63 -92.5t-85 -59.5t-107 -21q-65 0 -111 25t-76 73h-7q2 -30 4 -66.5t3 -76t1 -79.5v-347h-191v1594h191v-695q0 -131 46 -197.5t139 -66.5q95 0 150 45t78.5 133t23.5 214v567h191z" />
    <glyph glyph-name="paragraph" unicode="&#xb6;" horiz-adv-x="1165" 
d="M978 -260h-123v1692h-170v-1692h-122v833q-24 -9 -53 -13.5t-60 -4.5q-105 0 -179.5 51.5t-113 161t-38.5 282.5q0 179 42.5 290.5t124.5 163.5t200 52h492v-1816z" />
    <glyph glyph-name="periodcentered" unicode="&#xb7;" horiz-adv-x="510" 
d="M130 717q0 71 34 104.5t91 33.5q55 0 90.5 -32.5t35.5 -105.5q0 -71 -36 -104.5t-90 -33.5q-55 0 -90 34t-35 104z" />
    <glyph glyph-name="cedilla" unicode="&#xb8;" horiz-adv-x="422" 
d="M400 -278q0 -102 -68.5 -158t-202.5 -56q-36 0 -66.5 4t-52.5 10v118q22 -5 50.5 -8.5t55.5 -3.5q62 0 95.5 23t33.5 69q0 51 -45.5 77.5t-124.5 35.5l78 167h118l-45 -99q52 -11 91 -34t61 -59t22 -86z" />
    <glyph glyph-name="uni00B9" unicode="&#xb9;" horiz-adv-x="689" 
d="M480 1728v-877h-152v526q0 33 1 66.5t2.5 66t4.5 61.5q-17 -18 -36.5 -34t-37.5 -29l-109 -81l-75 100l267 201h135z" />
    <glyph glyph-name="ordmasculine" unicode="&#xba;" horiz-adv-x="710" 
d="M649 1130q0 -167 -78 -260t-216 -93q-135 0 -214 92.5t-79 260.5q0 167 79 258t217 91q89 0 154 -40t101 -118t36 -191zM204 1130q0 -119 36.5 -177.5t114.5 -58.5q81 0 117 59t36 177q0 117 -36 174.5t-116 57.5q-77 0 -114.5 -57t-37.5 -175z" />
    <glyph glyph-name="guillemotright" unicode="&#xbb;" horiz-adv-x="1020" 
d="M947 534l-326 -412l-134 75l250 352l-250 352l134 74l326 -413v-28zM534 534l-325 -412l-134 75l250 352l-250 352l134 74l325 -413v-28z" />
    <glyph glyph-name="onequarter" unicode="&#xbc;" horiz-adv-x="1526" 
d="M301 0l801 1462h161l-802 -1462h-160zM309 586v527q0 33 1 66t2.5 65.5t3.5 61.5q-17 -17 -36.5 -33.5t-37.5 -30.5l-108 -79l-75 99l267 200h135v-876h-152zM1232 0v188h-365v109l363 585h154v-570h117v-124h-117v-188h-152zM1006 312h226v223q0 46 1 91.5t3 83.5
q-9 -25 -29 -61.5t-39 -67.5z" />
    <glyph glyph-name="onehalf" unicode="&#xbd;" horiz-adv-x="1589" 
d="M267 0l801 1462h161l-802 -1462h-160zM300 586v527q0 24 0.5 49t2 50t3 48.5t2.5 45.5q-18 -17 -37 -33.5t-37 -30.5l-109 -79l-75 99l268 200h135v-876h-153zM953 0v122l207 223q67 71 106 120.5t56 91.5t17 89q0 56 -33.5 88.5t-91.5 32.5q-49 0 -93 -21.5t-89 -64.5
l-77 100q52 53 120 84.5t151 31.5q125 0 196 -64.5t71 -173.5q0 -70 -25 -127.5t-72.5 -114.5t-114.5 -127l-149 -157h374v-133h-553z" />
    <glyph glyph-name="threequarters" unicode="&#xbe;" horiz-adv-x="1571" 
d="M356 0l802 1462h160l-801 -1462h-161zM294 570q-67 0 -126.5 14t-114.5 42v139q57 -32 118 -50t123 -18q89 0 131 37.5t42 102.5q0 70 -48 106t-144 36h-96v119h90q91 0 133 38.5t42 101.5q0 57 -35 87.5t-96 30.5q-51 0 -96 -19.5t-94 -56.5l-72 100q58 49 124 75.5
t148 26.5q125 0 196.5 -61t71.5 -164q0 -77 -39.5 -130t-106.5 -77v-9q83 -20 127.5 -74t44.5 -139q0 -117 -84.5 -187.5t-238.5 -70.5zM1277 0v188h-364v109l362 585h154v-570h117v-124h-117v-188h-152zM1052 312h225v223q0 46 1 91.5t4 83.5q-10 -25 -30 -61.5t-39 -67.5z
" />
    <glyph glyph-name="questiondown" unicode="&#xbf;" horiz-adv-x="788" 
d="M544 667v-60q0 -73 -13 -129t-44.5 -105.5t-87.5 -103.5q-60 -59 -96.5 -104.5t-52.5 -91.5t-16 -105q0 -94 51 -143t143 -49q76 0 140 23t127 60l69 -150q-77 -47 -162.5 -74t-185.5 -27q-177 0 -273 93t-96 256q0 90 24 155t70.5 121.5t113.5 122.5q54 53 82.5 93
t39 81t10.5 96v41h157zM585 976q0 -71 -33.5 -104.5t-91.5 -33.5q-54 0 -89.5 32.5t-35.5 104.5t35.5 105.5t89.5 33.5q57 0 91 -34t34 -104z" />
    <glyph glyph-name="Agrave" unicode="&#xc0;" horiz-adv-x="1137" 
d="M927 0l-131 438h-457l-131 -438h-208l456 1465h222l458 -1465h-209zM751 613l-129 449q-7 31 -17.5 72t-21 82.5t-17.5 73.5q-6 -37 -15.5 -77.5t-19 -79t-17.5 -69.5l-129 -451h366zM486 1918q24 -47 58.5 -103.5t72 -109.5t68.5 -91v-24h-129q-33 27 -75 66.5t-84.5 84
t-78 86t-56.5 71.5v20h224z" />
    <glyph glyph-name="Aacute" unicode="&#xc1;" horiz-adv-x="1137" 
d="M927 0l-131 438h-457l-131 -438h-208l456 1465h222l458 -1465h-209zM751 613l-129 449q-7 31 -17.5 72t-21 82.5t-17.5 73.5q-6 -37 -15.5 -77.5t-19 -79t-17.5 -69.5l-129 -451h366zM868 1918v-20q-21 -30 -56.5 -70.5t-77.5 -84.5t-84 -84t-76 -69h-128v24
q36 47 72 99.5t68.5 105.5t56.5 99h225z" />
    <glyph glyph-name="Acircumflex" unicode="&#xc2;" horiz-adv-x="1137" 
d="M927 0l-131 438h-457l-131 -438h-208l456 1465h222l458 -1465h-209zM751 613l-129 449q-7 31 -17.5 72t-21 82.5t-17.5 73.5q-6 -37 -15.5 -77.5t-19 -79t-17.5 -69.5l-129 -451h366zM663 1917q24 -45 63 -100t81.5 -109t77.5 -95v-23h-121q-48 36 -98.5 85.5
t-99.5 104.5q-50 -54 -101 -104.5t-95 -85.5h-121v23q37 42 79 96.5t80 109t61 98.5h194z" />
    <glyph glyph-name="Atilde" unicode="&#xc3;" horiz-adv-x="1137" 
d="M927 0l-131 438h-457l-131 -438h-208l456 1465h222l458 -1465h-209zM751 613l-129 449q-7 31 -17.5 72t-21 82.5t-17.5 73.5q-6 -37 -15.5 -77.5t-19 -79t-17.5 -69.5l-129 -451h366zM221 1591q5 57 19.5 105t39 83.5t60.5 55t82 19.5q42 0 80 -17.5t73.5 -40.5t69 -40.5
t65.5 -17.5q37 0 58.5 30.5t32.5 87.5h110q-9 -126 -63 -194.5t-137 -68.5q-41 0 -79.5 17.5t-74.5 40.5t-69 40.5t-63 17.5q-36 0 -59.5 -29.5t-34.5 -88.5h-110z" />
    <glyph glyph-name="Adieresis" unicode="&#xc4;" horiz-adv-x="1137" 
d="M927 0l-131 438h-457l-131 -438h-208l456 1465h222l458 -1465h-209zM751 613l-129 449q-7 31 -17.5 72t-21 82.5t-17.5 73.5q-6 -37 -15.5 -77.5t-19 -79t-17.5 -69.5l-129 -451h366zM286 1734q0 55 28.5 81t69.5 26q42 0 70.5 -26t28.5 -81q0 -53 -28.5 -80.5
t-70.5 -27.5q-41 0 -69.5 27t-28.5 81zM650 1734q0 55 28.5 81t69.5 26q42 0 71 -26t29 -81q0 -53 -29 -80.5t-71 -27.5t-70 27.5t-28 80.5z" />
    <glyph glyph-name="Aring" unicode="&#xc5;" horiz-adv-x="1137" 
d="M927 0l-131 438h-457l-131 -438h-208l456 1465h222l458 -1465h-209zM751 613l-129 449q-7 31 -17.5 72t-21 82.5t-17.5 73.5q-6 -37 -15.5 -77.5t-19 -79t-17.5 -69.5l-129 -451h366zM567 1362q-100 0 -161.5 58.5t-61.5 157.5t61 157t162 58q96 0 160.5 -58t64.5 -155
q0 -100 -63 -159t-162 -59zM568 1469q48 0 79 29.5t31 79.5t-30.5 80t-79.5 30q-48 0 -79.5 -30t-31.5 -80q0 -49 28 -79t83 -30z" />
    <glyph glyph-name="AE" unicode="&#xc6;" horiz-adv-x="1557" 
d="M1453 0h-696v438h-387l-165 -438h-208l560 1462h896v-172h-499v-441h467v-171h-467v-505h499v-173zM432 613h326v674h-77z" />
    <glyph glyph-name="Ccedilla" unicode="&#xc7;" horiz-adv-x="1110" 
d="M713 1311q-97 0 -171.5 -43t-124.5 -121.5t-75 -184.5t-25 -232q0 -179 45.5 -308.5t134.5 -199t219 -69.5q80 0 152 17.5t140 43.5v-173q-68 -31 -144 -46t-172 -15q-189 0 -318.5 91t-196 259.5t-66.5 401.5q0 162 38.5 299t114 238.5t187.5 158t258 56.5
q93 0 180.5 -21.5t163.5 -61.5l-69 -165q-61 32 -128.5 53.5t-142.5 21.5zM853 -278q0 -102 -68.5 -158t-202.5 -56q-36 0 -66.5 4t-52.5 10v118q22 -5 50.5 -8.5t55.5 -3.5q62 0 95.5 23t33.5 69q0 51 -45.5 77.5t-124.5 35.5l78 167h118l-45 -99q52 -11 91 -34t61 -59
t22 -86z" />
    <glyph glyph-name="Egrave" unicode="&#xc8;" horiz-adv-x="986" 
d="M879 0h-708v1462h708v-171h-511v-442h480v-171h-480v-505h511v-173zM461 1918q24 -47 58.5 -103.5t72 -109.5t68.5 -91v-24h-129q-33 27 -75 66.5t-84.5 84t-78 86t-56.5 71.5v20h224z" />
    <glyph glyph-name="Eacute" unicode="&#xc9;" horiz-adv-x="986" 
d="M879 0h-708v1462h708v-171h-511v-442h480v-171h-480v-505h511v-173zM833 1918v-20q-21 -30 -56.5 -70.5t-77.5 -84.5t-84 -84t-76 -69h-128v24q36 47 72 99.5t68.5 105.5t56.5 99h225z" />
    <glyph glyph-name="Ecircumflex" unicode="&#xca;" horiz-adv-x="986" 
d="M879 0h-708v1462h708v-171h-511v-442h480v-171h-480v-505h511v-173zM630 1917q24 -45 63 -100t81.5 -109t77.5 -95v-23h-121q-48 36 -98.5 85.5t-99.5 104.5q-50 -54 -101 -104.5t-95 -85.5h-121v23q37 42 79 96.5t80 109t61 98.5h194z" />
    <glyph glyph-name="Edieresis" unicode="&#xcb;" horiz-adv-x="986" 
d="M879 0h-708v1462h708v-171h-511v-442h480v-171h-480v-505h511v-173zM250 1734q0 55 28.5 81t69.5 26q42 0 70.5 -26t28.5 -81q0 -53 -28.5 -80.5t-70.5 -27.5q-41 0 -69.5 27t-28.5 81zM614 1734q0 55 28.5 81t69.5 26q42 0 71 -26t29 -81q0 -53 -29 -80.5t-71 -27.5
t-70 27.5t-28 80.5z" />
    <glyph glyph-name="Igrave" unicode="&#xcc;" horiz-adv-x="539" 
d="M171 0v1462h197v-1462h-197zM185 1922q24 -47 58.5 -103.5t72 -109.5t68.5 -91v-24h-129q-33 27 -75 66.5t-84.5 84t-78 86t-56.5 71.5v20h224z" />
    <glyph glyph-name="Iacute" unicode="&#xcd;" horiz-adv-x="539" 
d="M171 0v1462h197v-1462h-197zM576 1922v-20q-21 -30 -56.5 -70.5t-77.5 -84.5t-84 -84t-76 -69h-128v24q36 47 72 99.5t68.5 105.5t56.5 99h225z" />
    <glyph glyph-name="Icircumflex" unicode="&#xce;" horiz-adv-x="539" 
d="M171 0v1462h197v-1462h-197zM366 1920q24 -45 63 -100t81.5 -109t77.5 -95v-23h-121q-48 36 -98.5 85.5t-99.5 104.5q-50 -54 -101 -104.5t-95 -85.5h-121v23q37 42 79 96.5t80 109t61 98.5h194z" />
    <glyph glyph-name="Idieresis" unicode="&#xcf;" horiz-adv-x="539" 
d="M171 0v1462h197v-1462h-197zM-11 1737q0 55 28.5 81t69.5 26q42 0 70.5 -26t28.5 -81q0 -53 -28.5 -80.5t-70.5 -27.5q-41 0 -69.5 27t-28.5 81zM353 1737q0 55 28.5 81t69.5 26q42 0 71 -26t29 -81q0 -53 -29 -80.5t-71 -27.5t-70 27.5t-28 80.5z" />
    <glyph glyph-name="Eth" unicode="&#xd0;" horiz-adv-x="1283" 
d="M551 1462q196 0 334.5 -81t212.5 -240t74 -393q0 -247 -75.5 -413t-220.5 -250.5t-354 -84.5h-346v657h-129v162h129v643h375zM541 1292h-167v-473h266v-162h-266v-486h142q229 0 339.5 143t110.5 426q0 187 -48.5 309.5t-143 182.5t-233.5 60z" />
    <glyph glyph-name="Ntilde" unicode="&#xd1;" horiz-adv-x="1377" 
d="M1207 0h-236l-623 1180h-8q4 -56 7 -114.5t5 -117.5t2 -116v-832h-183v1462h235l622 -1167h7q-3 52 -5.5 111.5t-4.5 119t-2 111.5v825h184v-1462zM347 1591q5 57 19.5 105t39 83.5t60.5 55t82 19.5q42 0 80 -17.5t73.5 -40.5t69 -40.5t65.5 -17.5q37 0 58.5 30.5
t32.5 87.5h110q-9 -126 -63 -194.5t-137 -68.5q-41 0 -79.5 17.5t-74.5 40.5t-69 40.5t-63 17.5q-36 0 -59.5 -29.5t-34.5 -88.5h-110z" />
    <glyph glyph-name="Ograve" unicode="&#xd2;" horiz-adv-x="1372" 
d="M1261 733q0 -165 -34.5 -303t-105 -239t-178.5 -156t-255 -55q-150 0 -259 56t-179.5 157t-104.5 239.5t-34 302.5q0 237 64 404.5t192.5 256t321.5 88.5q195 0 321.5 -95t188.5 -264t62 -392zM317 733q0 -184 40.5 -314t123 -198t206.5 -68q126 0 207 67.5t120.5 197
t39.5 315.5q0 280 -89 429t-276 149q-126 0 -208.5 -67.5t-123 -196.5t-40.5 -314zM608 1918q24 -47 58.5 -103.5t72 -109.5t68.5 -91v-24h-129q-33 27 -75 66.5t-84.5 84t-78 86t-56.5 71.5v20h224z" />
    <glyph glyph-name="Oacute" unicode="&#xd3;" horiz-adv-x="1372" 
d="M1261 733q0 -165 -34.5 -303t-105 -239t-178.5 -156t-255 -55q-150 0 -259 56t-179.5 157t-104.5 239.5t-34 302.5q0 237 64 404.5t192.5 256t321.5 88.5q195 0 321.5 -95t188.5 -264t62 -392zM317 733q0 -184 40.5 -314t123 -198t206.5 -68q126 0 207 67.5t120.5 197
t39.5 315.5q0 280 -89 429t-276 149q-126 0 -208.5 -67.5t-123 -196.5t-40.5 -314zM989 1918v-20q-21 -30 -56.5 -70.5t-77.5 -84.5t-84 -84t-76 -69h-128v24q36 47 72 99.5t68.5 105.5t56.5 99h225z" />
    <glyph glyph-name="Ocircumflex" unicode="&#xd4;" horiz-adv-x="1372" 
d="M1261 733q0 -165 -34.5 -303t-105 -239t-178.5 -156t-255 -55q-150 0 -259 56t-179.5 157t-104.5 239.5t-34 302.5q0 237 64 404.5t192.5 256t321.5 88.5q195 0 321.5 -95t188.5 -264t62 -392zM317 733q0 -184 40.5 -314t123 -198t206.5 -68q126 0 207 67.5t120.5 197
t39.5 315.5q0 280 -89 429t-276 149q-126 0 -208.5 -67.5t-123 -196.5t-40.5 -314zM784 1917q24 -45 63 -100t81.5 -109t77.5 -95v-23h-121q-48 36 -98.5 85.5t-99.5 104.5q-50 -54 -101 -104.5t-95 -85.5h-121v23q37 42 79 96.5t80 109t61 98.5h194z" />
    <glyph glyph-name="Otilde" unicode="&#xd5;" horiz-adv-x="1372" 
d="M1261 733q0 -165 -34.5 -303t-105 -239t-178.5 -156t-255 -55q-150 0 -259 56t-179.5 157t-104.5 239.5t-34 302.5q0 237 64 404.5t192.5 256t321.5 88.5q195 0 321.5 -95t188.5 -264t62 -392zM317 733q0 -184 40.5 -314t123 -198t206.5 -68q126 0 207 67.5t120.5 197
t39.5 315.5q0 280 -89 429t-276 149q-126 0 -208.5 -67.5t-123 -196.5t-40.5 -314zM342 1591q5 57 19.5 105t39 83.5t60.5 55t82 19.5q42 0 80 -17.5t73.5 -40.5t69 -40.5t65.5 -17.5q37 0 58.5 30.5t32.5 87.5h110q-9 -126 -63 -194.5t-137 -68.5q-41 0 -79.5 17.5
t-74.5 40.5t-69 40.5t-63 17.5q-36 0 -59.5 -29.5t-34.5 -88.5h-110z" />
    <glyph glyph-name="Odieresis" unicode="&#xd6;" horiz-adv-x="1372" 
d="M1261 733q0 -165 -34.5 -303t-105 -239t-178.5 -156t-255 -55q-150 0 -259 56t-179.5 157t-104.5 239.5t-34 302.5q0 237 64 404.5t192.5 256t321.5 88.5q195 0 321.5 -95t188.5 -264t62 -392zM317 733q0 -184 40.5 -314t123 -198t206.5 -68q126 0 207 67.5t120.5 197
t39.5 315.5q0 280 -89 429t-276 149q-126 0 -208.5 -67.5t-123 -196.5t-40.5 -314zM408 1734q0 55 28.5 81t69.5 26q42 0 70.5 -26t28.5 -81q0 -53 -28.5 -80.5t-70.5 -27.5q-41 0 -69.5 27t-28.5 81zM772 1734q0 55 28.5 81t69.5 26q42 0 71 -26t29 -81q0 -53 -29 -80.5
t-71 -27.5t-70 27.5t-28 80.5z" />
    <glyph glyph-name="multiply" unicode="&#xd7;" horiz-adv-x="1034" 
d="M825 1140l108 -106l-310 -311l306 -309l-105 -106l-310 306l-306 -307l-107 108l306 308l-306 306l107 110l307 -308z" />
    <glyph glyph-name="Oslash" unicode="&#xd8;" horiz-adv-x="1374" 
d="M1263 733q0 -174 -36 -313.5t-108 -237.5t-179.5 -150t-250.5 -52q-95 0 -173.5 23.5t-140.5 69.5l-92 -158l-119 66l107 185q-81 103 -119.5 246t-38.5 323q0 237 64 404.5t192.5 256t321.5 88.5q92 0 171 -24.5t142 -71.5l89 149l117 -68l-103 -176q77 -97 116.5 -238
t39.5 -322zM1059 733q0 111 -17 203.5t-50 160.5l-523 -863q42 -41 97 -62t123 -21q126 0 208 68t122 198t40 316zM318 733q0 -116 17 -210t51 -164l525 866q-42 44 -96.5 65.5t-123.5 21.5q-127 0 -209.5 -67.5t-123 -197t-40.5 -314.5z" />
    <glyph glyph-name="Ugrave" unicode="&#xd9;" horiz-adv-x="1295" 
d="M1136 1462v-972q0 -161 -55 -275t-164 -174.5t-272 -60.5q-238 0 -362.5 132.5t-124.5 377.5v972h198v-967q0 -175 74.5 -258.5t219.5 -83.5q98 0 162 38t95.5 114.5t31.5 190.5v966h197zM575 1918q24 -47 58.5 -103.5t72 -109.5t68.5 -91v-24h-129q-33 27 -75 66.5
t-84.5 84t-78 86t-56.5 71.5v20h224z" />
    <glyph glyph-name="Uacute" unicode="&#xda;" horiz-adv-x="1295" 
d="M1136 1462v-972q0 -161 -55 -275t-164 -174.5t-272 -60.5q-238 0 -362.5 132.5t-124.5 377.5v972h198v-967q0 -175 74.5 -258.5t219.5 -83.5q98 0 162 38t95.5 114.5t31.5 190.5v966h197zM954 1918v-20q-21 -30 -56.5 -70.5t-77.5 -84.5t-84 -84t-76 -69h-128v24
q36 47 72 99.5t68.5 105.5t56.5 99h225z" />
    <glyph glyph-name="Ucircumflex" unicode="&#xdb;" horiz-adv-x="1295" 
d="M1136 1462v-972q0 -161 -55 -275t-164 -174.5t-272 -60.5q-238 0 -362.5 132.5t-124.5 377.5v972h198v-967q0 -175 74.5 -258.5t219.5 -83.5q98 0 162 38t95.5 114.5t31.5 190.5v966h197zM745 1917q24 -45 63 -100t81.5 -109t77.5 -95v-23h-121q-48 36 -98.5 85.5
t-99.5 104.5q-50 -54 -101 -104.5t-95 -85.5h-121v23q37 42 79 96.5t80 109t61 98.5h194z" />
    <glyph glyph-name="Udieresis" unicode="&#xdc;" horiz-adv-x="1295" 
d="M1136 1462v-972q0 -161 -55 -275t-164 -174.5t-272 -60.5q-238 0 -362.5 132.5t-124.5 377.5v972h198v-967q0 -175 74.5 -258.5t219.5 -83.5q98 0 162 38t95.5 114.5t31.5 190.5v966h197zM367 1733q0 55 28.5 81t69.5 26q42 0 70.5 -26t28.5 -81q0 -53 -28.5 -80.5
t-70.5 -27.5q-41 0 -69.5 27t-28.5 81zM731 1733q0 55 28.5 81t69.5 26q42 0 71 -26t29 -81q0 -53 -29 -80.5t-71 -27.5t-70 27.5t-28 80.5z" />
    <glyph glyph-name="Yacute" unicode="&#xdd;" horiz-adv-x="1005" 
d="M503 774l293 688h209l-404 -894v-568h-197v561l-404 901h210zM798 1918v-20q-21 -30 -56.5 -70.5t-77.5 -84.5t-84 -84t-76 -69h-128v24q36 47 72 99.5t68.5 105.5t56.5 99h225z" />
    <glyph glyph-name="Thorn" unicode="&#xde;" horiz-adv-x="1076" 
d="M998 782q0 -102 -27 -188t-86 -149t-154 -97.5t-229 -34.5h-134v-313h-197v1462h197v-249h151q249 0 364 -110.5t115 -320.5zM368 482h111q111 0 181.5 30t104 95t33.5 168q0 139 -70 204t-224 65h-136v-562z" />
    <glyph glyph-name="germandbls" unicode="&#xdf;" horiz-adv-x="1142" 
d="M952 1259q0 -68 -24 -118.5t-59.5 -89.5t-70.5 -72t-59.5 -65.5t-24.5 -70.5q0 -32 14.5 -58.5t47.5 -57.5t89 -74q66 -55 111 -104.5t67.5 -104.5t22.5 -130q0 -109 -41.5 -183t-120 -112.5t-188.5 -38.5q-75 0 -138.5 15t-113.5 45v175q32 -20 70.5 -37.5t81.5 -28
t86 -10.5q88 0 130 43.5t42 119.5q0 46 -15 81.5t-50.5 71.5t-95.5 82q-71 55 -112 102t-58.5 93t-17.5 97q0 61 24 104t59 77.5t69.5 67.5t58 72.5t23.5 94.5q0 78 -53 119.5t-144 41.5q-66 0 -115.5 -25.5t-77 -78.5t-27.5 -137v-1165h-192v1171q0 132 52 220t145 132
t216 44q118 0 205 -35.5t135.5 -104t48.5 -168.5z" />
    <glyph glyph-name="agrave" unicode="&#xe0;" horiz-adv-x="1016" 
d="M520 1122q179 0 265 -94t86 -285v-743h-141l-33 157h-6q-38 -58 -81 -97.5t-99 -59.5t-134 -20q-94 0 -160 41t-101.5 115t-35.5 173q0 167 112 255.5t330 96.5l159 8v65q0 125 -45.5 180t-135.5 55q-66 0 -131 -20.5t-132 -56.5l-59 142q72 41 159.5 64.5t182.5 23.5z
M681 538l-125 -6q-149 -7 -214 -62.5t-65 -158.5q0 -92 43.5 -135.5t117.5 -43.5q109 0 176 78.5t67 223.5v104zM459 1569q24 -47 58.5 -103.5t72 -109.5t68.5 -91v-24h-129q-33 27 -75 66.5t-84.5 84t-78 86t-56.5 71.5v20h224z" />
    <glyph glyph-name="aacute" unicode="&#xe1;" horiz-adv-x="1016" 
d="M520 1122q179 0 265 -94t86 -285v-743h-141l-33 157h-6q-38 -58 -81 -97.5t-99 -59.5t-134 -20q-94 0 -160 41t-101.5 115t-35.5 173q0 167 112 255.5t330 96.5l159 8v65q0 125 -45.5 180t-135.5 55q-66 0 -131 -20.5t-132 -56.5l-59 142q72 41 159.5 64.5t182.5 23.5z
M681 538l-125 -6q-149 -7 -214 -62.5t-65 -158.5q0 -92 43.5 -135.5t117.5 -43.5q109 0 176 78.5t67 223.5v104zM799 1569v-20q-21 -30 -56.5 -70.5t-77.5 -84.5t-84 -84t-76 -69h-128v24q36 47 72 99.5t68.5 105.5t56.5 99h225z" />
    <glyph glyph-name="acircumflex" unicode="&#xe2;" horiz-adv-x="1016" 
d="M520 1122q179 0 265 -94t86 -285v-743h-141l-33 157h-6q-38 -58 -81 -97.5t-99 -59.5t-134 -20q-94 0 -160 41t-101.5 115t-35.5 173q0 167 112 255.5t330 96.5l159 8v65q0 125 -45.5 180t-135.5 55q-66 0 -131 -20.5t-132 -56.5l-59 142q72 41 159.5 64.5t182.5 23.5z
M681 538l-125 -6q-149 -7 -214 -62.5t-65 -158.5q0 -92 43.5 -135.5t117.5 -43.5q109 0 176 78.5t67 223.5v104zM612 1568q24 -45 63 -100t81.5 -109t77.5 -95v-23h-121q-48 36 -98.5 85.5t-99.5 104.5q-50 -54 -101 -104.5t-95 -85.5h-121v23q37 42 79 96.5t80 109t61 98.5
h194z" />
    <glyph glyph-name="atilde" unicode="&#xe3;" horiz-adv-x="1016" 
d="M520 1122q179 0 265 -94t86 -285v-743h-141l-33 157h-6q-38 -58 -81 -97.5t-99 -59.5t-134 -20q-94 0 -160 41t-101.5 115t-35.5 173q0 167 112 255.5t330 96.5l159 8v65q0 125 -45.5 180t-135.5 55q-66 0 -131 -20.5t-132 -56.5l-59 142q72 41 159.5 64.5t182.5 23.5z
M681 538l-125 -6q-149 -7 -214 -62.5t-65 -158.5q0 -92 43.5 -135.5t117.5 -43.5q109 0 176 78.5t67 223.5v104zM166 1242q5 57 19.5 105t39 83.5t60.5 55t82 19.5q42 0 80 -17.5t73.5 -40.5t69 -40.5t65.5 -17.5q37 0 58.5 30.5t32.5 87.5h110q-9 -126 -63 -194.5
t-137 -68.5q-41 0 -79.5 17.5t-74.5 40.5t-69 40.5t-63 17.5q-36 0 -59.5 -29.5t-34.5 -88.5h-110z" />
    <glyph glyph-name="adieresis" unicode="&#xe4;" horiz-adv-x="1016" 
d="M520 1122q179 0 265 -94t86 -285v-743h-141l-33 157h-6q-38 -58 -81 -97.5t-99 -59.5t-134 -20q-94 0 -160 41t-101.5 115t-35.5 173q0 167 112 255.5t330 96.5l159 8v65q0 125 -45.5 180t-135.5 55q-66 0 -131 -20.5t-132 -56.5l-59 142q72 41 159.5 64.5t182.5 23.5z
M681 538l-125 -6q-149 -7 -214 -62.5t-65 -158.5q0 -92 43.5 -135.5t117.5 -43.5q109 0 176 78.5t67 223.5v104zM232 1385q0 55 28.5 81t69.5 26q42 0 70.5 -26t28.5 -81q0 -53 -28.5 -80.5t-70.5 -27.5q-41 0 -69.5 27t-28.5 81zM596 1385q0 55 28.5 81t69.5 26
q42 0 71 -26t29 -81q0 -53 -29 -80.5t-71 -27.5t-70 27.5t-28 80.5z" />
    <glyph glyph-name="aring" unicode="&#xe5;" horiz-adv-x="1016" 
d="M520 1122q179 0 265 -94t86 -285v-743h-141l-33 157h-6q-38 -58 -81 -97.5t-99 -59.5t-134 -20q-94 0 -160 41t-101.5 115t-35.5 173q0 167 112 255.5t330 96.5l159 8v65q0 125 -45.5 180t-135.5 55q-66 0 -131 -20.5t-132 -56.5l-59 142q72 41 159.5 64.5t182.5 23.5z
M681 538l-125 -6q-149 -7 -214 -62.5t-65 -158.5q0 -92 43.5 -135.5t117.5 -43.5q109 0 176 78.5t67 223.5v104zM515 1244q-100 0 -161.5 58.5t-61.5 157.5t61 157t162 58q96 0 160.5 -58t64.5 -155q0 -100 -63 -159t-162 -59zM516 1351q48 0 79 29.5t31 79.5t-30.5 80
t-79.5 30q-48 0 -79.5 -30t-31.5 -80q0 -49 28 -79t83 -30z" />
    <glyph glyph-name="ae" unicode="&#xe6;" horiz-adv-x="1569" 
d="M1088 1122q126 0 213 -63t132 -174t44 -256v-117h-618q3 -189 72.5 -282t201.5 -93q82 0 153 19t144 58v-162q-70 -37 -143.5 -54.5t-165.5 -17.5q-84 0 -156 26t-127 76.5t-91 123.5q-41 -74 -91.5 -124.5t-116.5 -76t-154 -25.5q-95 0 -163.5 41t-105 115t-36.5 174
q0 111 49 187t145 117.5t237 46.5l157 7v73q0 119 -46.5 173.5t-133.5 54.5q-63 0 -128.5 -20t-131.5 -56l-60 141q69 39 155 63.5t179 24.5q108 0 178.5 -39.5t107.5 -124.5q49 79 124 121.5t176 42.5zM667 537l-120 -5q-144 -7 -207 -62t-63 -159q0 -91 41.5 -135
t115.5 -44q69 0 121.5 35t82 101.5t29.5 161.5v107zM1086 969q-98 0 -157 -77.5t-67 -235.5h429q0 92 -22 162.5t-67.5 110.5t-115.5 40z" />
    <glyph glyph-name="ccedilla" unicode="&#xe7;" horiz-adv-x="865" 
d="M538 -20q-139 0 -238 62t-151 187.5t-52 315.5q0 189 54.5 317.5t156 194.5t242.5 66q79 0 145 -16.5t116 -42.5l-58 -156q-47 22 -98.5 35.5t-99.5 13.5q-87 0 -145 -46.5t-87.5 -137.5t-29.5 -227q0 -131 29 -220.5t86 -135.5t143 -46q68 0 128 17.5t114 46.5v-165
q-52 -31 -116 -47t-139 -16zM715 -278q0 -102 -68.5 -158t-202.5 -56q-36 0 -66.5 4t-52.5 10v118q22 -5 50.5 -8.5t55.5 -3.5q62 0 95.5 23t33.5 69q0 51 -45.5 77.5t-124.5 35.5l78 167h118l-45 -99q52 -11 91 -34t61 -59t22 -86z" />
    <glyph glyph-name="egrave" unicode="&#xe8;" horiz-adv-x="1017" 
d="M525 1122q130 0 219.5 -63t136 -174.5t46.5 -257.5v-117h-637q3 -183 76.5 -277.5t212.5 -94.5q83 0 153.5 19t146.5 59v-164q-71 -37 -145.5 -54.5t-169.5 -17.5q-151 0 -255.5 68t-158 195t-53.5 301q0 184 51 313t147 197t230 68zM525 970q-102 0 -162 -78.5
t-70 -235.5h448q-1 90 -24 161t-70.5 112t-121.5 41zM461 1569q24 -47 58.5 -103.5t72 -109.5t68.5 -91v-24h-129q-33 27 -75 66.5t-84.5 84t-78 86t-56.5 71.5v20h224z" />
    <glyph glyph-name="eacute" unicode="&#xe9;" horiz-adv-x="1017" 
d="M525 1122q130 0 219.5 -63t136 -174.5t46.5 -257.5v-117h-637q3 -183 76.5 -277.5t212.5 -94.5q83 0 153.5 19t146.5 59v-164q-71 -37 -145.5 -54.5t-169.5 -17.5q-151 0 -255.5 68t-158 195t-53.5 301q0 184 51 313t147 197t230 68zM525 970q-102 0 -162 -78.5
t-70 -235.5h448q-1 90 -24 161t-70.5 112t-121.5 41zM815 1569v-20q-21 -30 -56.5 -70.5t-77.5 -84.5t-84 -84t-76 -69h-128v24q36 47 72 99.5t68.5 105.5t56.5 99h225z" />
    <glyph glyph-name="ecircumflex" unicode="&#xea;" horiz-adv-x="1017" 
d="M525 1122q130 0 219.5 -63t136 -174.5t46.5 -257.5v-117h-637q3 -183 76.5 -277.5t212.5 -94.5q83 0 153.5 19t146.5 59v-164q-71 -37 -145.5 -54.5t-169.5 -17.5q-151 0 -255.5 68t-158 195t-53.5 301q0 184 51 313t147 197t230 68zM525 970q-102 0 -162 -78.5
t-70 -235.5h448q-1 90 -24 161t-70.5 112t-121.5 41zM613 1568q24 -45 63 -100t81.5 -109t77.5 -95v-23h-121q-48 36 -98.5 85.5t-99.5 104.5q-50 -54 -101 -104.5t-95 -85.5h-121v23q37 42 79 96.5t80 109t61 98.5h194z" />
    <glyph glyph-name="edieresis" unicode="&#xeb;" horiz-adv-x="1017" 
d="M525 1122q130 0 219.5 -63t136 -174.5t46.5 -257.5v-117h-637q3 -183 76.5 -277.5t212.5 -94.5q83 0 153.5 19t146.5 59v-164q-71 -37 -145.5 -54.5t-169.5 -17.5q-151 0 -255.5 68t-158 195t-53.5 301q0 184 51 313t147 197t230 68zM525 970q-102 0 -162 -78.5
t-70 -235.5h448q-1 90 -24 161t-70.5 112t-121.5 41zM234 1385q0 55 28.5 81t69.5 26q42 0 70.5 -26t28.5 -81q0 -53 -28.5 -80.5t-70.5 -27.5q-41 0 -69.5 27t-28.5 81zM598 1385q0 55 28.5 81t69.5 26q42 0 71 -26t29 -81q0 -53 -29 -80.5t-71 -27.5t-70 27.5t-28 80.5z
" />
    <glyph glyph-name="igrave" unicode="&#xec;" horiz-adv-x="493" 
d="M342 0h-191v1103h191v-1103zM191 1569q24 -47 58.5 -103.5t72 -109.5t68.5 -91v-24h-129q-33 27 -75 66.5t-84.5 84t-78 86t-56.5 71.5v20h224z" />
    <glyph glyph-name="iacute" unicode="&#xed;" horiz-adv-x="493" 
d="M342 0h-191v1103h191v-1103zM546 1569v-20q-21 -30 -56.5 -70.5t-77.5 -84.5t-84 -84t-76 -69h-128v24q36 47 72 99.5t68.5 105.5t56.5 99h225z" />
    <glyph glyph-name="icircumflex" unicode="&#xee;" horiz-adv-x="493" 
d="M342 0h-191v1103h191v-1103zM343 1568q24 -45 63 -100t81.5 -109t77.5 -95v-23h-121q-48 36 -98.5 85.5t-99.5 104.5q-50 -54 -101 -104.5t-95 -85.5h-121v23q37 42 79 96.5t80 109t61 98.5h194z" />
    <glyph glyph-name="idieresis" unicode="&#xef;" horiz-adv-x="493" 
d="M342 0h-191v1103h191v-1103zM-36 1385q0 55 28.5 81t69.5 26q42 0 70.5 -26t28.5 -81q0 -53 -28.5 -80.5t-70.5 -27.5q-41 0 -69.5 27t-28.5 81zM328 1385q0 55 28.5 81t69.5 26q42 0 71 -26t29 -81q0 -53 -29 -80.5t-71 -27.5t-70 27.5t-28 80.5z" />
    <glyph glyph-name="eth" unicode="&#xf0;" horiz-adv-x="1083" 
d="M391 1564q53 -27 104.5 -59t99.5 -70l199 125l75 -107l-174 -107q93 -95 158 -214t100 -264t35 -318q0 -185 -53 -312.5t-153 -192.5t-243 -65q-136 0 -235.5 63.5t-153.5 176.5t-54 259q0 157 52 267.5t145.5 169.5t216.5 59q57 0 104 -11.5t83.5 -34t61.5 -55.5l7 3
q-26 108 -80 202.5t-130 173.5l-204 -126l-74 106l180 112q-34 28 -71 53.5t-76 48.5zM545 817q-86 0 -143 -39t-84.5 -115.5t-27.5 -188.5q0 -98 27 -174t83 -119.5t143 -43.5q132 0 191.5 94t59.5 275q0 65 -15 121t-45.5 99t-77.5 67t-111 24z" />
    <glyph glyph-name="ntilde" unicode="&#xf1;" horiz-adv-x="1114" 
d="M635 1123q162 0 248 -95t86 -296v-732h-191v697q0 131 -44.5 196.5t-140.5 65.5q-137 0 -194 -96.5t-57 -297.5v-565h-192v1103h152l25 -155h11q29 56 74 95t102 59.5t121 20.5zM219 1243q5 57 19.5 105t39 83.5t60.5 55t82 19.5q42 0 80 -17.5t73.5 -40.5t69 -40.5
t65.5 -17.5q37 0 58.5 30.5t32.5 87.5h110q-9 -126 -63 -194.5t-137 -68.5q-41 0 -79.5 17.5t-74.5 40.5t-69 40.5t-63 17.5q-36 0 -59.5 -29.5t-34.5 -88.5h-110z" />
    <glyph glyph-name="ograve" unicode="&#xf2;" horiz-adv-x="1084" 
d="M988 553q0 -131 -29 -237t-85.5 -181t-140.5 -115t-194 -40q-103 0 -185 40t-139.5 114.5t-88 180.5t-30.5 238q0 180 51.5 307.5t151.5 195t245 67.5q136 0 236 -66t154 -193t54 -311zM292 553q0 -132 26.5 -224t82 -140t142.5 -48t142 47.5t81 139.5t26 225
q0 131 -26 222t-81 138.5t-143 47.5q-131 0 -190.5 -104.5t-59.5 -303.5zM487 1569q24 -47 58.5 -103.5t72 -109.5t68.5 -91v-24h-129q-33 27 -75 66.5t-84.5 84t-78 86t-56.5 71.5v20h224z" />
    <glyph glyph-name="oacute" unicode="&#xf3;" horiz-adv-x="1084" 
d="M988 553q0 -131 -29 -237t-85.5 -181t-140.5 -115t-194 -40q-103 0 -185 40t-139.5 114.5t-88 180.5t-30.5 238q0 180 51.5 307.5t151.5 195t245 67.5q136 0 236 -66t154 -193t54 -311zM292 553q0 -132 26.5 -224t82 -140t142.5 -48t142 47.5t81 139.5t26 225
q0 131 -26 222t-81 138.5t-143 47.5q-131 0 -190.5 -104.5t-59.5 -303.5zM841 1569v-20q-21 -30 -56.5 -70.5t-77.5 -84.5t-84 -84t-76 -69h-128v24q36 47 72 99.5t68.5 105.5t56.5 99h225z" />
    <glyph glyph-name="ocircumflex" unicode="&#xf4;" horiz-adv-x="1084" 
d="M988 553q0 -131 -29 -237t-85.5 -181t-140.5 -115t-194 -40q-103 0 -185 40t-139.5 114.5t-88 180.5t-30.5 238q0 180 51.5 307.5t151.5 195t245 67.5q136 0 236 -66t154 -193t54 -311zM292 553q0 -132 26.5 -224t82 -140t142.5 -48t142 47.5t81 139.5t26 225
q0 131 -26 222t-81 138.5t-143 47.5q-131 0 -190.5 -104.5t-59.5 -303.5zM639 1568q24 -45 63 -100t81.5 -109t77.5 -95v-23h-121q-48 36 -98.5 85.5t-99.5 104.5q-50 -54 -101 -104.5t-95 -85.5h-121v23q37 42 79 96.5t80 109t61 98.5h194z" />
    <glyph glyph-name="otilde" unicode="&#xf5;" horiz-adv-x="1084" 
d="M988 553q0 -131 -29 -237t-85.5 -181t-140.5 -115t-194 -40q-103 0 -185 40t-139.5 114.5t-88 180.5t-30.5 238q0 180 51.5 307.5t151.5 195t245 67.5q136 0 236 -66t154 -193t54 -311zM292 553q0 -132 26.5 -224t82 -140t142.5 -48t142 47.5t81 139.5t26 225
q0 131 -26 222t-81 138.5t-143 47.5q-131 0 -190.5 -104.5t-59.5 -303.5zM195 1242q5 57 19.5 105t39 83.5t60.5 55t82 19.5q42 0 80 -17.5t73.5 -40.5t69 -40.5t65.5 -17.5q37 0 58.5 30.5t32.5 87.5h110q-9 -126 -63 -194.5t-137 -68.5q-41 0 -79.5 17.5t-74.5 40.5
t-69 40.5t-63 17.5q-36 0 -59.5 -29.5t-34.5 -88.5h-110z" />
    <glyph glyph-name="odieresis" unicode="&#xf6;" horiz-adv-x="1084" 
d="M988 553q0 -131 -29 -237t-85.5 -181t-140.5 -115t-194 -40q-103 0 -185 40t-139.5 114.5t-88 180.5t-30.5 238q0 180 51.5 307.5t151.5 195t245 67.5q136 0 236 -66t154 -193t54 -311zM292 553q0 -132 26.5 -224t82 -140t142.5 -48t142 47.5t81 139.5t26 225
q0 131 -26 222t-81 138.5t-143 47.5q-131 0 -190.5 -104.5t-59.5 -303.5zM260 1385q0 55 28.5 81t69.5 26q42 0 70.5 -26t28.5 -81q0 -53 -28.5 -80.5t-70.5 -27.5q-41 0 -69.5 27t-28.5 81zM624 1385q0 55 28.5 81t69.5 26q42 0 71 -26t29 -81q0 -53 -29 -80.5t-71 -27.5
t-70 27.5t-28 80.5z" />
    <glyph glyph-name="divide" unicode="&#xf7;" horiz-adv-x="1034" 
d="M81 645v155h870v-155h-870zM517 233q-51 0 -81.5 31.5t-30.5 96.5q0 67 30.5 97.5t81.5 30.5q50 0 80 -30.5t30 -97.5q0 -65 -31 -96.5t-79 -31.5zM517 955q-51 0 -81.5 31.5t-30.5 96.5q0 66 30.5 96.5t81.5 30.5q50 0 80 -30.5t30 -96.5q0 -65 -31 -96.5t-79 -31.5z
" />
    <glyph glyph-name="oslash" unicode="&#xf8;" horiz-adv-x="1086" 
d="M990 553q0 -182 -53.5 -310.5t-154 -195.5t-241.5 -67q-65 0 -121 16t-103 47l-84 -145l-112 67l97 165q-59 78 -89.5 183.5t-30.5 239.5q0 276 117.5 423t330.5 147q66 0 123 -17.5t105 -52.5l76 129l113 -66l-88 -152q56 -74 85.5 -177.5t29.5 -233.5zM291 553
q0 -75 9 -136.5t27 -107.5l365 599q-28 27 -65.5 41.5t-82.5 14.5q-132 0 -192.5 -105.5t-60.5 -305.5zM798 553q0 70 -8.5 128t-24.5 102l-362 -596q26 -25 62.5 -37.5t78.5 -12.5q88 0 144.5 48.5t83 141t26.5 226.5z" />
    <glyph glyph-name="ugrave" unicode="&#xf9;" horiz-adv-x="1114" 
d="M963 1103v-1103h-152l-25 152h-11q-29 -55 -73.5 -93.5t-101 -58.5t-122.5 -20q-112 0 -186.5 45t-111.5 134.5t-37 220.5v723h192v-688q0 -137 45 -204t138 -67q94 0 149.5 43t79.5 129t24 212v575h192zM503 1569q24 -47 58.5 -103.5t72 -109.5t68.5 -91v-24h-129
q-33 27 -75 66.5t-84.5 84t-78 86t-56.5 71.5v20h224z" />
    <glyph glyph-name="uacute" unicode="&#xfa;" horiz-adv-x="1114" 
d="M963 1103v-1103h-152l-25 152h-11q-29 -55 -73.5 -93.5t-101 -58.5t-122.5 -20q-112 0 -186.5 45t-111.5 134.5t-37 220.5v723h192v-688q0 -137 45 -204t138 -67q94 0 149.5 43t79.5 129t24 212v575h192zM858 1569v-20q-21 -30 -56.5 -70.5t-77.5 -84.5t-84 -84t-76 -69
h-128v24q36 47 72 99.5t68.5 105.5t56.5 99h225z" />
    <glyph glyph-name="ucircumflex" unicode="&#xfb;" horiz-adv-x="1114" 
d="M963 1103v-1103h-152l-25 152h-11q-29 -55 -73.5 -93.5t-101 -58.5t-122.5 -20q-112 0 -186.5 45t-111.5 134.5t-37 220.5v723h192v-688q0 -137 45 -204t138 -67q94 0 149.5 43t79.5 129t24 212v575h192zM655 1568q24 -45 63 -100t81.5 -109t77.5 -95v-23h-121
q-48 36 -98.5 85.5t-99.5 104.5q-50 -54 -101 -104.5t-95 -85.5h-121v23q37 42 79 96.5t80 109t61 98.5h194z" />
    <glyph glyph-name="udieresis" unicode="&#xfc;" horiz-adv-x="1114" 
d="M963 1103v-1103h-152l-25 152h-11q-29 -55 -73.5 -93.5t-101 -58.5t-122.5 -20q-112 0 -186.5 45t-111.5 134.5t-37 220.5v723h192v-688q0 -137 45 -204t138 -67q94 0 149.5 43t79.5 129t24 212v575h192zM276 1385q0 55 28.5 81t69.5 26q42 0 70.5 -26t28.5 -81
q0 -53 -28.5 -80.5t-70.5 -27.5q-41 0 -69.5 27t-28.5 81zM640 1385q0 55 28.5 81t69.5 26q42 0 71 -26t29 -81q0 -53 -29 -80.5t-71 -27.5t-70 27.5t-28 80.5z" />
    <glyph glyph-name="yacute" unicode="&#xfd;" horiz-adv-x="924" 
d="M6 1103h203l192 -626q13 -45 25 -88t21.5 -84t14.5 -81h8q9 53 26 118t38 135l184 626h202l-402 -1261q-35 -111 -83.5 -185.5t-115 -111.5t-156.5 -37q-38 0 -69 5t-58 12v161q20 -6 46.5 -10t52.5 -4q51 0 87 21.5t62.5 66.5t48.5 114l41 131zM761 1569v-20
q-21 -30 -56.5 -70.5t-77.5 -84.5t-84 -84t-76 -69h-128v24q36 47 72 99.5t68.5 105.5t56.5 99h225z" />
    <glyph glyph-name="thorn" unicode="&#xfe;" horiz-adv-x="1111" 
d="M1016 553q0 -185 -46 -312.5t-131 -194t-202 -66.5q-71 0 -127 21.5t-98 59t-70 86.5h-10q3 -24 5.5 -54.5t4 -60t1.5 -52.5v-470h-193v2046h192v-437q0 -40 -2 -87.5t-6 -85.5h8q31 55 72 94.5t95.5 61t123.5 21.5q180 0 281.5 -145.5t101.5 -424.5zM820 553
q0 207 -56 307.5t-176 100.5q-129 0 -187 -92.5t-59 -281.5v-44q0 -200 57.5 -300.5t189.5 -100.5q82 0 133 50.5t74.5 143t23.5 217.5z" />
    <glyph glyph-name="ydieresis" unicode="&#xff;" horiz-adv-x="924" 
d="M6 1103h203l192 -626q13 -45 25 -88t21.5 -84t14.5 -81h8q9 53 26 118t38 135l184 626h202l-402 -1261q-35 -111 -83.5 -185.5t-115 -111.5t-156.5 -37q-38 0 -69 5t-58 12v161q20 -6 46.5 -10t52.5 -4q51 0 87 21.5t62.5 66.5t48.5 114l41 131zM180 1385q0 55 28.5 81
t69.5 26q42 0 70.5 -26t28.5 -81q0 -53 -28.5 -80.5t-70.5 -27.5q-41 0 -69.5 27t-28.5 81zM544 1385q0 55 28.5 81t69.5 26q42 0 71 -26t29 -81q0 -53 -29 -80.5t-71 -27.5t-70 27.5t-28 80.5z" />
    <glyph glyph-name="Amacron" unicode="&#x100;" horiz-adv-x="1137" 
d="M927 0l-131 438h-457l-131 -438h-208l456 1465h222l458 -1465h-209zM751 613l-129 449q-7 31 -17.5 72t-21 82.5t-17.5 73.5q-6 -37 -15.5 -77.5t-19 -79t-17.5 -69.5l-129 -451h366zM848 1756v-145h-563v145h563z" />
    <glyph glyph-name="amacron" unicode="&#x101;" horiz-adv-x="1016" 
d="M520 1122q179 0 265 -94t86 -285v-743h-141l-33 157h-6q-38 -58 -81 -97.5t-99 -59.5t-134 -20q-94 0 -160 41t-101.5 115t-35.5 173q0 167 112 255.5t330 96.5l159 8v65q0 125 -45.5 180t-135.5 55q-66 0 -131 -20.5t-132 -56.5l-59 142q72 41 159.5 64.5t182.5 23.5z
M681 538l-125 -6q-149 -7 -214 -62.5t-65 -158.5q0 -92 43.5 -135.5t117.5 -43.5q109 0 176 78.5t67 223.5v104zM795 1396v-145h-563v145h563z" />
    <glyph glyph-name="Abreve" unicode="&#x102;" horiz-adv-x="1137" 
d="M927 0l-131 438h-457l-131 -438h-208l456 1465h222l458 -1465h-209zM751 613l-129 449q-7 31 -17.5 72t-21 82.5t-17.5 73.5q-6 -37 -15.5 -77.5t-19 -79t-17.5 -69.5l-129 -451h366zM864 1888q-4 -87 -41.5 -151t-103 -99.5t-154.5 -35.5q-134 0 -209 74.5t-81 211.5
h118q6 -53 27.5 -83.5t59 -43.5t89.5 -13q47 0 85 13t62 44t29 83h119z" />
    <glyph glyph-name="abreve" unicode="&#x103;" horiz-adv-x="1016" 
d="M520 1122q179 0 265 -94t86 -285v-743h-141l-33 157h-6q-38 -58 -81 -97.5t-99 -59.5t-134 -20q-94 0 -160 41t-101.5 115t-35.5 173q0 167 112 255.5t330 96.5l159 8v65q0 125 -45.5 180t-135.5 55q-66 0 -131 -20.5t-132 -56.5l-59 142q72 41 159.5 64.5t182.5 23.5z
M681 538l-125 -6q-149 -7 -214 -62.5t-65 -158.5q0 -92 43.5 -135.5t117.5 -43.5q109 0 176 78.5t67 223.5v104zM811 1528q-4 -87 -41.5 -151t-103 -99.5t-154.5 -35.5q-134 0 -209 74.5t-81 211.5h118q6 -53 27.5 -83.5t59 -43.5t89.5 -13q47 0 85 13t62 44t29 83h119z" />
    <glyph glyph-name="Aogonek" unicode="&#x104;" horiz-adv-x="1137" 
d="M927 0l-131 438h-457l-131 -438h-208l456 1465h222l458 -1465h-209zM751 613l-129 449q-7 31 -17.5 72t-21 82.5t-17.5 73.5q-6 -37 -15.5 -77.5t-19 -79t-17.5 -69.5l-129 -451h366zM938 -236q0 -47 24 -71.5t67 -24.5q28 0 49 4.5t36 9.5v-125q-24 -7 -52.5 -12.5
t-65.5 -5.5q-105 0 -157.5 51.5t-52.5 144.5q0 55 24 108t66 100.5t94 85.5l102 -29q-70 -67 -102 -122t-32 -114z" />
    <glyph glyph-name="aogonek" unicode="&#x105;" horiz-adv-x="1016" 
d="M520 1122q179 0 265 -94t86 -285v-743h-141l-33 157h-6q-38 -58 -81 -97.5t-99 -59.5t-134 -20q-94 0 -160 41t-101.5 115t-35.5 173q0 167 112 255.5t330 96.5l159 8v65q0 125 -45.5 180t-135.5 55q-66 0 -131 -20.5t-132 -56.5l-59 142q72 41 159.5 64.5t182.5 23.5z
M681 538l-125 -6q-149 -7 -214 -62.5t-65 -158.5q0 -92 43.5 -135.5t117.5 -43.5q109 0 176 78.5t67 223.5v104zM727 -236q0 -47 24 -71.5t67 -24.5q28 0 49 4.5t36 9.5v-125q-24 -7 -52.5 -12.5t-65.5 -5.5q-105 0 -157.5 51.5t-52.5 144.5q0 55 24 108t66 100.5t94 85.5
l102 -29q-70 -67 -102 -122t-32 -114z" />
    <glyph glyph-name="Cacute" unicode="&#x106;" horiz-adv-x="1110" 
d="M713 1311q-97 0 -171.5 -43t-124.5 -121.5t-75 -184.5t-25 -232q0 -179 45.5 -308.5t134.5 -199t219 -69.5q80 0 152 17.5t140 43.5v-173q-68 -31 -144 -46t-172 -15q-189 0 -318.5 91t-196 259.5t-66.5 401.5q0 162 38.5 299t114 238.5t187.5 158t258 56.5
q93 0 180.5 -21.5t163.5 -61.5l-69 -165q-61 32 -128.5 53.5t-142.5 21.5zM974 1929v-20q-21 -30 -56.5 -70.5t-77.5 -84.5t-84 -84t-76 -69h-128v24q36 47 72 99.5t68.5 105.5t56.5 99h225z" />
    <glyph glyph-name="cacute" unicode="&#x107;" horiz-adv-x="865" 
d="M538 -20q-139 0 -238 62t-151 187.5t-52 315.5q0 189 54.5 317.5t156 194.5t242.5 66q79 0 145 -16.5t116 -42.5l-58 -156q-47 22 -98.5 35.5t-99.5 13.5q-87 0 -145 -46.5t-87.5 -137.5t-29.5 -227q0 -131 29 -220.5t86 -135.5t143 -46q68 0 128 17.5t114 46.5v-165
q-52 -31 -116 -47t-139 -16zM810 1569v-20q-21 -30 -56.5 -70.5t-77.5 -84.5t-84 -84t-76 -69h-128v24q36 47 72 99.5t68.5 105.5t56.5 99h225z" />
    <glyph glyph-name="Ccircumflex" unicode="&#x108;" horiz-adv-x="1110" 
d="M713 1311q-97 0 -171.5 -43t-124.5 -121.5t-75 -184.5t-25 -232q0 -179 45.5 -308.5t134.5 -199t219 -69.5q80 0 152 17.5t140 43.5v-173q-68 -31 -144 -46t-172 -15q-189 0 -318.5 91t-196 259.5t-66.5 401.5q0 162 38.5 299t114 238.5t187.5 158t258 56.5
q93 0 180.5 -21.5t163.5 -61.5l-69 -165q-61 32 -128.5 53.5t-142.5 21.5zM770 1928q24 -45 63 -100t81.5 -109t77.5 -95v-23h-121q-48 36 -98.5 85.5t-99.5 104.5q-50 -54 -101 -104.5t-95 -85.5h-121v23q37 42 79 96.5t80 109t61 98.5h194z" />
    <glyph glyph-name="ccircumflex" unicode="&#x109;" horiz-adv-x="865" 
d="M538 -20q-139 0 -238 62t-151 187.5t-52 315.5q0 189 54.5 317.5t156 194.5t242.5 66q79 0 145 -16.5t116 -42.5l-58 -156q-47 22 -98.5 35.5t-99.5 13.5q-87 0 -145 -46.5t-87.5 -137.5t-29.5 -227q0 -131 29 -220.5t86 -135.5t143 -46q68 0 128 17.5t114 46.5v-165
q-52 -31 -116 -47t-139 -16zM607 1568q24 -45 63 -100t81.5 -109t77.5 -95v-23h-121q-48 36 -98.5 85.5t-99.5 104.5q-50 -54 -101 -104.5t-95 -85.5h-121v23q37 42 79 96.5t80 109t61 98.5h194z" />
    <glyph glyph-name="Cdot" unicode="&#x10a;" horiz-adv-x="1110" 
d="M713 1311q-97 0 -171.5 -43t-124.5 -121.5t-75 -184.5t-25 -232q0 -179 45.5 -308.5t134.5 -199t219 -69.5q80 0 152 17.5t140 43.5v-173q-68 -31 -144 -46t-172 -15q-189 0 -318.5 91t-196 259.5t-66.5 401.5q0 162 38.5 299t114 238.5t187.5 158t258 56.5
q93 0 180.5 -21.5t163.5 -61.5l-69 -165q-61 32 -128.5 53.5t-142.5 21.5zM682 1879q51 0 80.5 -30t29.5 -91q0 -60 -30 -90.5t-80 -30.5q-49 0 -80 30.5t-31 90.5q0 62 30 91.5t81 29.5z" />
    <glyph glyph-name="cdot" unicode="&#x10b;" horiz-adv-x="865" 
d="M538 -20q-139 0 -238 62t-151 187.5t-52 315.5q0 189 54.5 317.5t156 194.5t242.5 66q79 0 145 -16.5t116 -42.5l-58 -156q-47 22 -98.5 35.5t-99.5 13.5q-87 0 -145 -46.5t-87.5 -137.5t-29.5 -227q0 -131 29 -220.5t86 -135.5t143 -46q68 0 128 17.5t114 46.5v-165
q-52 -31 -116 -47t-139 -16zM517 1521q51 0 80.5 -30t29.5 -91q0 -60 -30 -90.5t-80 -30.5q-49 0 -80 30.5t-31 90.5q0 62 30 91.5t81 29.5z" />
    <glyph glyph-name="Ccaron" unicode="&#x10c;" horiz-adv-x="1110" 
d="M713 1311q-97 0 -171.5 -43t-124.5 -121.5t-75 -184.5t-25 -232q0 -179 45.5 -308.5t134.5 -199t219 -69.5q80 0 152 17.5t140 43.5v-173q-68 -31 -144 -46t-172 -15q-189 0 -318.5 91t-196 259.5t-66.5 401.5q0 162 38.5 299t114 238.5t187.5 158t258 56.5
q93 0 180.5 -21.5t163.5 -61.5l-69 -165q-61 32 -128.5 53.5t-142.5 21.5zM576 1601q-24 45 -62 99.5t-80 108.5t-78 96v23h121q45 -36 96.5 -86.5t98.5 -104.5q52 58 99.5 103t98.5 88h122v-23q-34 -40 -77 -93.5t-82.5 -109t-63.5 -101.5h-193z" />
    <glyph glyph-name="ccaron" unicode="&#x10d;" horiz-adv-x="865" 
d="M538 -20q-139 0 -238 62t-151 187.5t-52 315.5q0 189 54.5 317.5t156 194.5t242.5 66q79 0 145 -16.5t116 -42.5l-58 -156q-47 22 -98.5 35.5t-99.5 13.5q-87 0 -145 -46.5t-87.5 -137.5t-29.5 -227q0 -131 29 -220.5t86 -135.5t143 -46q68 0 128 17.5t114 46.5v-165
q-52 -31 -116 -47t-139 -16zM413 1241q-24 45 -62 99.5t-80 108.5t-78 96v23h121q45 -36 96.5 -86.5t98.5 -104.5q52 58 99.5 103t98.5 88h122v-23q-34 -40 -77 -93.5t-82.5 -109t-63.5 -101.5h-193z" />
    <glyph glyph-name="Dcaron" unicode="&#x10e;" horiz-adv-x="1283" 
d="M1172 748q0 -247 -75.5 -413t-220.5 -250.5t-354 -84.5h-351v1462h381q196 0 334 -81t212 -240t74 -393zM966 740q0 187 -48.5 309.5t-143 182.5t-233.5 60h-173v-1121h148q228 0 339 143t111 426zM534 1601q-24 45 -62 99.5t-80 108.5t-78 96v23h121q45 -36 96.5 -86.5
t98.5 -104.5q52 58 99.5 103t98.5 88h122v-23q-34 -40 -77 -93.5t-82.5 -109t-63.5 -101.5h-193z" />
    <glyph glyph-name="dcaron" unicode="&#x10f;" horiz-adv-x="1111" 
d="M480 -20q-181 0 -282.5 145t-101.5 424t103 426.5t280 147.5q69 0 124 -21.5t97 -59t71 -88.5h10q-4 41 -7.5 88.5t-3.5 84.5v429h192v-1556h-153l-29 148h-10q-29 -50 -70 -88t-95 -59t-125 -21zM525 139q131 0 189.5 93t59.5 278v51q0 198 -56.5 298.5t-193.5 100.5
q-117 0 -174.5 -108t-57.5 -305q0 -199 58 -303.5t175 -104.5zM1288 1556v-19q-11 -43 -33.5 -99t-49.5 -111.5t-55 -97.5h-109v23q7 24 15.5 63t17 83.5t14.5 86.5t9 71h191z" />
    <glyph glyph-name="Dcroat" unicode="&#x110;" horiz-adv-x="1283" 
d="M551 1462q196 0 334.5 -81t212.5 -240t74 -393q0 -247 -75.5 -413t-220.5 -250.5t-354 -84.5h-346v657h-129v162h129v643h375zM541 1292h-167v-473h266v-162h-266v-486h142q229 0 339.5 143t110.5 426q0 187 -48.5 309.5t-143 182.5t-233.5 60z" />
    <glyph glyph-name="dcroat" unicode="&#x111;" horiz-adv-x="1118" 
d="M480 -20q-181 0 -282.5 143.5t-101.5 416.5q0 277 103 420.5t279 143.5q69 0 124.5 -21t97.5 -59t71 -89h10q-4 42 -7.5 91t-3.5 84v126h-316v141h316v179h192v-179h138v-141h-138v-1236h-153l-30 148h-10q-30 -51 -70.5 -88.5t-94 -58.5t-124.5 -21zM526 139
q130 0 188.5 91.5t58.5 277.5v43q0 195 -56 292t-193 97q-117 0 -174.5 -104t-57.5 -298q0 -195 58 -297t176 -102z" />
    <glyph glyph-name="Emacron" unicode="&#x112;" horiz-adv-x="986" 
d="M879 0h-708v1462h708v-171h-511v-442h480v-171h-480v-505h511v-173zM816 1756v-145h-563v145h563z" />
    <glyph glyph-name="emacron" unicode="&#x113;" horiz-adv-x="1017" 
d="M525 1122q130 0 219.5 -63t136 -174.5t46.5 -257.5v-117h-637q3 -183 76.5 -277.5t212.5 -94.5q83 0 153.5 19t146.5 59v-164q-71 -37 -145.5 -54.5t-169.5 -17.5q-151 0 -255.5 68t-158 195t-53.5 301q0 184 51 313t147 197t230 68zM525 970q-102 0 -162 -78.5
t-70 -235.5h448q-1 90 -24 161t-70.5 112t-121.5 41zM796 1396v-145h-563v145h563z" />
    <glyph glyph-name="Ebreve" unicode="&#x114;" horiz-adv-x="986" 
d="M879 0h-708v1462h708v-171h-511v-442h480v-171h-480v-505h511v-173zM831 1888q-4 -87 -41.5 -151t-103 -99.5t-154.5 -35.5q-134 0 -209 74.5t-81 211.5h118q6 -53 27.5 -83.5t59 -43.5t89.5 -13q47 0 85 13t62 44t29 83h119z" />
    <glyph glyph-name="ebreve" unicode="&#x115;" horiz-adv-x="1017" 
d="M525 1122q130 0 219.5 -63t136 -174.5t46.5 -257.5v-117h-637q3 -183 76.5 -277.5t212.5 -94.5q83 0 153.5 19t146.5 59v-164q-71 -37 -145.5 -54.5t-169.5 -17.5q-151 0 -255.5 68t-158 195t-53.5 301q0 184 51 313t147 197t230 68zM525 970q-102 0 -162 -78.5
t-70 -235.5h448q-1 90 -24 161t-70.5 112t-121.5 41zM813 1528q-4 -87 -41.5 -151t-103 -99.5t-154.5 -35.5q-134 0 -209 74.5t-81 211.5h118q6 -53 27.5 -83.5t59 -43.5t89.5 -13q47 0 85 13t62 44t29 83h119z" />
    <glyph glyph-name="Edotaccent" unicode="&#x116;" horiz-adv-x="986" 
d="M879 0h-708v1462h708v-171h-511v-442h480v-171h-480v-505h511v-173zM542 1880q51 0 80.5 -30t29.5 -91q0 -60 -30 -90.5t-80 -30.5q-49 0 -80 30.5t-31 90.5q0 62 30 91.5t81 29.5z" />
    <glyph glyph-name="edotaccent" unicode="&#x117;" horiz-adv-x="1017" 
d="M525 1122q130 0 219.5 -63t136 -174.5t46.5 -257.5v-117h-637q3 -183 76.5 -277.5t212.5 -94.5q83 0 153.5 19t146.5 59v-164q-71 -37 -145.5 -54.5t-169.5 -17.5q-151 0 -255.5 68t-158 195t-53.5 301q0 184 51 313t147 197t230 68zM525 970q-102 0 -162 -78.5
t-70 -235.5h448q-1 90 -24 161t-70.5 112t-121.5 41zM524 1521q51 0 80.5 -30t29.5 -91q0 -60 -30 -90.5t-80 -30.5q-49 0 -80 30.5t-31 90.5q0 62 30 91.5t81 29.5z" />
    <glyph glyph-name="Eogonek" unicode="&#x118;" horiz-adv-x="986" 
d="M879 0h-708v1462h708v-171h-511v-442h480v-171h-480v-505h511v-173zM693 -236q0 -47 24 -71.5t67 -24.5q28 0 49 4.5t36 9.5v-125q-24 -7 -52.5 -12.5t-65.5 -5.5q-105 0 -157.5 51.5t-52.5 144.5q0 55 24 108t66 100.5t94 85.5l102 -29q-70 -67 -102 -122t-32 -114z" />
    <glyph glyph-name="eogonek" unicode="&#x119;" horiz-adv-x="1017" 
d="M691 -237q0 -46 24 -69.5t66 -23.5q27 0 50.5 4.5t38.5 9.5v-126q-27 -8 -57 -13.5t-66 -5.5q-104 0 -155.5 52.5t-51.5 145.5q0 55 24 106t64.5 96t88.5 80l161 33q-67 -60 -108.5 -111t-60 -94.5t-18.5 -83.5zM525 1122q130 0 219.5 -63t136 -174.5t46.5 -257.5v-117
h-637q3 -183 76.5 -277.5t212.5 -94.5q83 0 153.5 19t146.5 59v-164q-71 -37 -145.5 -54.5t-169.5 -17.5q-151 0 -255.5 68t-158 195t-53.5 301q0 184 51 313t147 197t230 68zM525 970q-102 0 -162 -78.5t-70 -235.5h448q-1 90 -24 161t-70.5 112t-121.5 41z" />
    <glyph glyph-name="Ecaron" unicode="&#x11a;" horiz-adv-x="986" 
d="M879 0h-708v1462h708v-171h-511v-442h480v-171h-480v-505h511v-173zM437 1601q-24 45 -62 99.5t-80 108.5t-78 96v23h121q45 -36 96.5 -86.5t98.5 -104.5q52 58 99.5 103t98.5 88h122v-23q-34 -40 -77 -93.5t-82.5 -109t-63.5 -101.5h-193z" />
    <glyph glyph-name="ecaron" unicode="&#x11b;" horiz-adv-x="1017" 
d="M525 1122q130 0 219.5 -63t136 -174.5t46.5 -257.5v-117h-637q3 -183 76.5 -277.5t212.5 -94.5q83 0 153.5 19t146.5 59v-164q-71 -37 -145.5 -54.5t-169.5 -17.5q-151 0 -255.5 68t-158 195t-53.5 301q0 184 51 313t147 197t230 68zM525 970q-102 0 -162 -78.5
t-70 -235.5h448q-1 90 -24 161t-70.5 112t-121.5 41zM417 1241q-24 45 -62 99.5t-80 108.5t-78 96v23h121q45 -36 96.5 -86.5t98.5 -104.5q52 58 99.5 103t98.5 88h122v-23q-34 -40 -77 -93.5t-82.5 -109t-63.5 -101.5h-193z" />
    <glyph glyph-name="Gcircumflex" unicode="&#x11c;" horiz-adv-x="1307" 
d="M714 780h461v-724q-104 -38 -214.5 -57t-236.5 -19q-203 0 -339 93.5t-205 262.5t-69 397q0 225 76 393.5t224 262.5t361 94q107 0 205 -23.5t181 -66.5l-69 -166q-72 39 -152.5 61.5t-166.5 22.5q-144 0 -245.5 -69.5t-154.5 -199.5t-53 -312q0 -170 44.5 -300.5
t140 -204t246.5 -73.5q72 0 128.5 9t104.5 23v424h-267v172zM828 1928q24 -45 63 -100t81.5 -109t77.5 -95v-23h-121q-48 36 -98.5 85.5t-99.5 104.5q-50 -54 -101 -104.5t-95 -85.5h-121v23q37 42 79 96.5t80 109t61 98.5h194z" />
    <glyph glyph-name="gcircumflex" unicode="&#x11d;" horiz-adv-x="975" 
d="M423 -492q-192 0 -298 80.5t-106 226.5q0 106 60 177.5t162 96.5q-44 20 -73.5 61t-29.5 94q0 60 30.5 105t89.5 87q-75 37 -120 121t-45 194q0 117 44 200t128 127.5t203 44.5q31 0 59 -3t52 -8t40 -11h332v-116l-169 -26q27 -40 42 -93t15 -112q0 -170 -99.5 -267
t-277.5 -97q-47 0 -85 8q-33 -23 -53.5 -52.5t-20.5 -70.5q0 -29 16 -48t47.5 -28.5t77.5 -9.5h179q153 0 234.5 -74t81.5 -221q0 -185 -132.5 -285.5t-383.5 -100.5zM434 -348q107 0 179 25.5t108 74.5t36 119q0 60 -23.5 91.5t-70 43t-114.5 11.5h-158q-56 0 -99 -20.5
t-67.5 -62t-24.5 -106.5q0 -86 61.5 -131t172.5 -45zM467 524q89 0 134.5 58.5t45.5 170.5q0 118 -46.5 177t-135.5 59q-86 0 -132.5 -61.5t-46.5 -177.5q0 -108 46 -167t135 -59zM564 1568q24 -45 63 -100t81.5 -109t77.5 -95v-23h-121q-48 36 -98.5 85.5t-99.5 104.5
q-50 -54 -101 -104.5t-95 -85.5h-121v23q37 42 79 96.5t80 109t61 98.5h194z" />
    <glyph glyph-name="Gbreve" unicode="&#x11e;" horiz-adv-x="1307" 
d="M714 780h461v-724q-104 -38 -214.5 -57t-236.5 -19q-203 0 -339 93.5t-205 262.5t-69 397q0 225 76 393.5t224 262.5t361 94q107 0 205 -23.5t181 -66.5l-69 -166q-72 39 -152.5 61.5t-166.5 22.5q-144 0 -245.5 -69.5t-154.5 -199.5t-53 -312q0 -170 44.5 -300.5
t140 -204t246.5 -73.5q72 0 128.5 9t104.5 23v424h-267v172zM1029 1888q-4 -87 -41.5 -151t-103 -99.5t-154.5 -35.5q-134 0 -209 74.5t-81 211.5h118q6 -53 27.5 -83.5t59 -43.5t89.5 -13q47 0 85 13t62 44t29 83h119z" />
    <glyph glyph-name="gbreve" unicode="&#x11f;" horiz-adv-x="975" 
d="M423 -492q-192 0 -298 80.5t-106 226.5q0 106 60 177.5t162 96.5q-44 20 -73.5 61t-29.5 94q0 60 30.5 105t89.5 87q-75 37 -120 121t-45 194q0 117 44 200t128 127.5t203 44.5q31 0 59 -3t52 -8t40 -11h332v-116l-169 -26q27 -40 42 -93t15 -112q0 -170 -99.5 -267
t-277.5 -97q-47 0 -85 8q-33 -23 -53.5 -52.5t-20.5 -70.5q0 -29 16 -48t47.5 -28.5t77.5 -9.5h179q153 0 234.5 -74t81.5 -221q0 -185 -132.5 -285.5t-383.5 -100.5zM434 -348q107 0 179 25.5t108 74.5t36 119q0 60 -23.5 91.5t-70 43t-114.5 11.5h-158q-56 0 -99 -20.5
t-67.5 -62t-24.5 -106.5q0 -86 61.5 -131t172.5 -45zM467 524q89 0 134.5 58.5t45.5 170.5q0 118 -46.5 177t-135.5 59q-86 0 -132.5 -61.5t-46.5 -177.5q0 -108 46 -167t135 -59zM762 1528q-4 -87 -41.5 -151t-103 -99.5t-154.5 -35.5q-134 0 -209 74.5t-81 211.5h118
q6 -53 27.5 -83.5t59 -43.5t89.5 -13q47 0 85 13t62 44t29 83h119z" />
    <glyph glyph-name="Gdot" unicode="&#x120;" horiz-adv-x="1307" 
d="M714 780h461v-724q-104 -38 -214.5 -57t-236.5 -19q-203 0 -339 93.5t-205 262.5t-69 397q0 225 76 393.5t224 262.5t361 94q107 0 205 -23.5t181 -66.5l-69 -166q-72 39 -152.5 61.5t-166.5 22.5q-144 0 -245.5 -69.5t-154.5 -199.5t-53 -312q0 -170 44.5 -300.5
t140 -204t246.5 -73.5q72 0 128.5 9t104.5 23v424h-267v172zM740 1881q51 0 80.5 -30t29.5 -91q0 -60 -30 -90.5t-80 -30.5q-49 0 -80 30.5t-31 90.5q0 62 30 91.5t81 29.5z" />
    <glyph glyph-name="gdot" unicode="&#x121;" horiz-adv-x="975" 
d="M423 -492q-192 0 -298 80.5t-106 226.5q0 106 60 177.5t162 96.5q-44 20 -73.5 61t-29.5 94q0 60 30.5 105t89.5 87q-75 37 -120 121t-45 194q0 117 44 200t128 127.5t203 44.5q31 0 59 -3t52 -8t40 -11h332v-116l-169 -26q27 -40 42 -93t15 -112q0 -170 -99.5 -267
t-277.5 -97q-47 0 -85 8q-33 -23 -53.5 -52.5t-20.5 -70.5q0 -29 16 -48t47.5 -28.5t77.5 -9.5h179q153 0 234.5 -74t81.5 -221q0 -185 -132.5 -285.5t-383.5 -100.5zM434 -348q107 0 179 25.5t108 74.5t36 119q0 60 -23.5 91.5t-70 43t-114.5 11.5h-158q-56 0 -99 -20.5
t-67.5 -62t-24.5 -106.5q0 -86 61.5 -131t172.5 -45zM467 524q89 0 134.5 58.5t45.5 170.5q0 118 -46.5 177t-135.5 59q-86 0 -132.5 -61.5t-46.5 -177.5q0 -108 46 -167t135 -59zM472 1521q51 0 80.5 -30t29.5 -91q0 -60 -30 -90.5t-80 -30.5q-49 0 -80 30.5t-31 90.5
q0 62 30 91.5t81 29.5z" />
    <glyph glyph-name="uni0122" unicode="&#x122;" horiz-adv-x="1307" 
d="M714 780h461v-724q-104 -38 -214.5 -57t-236.5 -19q-203 0 -339 93.5t-205 262.5t-69 397q0 225 76 393.5t224 262.5t361 94q107 0 205 -23.5t181 -66.5l-69 -166q-72 39 -152.5 61.5t-166.5 22.5q-144 0 -245.5 -69.5t-154.5 -199.5t-53 -312q0 -170 44.5 -300.5
t140 -204t246.5 -73.5q72 0 128.5 9t104.5 23v424h-267v172zM846 -125v-19q-13 -46 -36 -100.5t-52 -109t-61 -99.5h-110v24q12 36 27 91.5t27 113t17 99.5h188z" />
    <glyph glyph-name="uni0123" unicode="&#x123;" horiz-adv-x="975" 
d="M621 1569v-24q-15 -38 -31 -94t-28.5 -112.5t-17.5 -97.5h-188v20q12 44 35 99t53.5 109.5t64.5 99.5h112zM423 -492q-192 0 -298 80.5t-106 226.5q0 106 60 177.5t162 96.5q-44 20 -73.5 61t-29.5 94q0 60 30.5 105t89.5 87q-75 37 -120 121t-45 194q0 117 44 200
t128 127.5t203 44.5q31 0 59 -3t52 -8t40 -11h332v-116l-169 -26q27 -40 42 -93t15 -112q0 -170 -99.5 -267t-277.5 -97q-47 0 -85 8q-33 -23 -53.5 -52.5t-20.5 -70.5q0 -29 16 -48t47.5 -28.5t77.5 -9.5h179q153 0 234.5 -74t81.5 -221q0 -185 -132.5 -285.5
t-383.5 -100.5zM434 -348q107 0 179 25.5t108 74.5t36 119q0 60 -23.5 91.5t-70 43t-114.5 11.5h-158q-56 0 -99 -20.5t-67.5 -62t-24.5 -106.5q0 -86 61.5 -131t172.5 -45zM467 524q89 0 134.5 58.5t45.5 170.5q0 118 -46.5 177t-135.5 59q-86 0 -132.5 -61.5t-46.5 -177.5
q0 -108 46 -167t135 -59z" />
    <glyph glyph-name="Hcircumflex" unicode="&#x124;" horiz-adv-x="1316" 
d="M1145 0h-197v677h-580v-677h-197v1462h197v-612h580v612h197v-1462zM757 1928q24 -45 63 -100t81.5 -109t77.5 -95v-23h-121q-48 36 -98.5 85.5t-99.5 104.5q-50 -54 -101 -104.5t-95 -85.5h-121v23q37 42 79 96.5t80 109t61 98.5h194z" />
    <glyph glyph-name="hcircumflex" unicode="&#x125;" horiz-adv-x="1114" 
d="M342 1556v-427q0 -49 -3 -96t-9 -84h12q28 56 71.5 94.5t99.5 58.5t120 20q111 0 186 -43t112.5 -129.5t37.5 -218.5v-731h-191v697q0 135 -45 198t-140 63q-91 0 -146.5 -43.5t-80 -131.5t-24.5 -219v-564h-192v1556h192zM345 2022q24 -45 63 -100t81.5 -109t77.5 -95
v-23h-121q-48 36 -98.5 85.5t-99.5 104.5q-50 -54 -101 -104.5t-95 -85.5h-121v23q37 42 79 96.5t80 109t61 98.5h194z" />
    <glyph glyph-name="Hbar" unicode="&#x126;" horiz-adv-x="1316" 
d="M170 0v1080h-172v148h172v234h197v-234h580v234h197v-234h173v-148h-173v-1080h-197v676h-580v-676h-197zM368 851h580v229h-580v-229z" />
    <glyph glyph-name="hbar" unicode="&#x127;" horiz-adv-x="1114" 
d="M342 1556v-181h320v-141h-320v-147q0 -44 -3 -87.5t-8 -80.5h12q28 55 71 94t99.5 59t120.5 20q111 0 185.5 -42.5t112.5 -129t38 -219.5v-701h-191v666q0 135 -45.5 198.5t-140.5 63.5q-90 0 -145.5 -42.5t-80.5 -129.5t-25 -222v-534h-191v1234h-138v141h138v181h191z
" />
    <glyph glyph-name="Itilde" unicode="&#x128;" horiz-adv-x="539" 
d="M171 0v1462h197v-1462h-197zM-73 1602q5 57 19.5 105t39 83.5t60.5 55t82 19.5q42 0 80 -17.5t73.5 -40.5t69 -40.5t65.5 -17.5q37 0 58.5 30.5t32.5 87.5h110q-9 -126 -63 -194.5t-137 -68.5q-41 0 -79.5 17.5t-74.5 40.5t-69 40.5t-63 17.5q-36 0 -59.5 -29.5
t-34.5 -88.5h-110z" />
    <glyph glyph-name="itilde" unicode="&#x129;" horiz-adv-x="493" 
d="M342 0h-191v1103h191v-1103zM-102 1242q5 57 19.5 105t39 83.5t60.5 55t82 19.5q42 0 80 -17.5t73.5 -40.5t69 -40.5t65.5 -17.5q37 0 58.5 30.5t32.5 87.5h110q-9 -126 -63 -194.5t-137 -68.5q-41 0 -79.5 17.5t-74.5 40.5t-69 40.5t-63 17.5q-36 0 -59.5 -29.5
t-34.5 -88.5h-110z" />
    <glyph glyph-name="Imacron" unicode="&#x12a;" horiz-adv-x="539" 
d="M171 0v1462h197v-1462h-197zM551 1756v-145h-563v145h563z" />
    <glyph glyph-name="imacron" unicode="&#x12b;" horiz-adv-x="493" 
d="M342 0h-191v1103h191v-1103zM528 1396v-145h-563v145h563z" />
    <glyph glyph-name="Ibreve" unicode="&#x12c;" horiz-adv-x="539" 
d="M171 0v1462h197v-1462h-197zM564 1888q-4 -87 -41.5 -151t-103 -99.5t-154.5 -35.5q-134 0 -209 74.5t-81 211.5h118q6 -53 27.5 -83.5t59 -43.5t89.5 -13q47 0 85 13t62 44t29 83h119z" />
    <glyph glyph-name="ibreve" unicode="&#x12d;" horiz-adv-x="493" 
d="M342 0h-191v1103h191v-1103zM543 1528q-4 -87 -41.5 -151t-103 -99.5t-154.5 -35.5q-134 0 -209 74.5t-81 211.5h118q6 -53 27.5 -83.5t59 -43.5t89.5 -13q47 0 85 13t62 44t29 83h119z" />
    <glyph glyph-name="Iogonek" unicode="&#x12e;" horiz-adv-x="539" 
d="M171 0v1462h197v-1462h-197zM234 -236q0 -47 24 -71.5t67 -24.5q28 0 49 4.5t36 9.5v-125q-24 -7 -52.5 -12.5t-65.5 -5.5q-105 0 -157.5 51.5t-52.5 144.5q0 55 24 108t66 100.5t94 85.5l102 -29q-70 -67 -102 -122t-32 -114z" />
    <glyph glyph-name="iogonek" unicode="&#x12f;" horiz-adv-x="494" 
d="M342 1103v-1103h-191v1103h191zM249 1521q50 0 80 -30t30 -91q0 -60 -30.5 -90.5t-79.5 -30.5q-50 0 -81 30.5t-31 90.5q0 62 30.5 91.5t81.5 29.5zM192 -236q0 -47 24 -71.5t67 -24.5q28 0 49 4.5t36 9.5v-125q-24 -7 -52.5 -12.5t-65.5 -5.5q-105 0 -157.5 51.5
t-52.5 144.5q0 55 24 108t66 100.5t94 85.5l102 -29q-70 -67 -102 -122t-32 -114z" />
    <glyph glyph-name="Idotaccent" unicode="&#x130;" horiz-adv-x="539" 
d="M171 0v1462h197v-1462h-197zM272 1879q51 0 80.5 -30t29.5 -91q0 -60 -30 -90.5t-80 -30.5q-49 0 -80 30.5t-31 90.5q0 62 30 91.5t81 29.5z" />
    <glyph glyph-name="dotlessi" unicode="&#x131;" horiz-adv-x="493" 
d="M342 0h-191v1103h191v-1103z" />
    <glyph glyph-name="IJ" unicode="&#x132;" horiz-adv-x="1067" 
d="M171 0v1462h197v-1462h-197zM556 -399q-45 0 -82.5 6t-66.5 18v170q29 -9 61.5 -15t69.5 -6q52 0 89 23.5t57.5 78t20.5 149.5v1437h197v-1437q0 -151 -41 -244t-119 -136.5t-186 -43.5z" />
    <glyph glyph-name="ij" unicode="&#x133;" horiz-adv-x="986" 
d="M342 1103v-1103h-191v1103h191zM249 1521q50 0 80 -30t30 -91q0 -60 -30.5 -90.5t-79.5 -30.5q-50 0 -81 30.5t-31 90.5q0 62 30.5 91.5t81.5 29.5zM556 -492q-41 0 -76 6.5t-61 15.5v161q25 -9 50.5 -14t54.5 -5q57 0 88.5 39t31.5 133v1259h191v-1265
q0 -106 -30.5 -180t-92.5 -111.5t-156 -38.5zM630 1400q0 62 30.5 91.5t81.5 29.5q50 0 80 -30t30 -91q0 -60 -30.5 -90.5t-79.5 -30.5q-50 0 -81 30.5t-31 90.5z" />
    <glyph glyph-name="Jcircumflex" unicode="&#x134;" horiz-adv-x="527" 
d="M17 -399q-45 0 -82.5 6t-66.5 18v170q29 -9 61.5 -15t69.5 -6q52 0 89 23.5t57.5 78t20.5 149.5v1437h197v-1437q0 -151 -41 -244t-119 -136.5t-186 -43.5zM362 1927q24 -45 63 -100t81.5 -109t77.5 -95v-23h-121q-48 36 -98.5 85.5t-99.5 104.5q-50 -54 -101 -104.5
t-95 -85.5h-121v23q37 42 79 96.5t80 109t61 98.5h194z" />
    <glyph glyph-name="jcircumflex" unicode="&#x135;" horiz-adv-x="494" 
d="M63 -492q-40 0 -76.5 6.5t-60.5 15.5v161q25 -9 50.5 -14t54.5 -5q57 0 88.5 39t31.5 131v1261h191v-1265q0 -104 -30.5 -178t-92.5 -113t-156 -39zM344 1568q24 -45 63 -100t81.5 -109t77.5 -95v-23h-121q-48 36 -98.5 85.5t-99.5 104.5q-50 -54 -101 -104.5t-95 -85.5
h-121v23q37 42 79 96.5t80 109t61 98.5h194z" />
    <glyph glyph-name="uni0136" unicode="&#x136;" horiz-adv-x="1109" 
d="M1113 0h-225l-394 675l-126 -123v-552h-197v1462h197v-719q31 45 71 100.5t86 121.5l352 497h220l-463 -642zM723 -125v-19q-13 -46 -36 -100.5t-52 -109t-61 -99.5h-110v24q12 36 27 91.5t27 113t17 99.5h188z" />
    <glyph glyph-name="uni0137" unicode="&#x137;" horiz-adv-x="983" 
d="M341 1556v-766q0 -53 -2.5 -112t-7.5 -112h7q21 33 49 74t53 73l296 390h215l-357 -452l381 -651h-217l-294 516l-123 -126v-390h-191v1556h191zM629 -125v-19q-13 -46 -36 -100.5t-52 -109t-61 -99.5h-110v24q12 36 27 91.5t27 113t17 99.5h188z" />
    <glyph glyph-name="kgreenlandic" unicode="&#x138;" horiz-adv-x="983" 
d="M950 1103l-346 -462l371 -641h-216l-286 508l-128 -125v-383h-195v1103h195v-294q0 -71 -2.5 -137.5t-7.5 -118.5h6q19 31 40 61t39 58l316 431h214z" />
    <glyph glyph-name="Lacute" unicode="&#x139;" horiz-adv-x="932" 
d="M171 0v1462h197v-1288h519v-174h-716zM571 1929v-20q-21 -30 -56.5 -70.5t-77.5 -84.5t-84 -84t-76 -69h-128v24q36 47 72 99.5t68.5 105.5t56.5 99h225z" />
    <glyph glyph-name="lacute" unicode="&#x13a;" horiz-adv-x="492" 
d="M342 0h-192v1556h192v-1556zM549 2023v-20q-21 -30 -56.5 -70.5t-77.5 -84.5t-84 -84t-76 -69h-128v24q36 47 72 99.5t68.5 105.5t56.5 99h225z" />
    <glyph glyph-name="uni013B" unicode="&#x13b;" horiz-adv-x="932" 
d="M171 0v1462h197v-1288h519v-174h-716zM652 -125v-19q-13 -46 -36 -100.5t-52 -109t-61 -99.5h-110v24q12 36 27 91.5t27 113t17 99.5h188z" />
    <glyph glyph-name="uni013C" unicode="&#x13c;" horiz-adv-x="492" 
d="M342 0h-192v1556h192v-1556zM367 -125v-19q-13 -46 -36 -100.5t-52 -109t-61 -99.5h-110v24q12 36 27 91.5t27 113t17 99.5h188z" />
    <glyph glyph-name="Lcaron" unicode="&#x13d;" horiz-adv-x="932" 
d="M171 0v1462h197v-1288h519v-174h-716zM916 1462v-19q-11 -43 -33.5 -99t-49.5 -111.5t-55 -97.5h-109v23q7 24 15.5 63t17 83.5t14.5 86.5t9 71h191z" />
    <glyph glyph-name="lcaron" unicode="&#x13e;" horiz-adv-x="492" 
d="M342 0h-192v1556h192v-1556zM666 1556v-19q-11 -43 -33.5 -99t-49.5 -111.5t-55 -97.5h-109v23q7 24 15.5 63t17 83.5t14.5 86.5t9 71h191z" />
    <glyph glyph-name="Ldot" unicode="&#x13f;" horiz-adv-x="932" 
d="M171 0v1462h197v-1288h519v-174h-716zM718 901q51 0 80.5 -30t29.5 -91q0 -60 -30 -90.5t-80 -30.5q-49 0 -80 30.5t-31 90.5q0 62 30 91.5t81 29.5z" />
    <glyph glyph-name="ldot" unicode="&#x140;" horiz-adv-x="583" 
d="M342 0h-192v1556h192v-1556zM539 919q51 0 80.5 -30t29.5 -91q0 -60 -30 -90.5t-80 -30.5q-49 0 -80 30.5t-31 90.5q0 62 30 91.5t81 29.5z" />
    <glyph glyph-name="Lslash" unicode="&#x141;" horiz-adv-x="942" 
d="M180 0v504l-95 -58l-84 126l179 117v773h197v-646l233 145l83 -130l-316 -199v-458h518v-174h-715z" />
    <glyph glyph-name="lslash" unicode="&#x142;" horiz-adv-x="515" 
d="M158 0v586l-104 -72l-84 126l188 131v785h191v-654l114 81l87 -126l-201 -141v-716h-191z" />
    <glyph glyph-name="Nacute" unicode="&#x143;" horiz-adv-x="1377" 
d="M1207 0h-236l-623 1180h-8q4 -56 7 -114.5t5 -117.5t2 -116v-832h-183v1462h235l622 -1167h7q-3 52 -5.5 111.5t-4.5 119t-2 111.5v825h184v-1462zM987 1929v-20q-21 -30 -56.5 -70.5t-77.5 -84.5t-84 -84t-76 -69h-128v24q36 47 72 99.5t68.5 105.5t56.5 99h225z" />
    <glyph glyph-name="nacute" unicode="&#x144;" horiz-adv-x="1114" 
d="M635 1123q162 0 248 -95t86 -296v-732h-191v697q0 131 -44.5 196.5t-140.5 65.5q-137 0 -194 -96.5t-57 -297.5v-565h-192v1103h152l25 -155h11q29 56 74 95t102 59.5t121 20.5zM866 1569v-20q-21 -30 -56.5 -70.5t-77.5 -84.5t-84 -84t-76 -69h-128v24q36 47 72 99.5
t68.5 105.5t56.5 99h225z" />
    <glyph glyph-name="uni0145" unicode="&#x145;" horiz-adv-x="1377" 
d="M1207 0h-236l-623 1180h-8q4 -56 7 -114.5t5 -117.5t2 -116v-832h-183v1462h235l622 -1167h7q-3 52 -5.5 111.5t-4.5 119t-2 111.5v825h184v-1462zM810 -125v-19q-13 -46 -36 -100.5t-52 -109t-61 -99.5h-110v24q12 36 27 91.5t27 113t17 99.5h188z" />
    <glyph glyph-name="uni0146" unicode="&#x146;" horiz-adv-x="1114" 
d="M635 1123q162 0 248 -95t86 -296v-732h-191v697q0 131 -44.5 196.5t-140.5 65.5q-137 0 -194 -96.5t-57 -297.5v-565h-192v1103h152l25 -155h11q29 56 74 95t102 59.5t121 20.5zM679 -125v-19q-13 -46 -36 -100.5t-52 -109t-61 -99.5h-110v24q12 36 27 91.5t27 113
t17 99.5h188z" />
    <glyph glyph-name="Ncaron" unicode="&#x147;" horiz-adv-x="1377" 
d="M1207 0h-236l-623 1180h-8q4 -56 7 -114.5t5 -117.5t2 -116v-832h-183v1462h235l622 -1167h7q-3 52 -5.5 111.5t-4.5 119t-2 111.5v825h184v-1462zM591 1601q-24 45 -62 99.5t-80 108.5t-78 96v23h121q45 -36 96.5 -86.5t98.5 -104.5q52 58 99.5 103t98.5 88h122v-23
q-34 -40 -77 -93.5t-82.5 -109t-63.5 -101.5h-193z" />
    <glyph glyph-name="ncaron" unicode="&#x148;" horiz-adv-x="1114" 
d="M635 1123q162 0 248 -95t86 -296v-732h-191v697q0 131 -44.5 196.5t-140.5 65.5q-137 0 -194 -96.5t-57 -297.5v-565h-192v1103h152l25 -155h11q29 56 74 95t102 59.5t121 20.5zM470 1241q-24 45 -62 99.5t-80 108.5t-78 96v23h121q45 -36 96.5 -86.5t98.5 -104.5
q52 58 99.5 103t98.5 88h122v-23q-34 -40 -77 -93.5t-82.5 -109t-63.5 -101.5h-193z" />
    <glyph glyph-name="napostrophe" unicode="&#x149;" horiz-adv-x="1268" 
d="M789 1123q162 0 248 -95t86 -296v-732h-191v697q0 131 -44.5 196.5t-140.5 65.5q-137 0 -194 -96.5t-57 -297.5v-565h-192v1103h152l25 -155h11q29 56 74 95t102 59.5t121 20.5zM294 1462l15 -22q-18 -80 -44 -163.5t-56 -164.5t-63 -156h-144q15 59 30 125.5t28 134
t23 130.5t16 116h195z" />
    <glyph glyph-name="Eng" unicode="&#x14a;" horiz-adv-x="1377" 
d="M863 -399q-46 0 -84 6t-67 18v167q28 -8 63 -14t74 -6q53 0 92 22.5t61 73.5t22 136l-677 1185h-7q4 -51 7 -112.5t5 -124.5t2 -118v-834h-183v1462h235l622 -1093h7q-3 54 -6 114t-4.5 120.5t-1.5 114.5v744h185v-1449q0 -139 -40.5 -230.5t-117.5 -136.5t-187 -45z" />
    <glyph glyph-name="eng" unicode="&#x14b;" horiz-adv-x="1114" 
d="M699 -492q-38 0 -71 6.5t-60 15.5v161q24 -9 48 -14t50 -5q52 0 82 39.5t30 133.5v856q0 128 -45.5 192t-140.5 64q-89 0 -144 -41t-80.5 -127.5t-25.5 -222.5v-566h-192v1103h152l26 -155h10q29 56 73.5 95t101.5 59.5t122 20.5q114 0 187.5 -45.5t110.5 -134.5t37 -221
v-883q0 -100 -29 -174.5t-89 -115.5t-153 -41z" />
    <glyph glyph-name="Omacron" unicode="&#x14c;" horiz-adv-x="1372" 
d="M1261 733q0 -165 -34.5 -303t-105 -239t-178.5 -156t-255 -55q-150 0 -259 56t-179.5 157t-104.5 239.5t-34 302.5q0 237 64 404.5t192.5 256t321.5 88.5q195 0 321.5 -95t188.5 -264t62 -392zM317 733q0 -184 40.5 -314t123 -198t206.5 -68q126 0 207 67.5t120.5 197
t39.5 315.5q0 280 -89 429t-276 149q-126 0 -208.5 -67.5t-123 -196.5t-40.5 -314zM968 1756v-145h-563v145h563z" />
    <glyph glyph-name="omacron" unicode="&#x14d;" horiz-adv-x="1084" 
d="M988 553q0 -131 -29 -237t-85.5 -181t-140.5 -115t-194 -40q-103 0 -185 40t-139.5 114.5t-88 180.5t-30.5 238q0 180 51.5 307.5t151.5 195t245 67.5q136 0 236 -66t154 -193t54 -311zM292 553q0 -132 26.5 -224t82 -140t142.5 -48t142 47.5t81 139.5t26 225
q0 131 -26 222t-81 138.5t-143 47.5q-131 0 -190.5 -104.5t-59.5 -303.5zM823 1396v-145h-563v145h563z" />
    <glyph glyph-name="Obreve" unicode="&#x14e;" horiz-adv-x="1372" 
d="M1261 733q0 -165 -34.5 -303t-105 -239t-178.5 -156t-255 -55q-150 0 -259 56t-179.5 157t-104.5 239.5t-34 302.5q0 237 64 404.5t192.5 256t321.5 88.5q195 0 321.5 -95t188.5 -264t62 -392zM317 733q0 -184 40.5 -314t123 -198t206.5 -68q126 0 207 67.5t120.5 197
t39.5 315.5q0 280 -89 429t-276 149q-126 0 -208.5 -67.5t-123 -196.5t-40.5 -314zM984 1888q-4 -87 -41.5 -151t-103 -99.5t-154.5 -35.5q-134 0 -209 74.5t-81 211.5h118q6 -53 27.5 -83.5t59 -43.5t89.5 -13q47 0 85 13t62 44t29 83h119z" />
    <glyph glyph-name="obreve" unicode="&#x14f;" horiz-adv-x="1084" 
d="M988 553q0 -131 -29 -237t-85.5 -181t-140.5 -115t-194 -40q-103 0 -185 40t-139.5 114.5t-88 180.5t-30.5 238q0 180 51.5 307.5t151.5 195t245 67.5q136 0 236 -66t154 -193t54 -311zM292 553q0 -132 26.5 -224t82 -140t142.5 -48t142 47.5t81 139.5t26 225
q0 131 -26 222t-81 138.5t-143 47.5q-131 0 -190.5 -104.5t-59.5 -303.5zM839 1528q-4 -87 -41.5 -151t-103 -99.5t-154.5 -35.5q-134 0 -209 74.5t-81 211.5h118q6 -53 27.5 -83.5t59 -43.5t89.5 -13q47 0 85 13t62 44t29 83h119z" />
    <glyph glyph-name="Ohungarumlaut" unicode="&#x150;" horiz-adv-x="1372" 
d="M1261 733q0 -165 -34.5 -303t-105 -239t-178.5 -156t-255 -55q-150 0 -259 56t-179.5 157t-104.5 239.5t-34 302.5q0 237 64 404.5t192.5 256t321.5 88.5q195 0 321.5 -95t188.5 -264t62 -392zM317 733q0 -184 40.5 -314t123 -198t206.5 -68q126 0 207 67.5t120.5 197
t39.5 315.5q0 280 -89 429t-276 149q-126 0 -208.5 -67.5t-123 -196.5t-40.5 -314zM1144 1929v-20q-17 -29 -48.5 -70t-70 -85.5t-78 -84.5t-72.5 -68h-103v24q31 44 64.5 100.5t63.5 111t47 92.5h197zM810 1929v-20q-17 -30 -47.5 -70.5t-68.5 -83.5t-78.5 -83t-76.5 -71
h-100v24q31 46 64 101.5t62.5 109.5t47.5 93h197z" />
    <glyph glyph-name="ohungarumlaut" unicode="&#x151;" horiz-adv-x="1084" 
d="M988 553q0 -131 -29 -237t-85.5 -181t-140.5 -115t-194 -40q-103 0 -185 40t-139.5 114.5t-88 180.5t-30.5 238q0 180 51.5 307.5t151.5 195t245 67.5q136 0 236 -66t154 -193t54 -311zM292 553q0 -132 26.5 -224t82 -140t142.5 -48t142 47.5t81 139.5t26 225
q0 131 -26 222t-81 138.5t-143 47.5q-131 0 -190.5 -104.5t-59.5 -303.5zM1000 1569v-20q-17 -29 -48.5 -70t-70 -85.5t-78 -84.5t-72.5 -68h-103v24q31 44 64.5 100.5t63.5 111t47 92.5h197zM666 1569v-20q-17 -30 -47.5 -70.5t-68.5 -83.5t-78.5 -83t-76.5 -71h-100v24
q31 46 64 101.5t62.5 109.5t47.5 93h197z" />
    <glyph glyph-name="OE" unicode="&#x152;" horiz-adv-x="1634" 
d="M693 1479q45 0 87 -4.5t78 -12.5h669v-171h-502v-442h470v-171h-470v-505h502v-173h-666q-37 -6 -79 -10.5t-88 -4.5q-197 0 -326.5 91.5t-193 260t-63.5 398.5q0 229 63.5 396t192.5 257.5t326 90.5zM701 1306q-104 -1 -177 -41t-119 -114.5t-67 -180t-21 -237.5
q0 -177 39 -305.5t123.5 -198t221.5 -71.5q37 0 70.5 6t58.5 14v1106q-26 12 -59 17t-70 5z" />
    <glyph glyph-name="oe" unicode="&#x153;" horiz-adv-x="1700" 
d="M1209 1121q130 0 218.5 -63t134.5 -174t46 -257v-117h-634q3 -188 75 -280.5t210 -92.5q86 0 156 19t145 58v-162q-71 -37 -144 -54.5t-168 -17.5q-126 0 -217.5 52.5t-147.5 155.5q-53 -102 -140.5 -155t-205.5 -53q-136 0 -235 68.5t-153 197t-54 307.5q0 182 51.5 309
t151.5 193.5t243 66.5q114 0 199.5 -52.5t137.5 -154.5q35 67 83.5 113t110.5 69.5t137 23.5zM538 961q-129 0 -187.5 -103t-58.5 -305q0 -135 26.5 -227t81 -139t139.5 -47t139 46.5t79.5 137.5t25.5 226q0 136 -26 227.5t-79.5 137.5t-139.5 46zM1208 969
q-101 0 -161 -77.5t-69 -235.5h443q0 91 -22.5 162t-70 111t-120.5 40z" />
    <glyph glyph-name="Racute" unicode="&#x154;" horiz-adv-x="1123" 
d="M509 1462q168 0 277.5 -45t163.5 -137t54 -233q0 -104 -32.5 -180.5t-90 -129t-134.5 -84.5l353 -653h-222l-307 602h-203v-602h-197v1462h338zM502 1292h-134v-527h150q143 0 213.5 68.5t70.5 204.5t-73 195t-227 59zM870 1929v-20q-21 -30 -56.5 -70.5t-77.5 -84.5
t-84 -84t-76 -69h-128v24q36 47 72 99.5t68.5 105.5t56.5 99h225z" />
    <glyph glyph-name="racute" unicode="&#x155;" horiz-adv-x="749" 
d="M614 1122q26 0 54.5 -3t54.5 -10l-23 -188q-21 7 -47 10.5t-52 3.5q-55 0 -102.5 -25.5t-82.5 -73t-54.5 -113t-19.5 -145.5v-578h-191v1103h151l25 -196h10q28 60 68 109t92.5 77.5t116.5 28.5zM730 1569v-20q-21 -30 -56.5 -70.5t-77.5 -84.5t-84 -84t-76 -69h-128v24
q36 47 72 99.5t68.5 105.5t56.5 99h225z" />
    <glyph glyph-name="uni0156" unicode="&#x156;" horiz-adv-x="1123" 
d="M509 1462q168 0 277.5 -45t163.5 -137t54 -233q0 -104 -32.5 -180.5t-90 -129t-134.5 -84.5l353 -653h-222l-307 602h-203v-602h-197v1462h338zM502 1292h-134v-527h150q143 0 213.5 68.5t70.5 204.5t-73 195t-227 59zM714 -125v-19q-13 -46 -36 -100.5t-52 -109
t-61 -99.5h-110v24q12 36 27 91.5t27 113t17 99.5h188z" />
    <glyph glyph-name="uni0157" unicode="&#x157;" horiz-adv-x="749" 
d="M614 1122q26 0 54.5 -3t54.5 -10l-23 -188q-21 7 -47 10.5t-52 3.5q-55 0 -102.5 -25.5t-82.5 -73t-54.5 -113t-19.5 -145.5v-578h-191v1103h151l25 -196h10q28 60 68 109t92.5 77.5t116.5 28.5zM370 -125v-19q-13 -46 -36 -100.5t-52 -109t-61 -99.5h-110v24
q12 36 27 91.5t27 113t17 99.5h188z" />
    <glyph glyph-name="Rcaron" unicode="&#x158;" horiz-adv-x="1123" 
d="M509 1462q168 0 277.5 -45t163.5 -137t54 -233q0 -104 -32.5 -180.5t-90 -129t-134.5 -84.5l353 -653h-222l-307 602h-203v-602h-197v1462h338zM502 1292h-134v-527h150q143 0 213.5 68.5t70.5 204.5t-73 195t-227 59zM471 1601q-24 45 -62 99.5t-80 108.5t-78 96v23h121
q45 -36 96.5 -86.5t98.5 -104.5q52 58 99.5 103t98.5 88h122v-23q-34 -40 -77 -93.5t-82.5 -109t-63.5 -101.5h-193z" />
    <glyph glyph-name="rcaron" unicode="&#x159;" horiz-adv-x="749" 
d="M614 1122q26 0 54.5 -3t54.5 -10l-23 -188q-21 7 -47 10.5t-52 3.5q-55 0 -102.5 -25.5t-82.5 -73t-54.5 -113t-19.5 -145.5v-578h-191v1103h151l25 -196h10q28 60 68 109t92.5 77.5t116.5 28.5zM333 1241q-24 45 -62 99.5t-80 108.5t-78 96v23h121q45 -36 96.5 -86.5
t98.5 -104.5q52 58 99.5 103t98.5 88h122v-23q-34 -40 -77 -93.5t-82.5 -109t-63.5 -101.5h-193z" />
    <glyph glyph-name="Sacute" unicode="&#x15a;" horiz-adv-x="990" 
d="M906 400q0 -128 -56.5 -222.5t-159.5 -146t-243 -51.5q-70 0 -133.5 7.5t-120 23t-104.5 39.5v195q77 -39 172 -64t187 -25q85 0 142.5 29t87 80.5t29.5 117.5q0 69 -27 116.5t-87.5 87t-162.5 84.5q-73 34 -133.5 72t-103.5 86.5t-66.5 113.5t-23.5 153q-1 119 53 206
t151 134.5t224 46.5q101 0 190 -22t165 -59l-61 -171q-74 36 -147.5 55.5t-146.5 19.5q-74 0 -125 -25.5t-78 -71.5t-27 -108q0 -70 26.5 -117t85.5 -85t156 -82q110 -50 185 -106t113.5 -130.5t38.5 -180.5zM815 1929v-20q-21 -30 -56.5 -70.5t-77.5 -84.5t-84 -84t-76 -69
h-128v24q36 47 72 99.5t68.5 105.5t56.5 99h225z" />
    <glyph glyph-name="sacute" unicode="&#x15b;" horiz-adv-x="847" 
d="M771 304q0 -105 -45 -177.5t-130.5 -109.5t-207.5 -37q-96 0 -170.5 17.5t-133.5 47.5v181q59 -36 140.5 -61.5t161.5 -25.5q101 0 149 40.5t48 111.5q0 41 -19.5 73t-67 63t-132.5 69q-87 41 -150 84.5t-96.5 102t-33.5 146.5q0 138 100 216t265 78q87 0 163 -19.5
t146 -55.5l-63 -150q-58 30 -120.5 49.5t-127.5 19.5q-85 0 -131.5 -34.5t-46.5 -95.5q0 -43 21 -73t70 -59t132 -68q85 -41 147.5 -84t97 -101.5t34.5 -147.5zM732 1569v-20q-21 -30 -56.5 -70.5t-77.5 -84.5t-84 -84t-76 -69h-128v24q36 47 72 99.5t68.5 105.5t56.5 99
h225z" />
    <glyph glyph-name="Scircumflex" unicode="&#x15c;" horiz-adv-x="990" 
d="M906 400q0 -128 -56.5 -222.5t-159.5 -146t-243 -51.5q-70 0 -133.5 7.5t-120 23t-104.5 39.5v195q77 -39 172 -64t187 -25q85 0 142.5 29t87 80.5t29.5 117.5q0 69 -27 116.5t-87.5 87t-162.5 84.5q-73 34 -133.5 72t-103.5 86.5t-66.5 113.5t-23.5 153q-1 119 53 206
t151 134.5t224 46.5q101 0 190 -22t165 -59l-61 -171q-74 36 -147.5 55.5t-146.5 19.5q-74 0 -125 -25.5t-78 -71.5t-27 -108q0 -70 26.5 -117t85.5 -85t156 -82q110 -50 185 -106t113.5 -130.5t38.5 -180.5zM613 1928q24 -45 63 -100t81.5 -109t77.5 -95v-23h-121
q-48 36 -98.5 85.5t-99.5 104.5q-50 -54 -101 -104.5t-95 -85.5h-121v23q37 42 79 96.5t80 109t61 98.5h194z" />
    <glyph glyph-name="scircumflex" unicode="&#x15d;" horiz-adv-x="847" 
d="M771 304q0 -105 -45 -177.5t-130.5 -109.5t-207.5 -37q-96 0 -170.5 17.5t-133.5 47.5v181q59 -36 140.5 -61.5t161.5 -25.5q101 0 149 40.5t48 111.5q0 41 -19.5 73t-67 63t-132.5 69q-87 41 -150 84.5t-96.5 102t-33.5 146.5q0 138 100 216t265 78q87 0 163 -19.5
t146 -55.5l-63 -150q-58 30 -120.5 49.5t-127.5 19.5q-85 0 -131.5 -34.5t-46.5 -95.5q0 -43 21 -73t70 -59t132 -68q85 -41 147.5 -84t97 -101.5t34.5 -147.5zM530 1568q24 -45 63 -100t81.5 -109t77.5 -95v-23h-121q-48 36 -98.5 85.5t-99.5 104.5q-50 -54 -101 -104.5
t-95 -85.5h-121v23q37 42 79 96.5t80 109t61 98.5h194z" />
    <glyph glyph-name="Scedilla" unicode="&#x15e;" horiz-adv-x="990" 
d="M906 400q0 -128 -56.5 -222.5t-159.5 -146t-243 -51.5q-70 0 -133.5 7.5t-120 23t-104.5 39.5v195q77 -39 172 -64t187 -25q85 0 142.5 29t87 80.5t29.5 117.5q0 69 -27 116.5t-87.5 87t-162.5 84.5q-73 34 -133.5 72t-103.5 86.5t-66.5 113.5t-23.5 153q-1 119 53 206
t151 134.5t224 46.5q101 0 190 -22t165 -59l-61 -171q-74 36 -147.5 55.5t-146.5 19.5q-74 0 -125 -25.5t-78 -71.5t-27 -108q0 -70 26.5 -117t85.5 -85t156 -82q110 -50 185 -106t113.5 -130.5t38.5 -180.5zM666 -278q0 -102 -68.5 -158t-202.5 -56q-36 0 -66.5 4t-52.5 10
v118q22 -5 50.5 -8.5t55.5 -3.5q62 0 95.5 23t33.5 69q0 51 -45.5 77.5t-124.5 35.5l78 167h118l-45 -99q52 -11 91 -34t61 -59t22 -86z" />
    <glyph glyph-name="scedilla" unicode="&#x15f;" horiz-adv-x="847" 
d="M771 304q0 -105 -45 -177.5t-130.5 -109.5t-207.5 -37q-96 0 -170.5 17.5t-133.5 47.5v181q59 -36 140.5 -61.5t161.5 -25.5q101 0 149 40.5t48 111.5q0 41 -19.5 73t-67 63t-132.5 69q-87 41 -150 84.5t-96.5 102t-33.5 146.5q0 138 100 216t265 78q87 0 163 -19.5
t146 -55.5l-63 -150q-58 30 -120.5 49.5t-127.5 19.5q-85 0 -131.5 -34.5t-46.5 -95.5q0 -43 21 -73t70 -59t132 -68q85 -41 147.5 -84t97 -101.5t34.5 -147.5zM609 -278q0 -102 -68.5 -158t-202.5 -56q-36 0 -66.5 4t-52.5 10v118q22 -5 50.5 -8.5t55.5 -3.5q62 0 95.5 23
t33.5 69q0 51 -45.5 77.5t-124.5 35.5l78 167h118l-45 -99q52 -11 91 -34t61 -59t22 -86z" />
    <glyph glyph-name="Scaron" unicode="&#x160;" horiz-adv-x="990" 
d="M906 400q0 -128 -56.5 -222.5t-159.5 -146t-243 -51.5q-70 0 -133.5 7.5t-120 23t-104.5 39.5v195q77 -39 172 -64t187 -25q85 0 142.5 29t87 80.5t29.5 117.5q0 69 -27 116.5t-87.5 87t-162.5 84.5q-73 34 -133.5 72t-103.5 86.5t-66.5 113.5t-23.5 153q-1 119 53 206
t151 134.5t224 46.5q101 0 190 -22t165 -59l-61 -171q-74 36 -147.5 55.5t-146.5 19.5q-74 0 -125 -25.5t-78 -71.5t-27 -108q0 -70 26.5 -117t85.5 -85t156 -82q110 -50 185 -106t113.5 -130.5t38.5 -180.5zM419 1601q-24 45 -62 99.5t-80 108.5t-78 96v23h121
q45 -36 96.5 -86.5t98.5 -104.5q52 58 99.5 103t98.5 88h122v-23q-34 -40 -77 -93.5t-82.5 -109t-63.5 -101.5h-193z" />
    <glyph glyph-name="scaron" unicode="&#x161;" horiz-adv-x="847" 
d="M771 304q0 -105 -45 -177.5t-130.5 -109.5t-207.5 -37q-96 0 -170.5 17.5t-133.5 47.5v181q59 -36 140.5 -61.5t161.5 -25.5q101 0 149 40.5t48 111.5q0 41 -19.5 73t-67 63t-132.5 69q-87 41 -150 84.5t-96.5 102t-33.5 146.5q0 138 100 216t265 78q87 0 163 -19.5
t146 -55.5l-63 -150q-58 30 -120.5 49.5t-127.5 19.5q-85 0 -131.5 -34.5t-46.5 -95.5q0 -43 21 -73t70 -59t132 -68q85 -41 147.5 -84t97 -101.5t34.5 -147.5zM336 1241q-24 45 -62 99.5t-80 108.5t-78 96v23h121q45 -36 96.5 -86.5t98.5 -104.5q52 58 99.5 103t98.5 88
h122v-23q-34 -40 -77 -93.5t-82.5 -109t-63.5 -101.5h-193z" />
    <glyph glyph-name="uni0162" unicode="&#x162;" horiz-adv-x="970" 
d="M583 0h-197v1289h-363v173h922v-173h-362v-1289zM678 -278q0 -102 -68.5 -158t-202.5 -56q-36 0 -66.5 4t-52.5 10v118q22 -5 50.5 -8.5t55.5 -3.5q62 0 95.5 23t33.5 69q0 51 -45.5 77.5t-124.5 35.5l78 167h118l-45 -99q52 -11 91 -34t61 -59t22 -86z" />
    <glyph glyph-name="uni0163" unicode="&#x163;" horiz-adv-x="661" 
d="M485 142q35 0 70.5 6.5t64.5 18.5v-151q-35 -16 -83 -26t-101 -10q-84 0 -145.5 32.5t-94.5 103.5t-33 188v645h-129v96l137 61l59 244h125v-247h254v-154h-254v-635q0 -87 32.5 -129.5t97.5 -42.5zM587 -278q0 -102 -68.5 -158t-202.5 -56q-36 0 -66.5 4t-52.5 10v118
q22 -5 50.5 -8.5t55.5 -3.5q62 0 95.5 23t33.5 69q0 51 -45.5 77.5t-124.5 35.5l78 167h118l-45 -99q52 -11 91 -34t61 -59t22 -86z" />
    <glyph glyph-name="Tcaron" unicode="&#x164;" horiz-adv-x="970" 
d="M583 0h-197v1289h-363v173h922v-173h-362v-1289zM388 1601q-24 45 -62 99.5t-80 108.5t-78 96v23h121q45 -36 96.5 -86.5t98.5 -104.5q52 58 99.5 103t98.5 88h122v-23q-34 -40 -77 -93.5t-82.5 -109t-63.5 -101.5h-193z" />
    <glyph glyph-name="tcaron" unicode="&#x165;" horiz-adv-x="661" 
d="M485 142q35 0 70.5 6.5t64.5 18.5v-151q-35 -16 -83 -26t-101 -10q-84 0 -145.5 32.5t-94.5 103.5t-33 188v645h-129v96l137 61l59 244h125v-247h254v-154h-254v-635q0 -87 32.5 -129.5t97.5 -42.5zM882 1556v-19q-11 -43 -33.5 -99t-49.5 -111.5t-55 -97.5h-109v23
q7 24 15.5 63t17 83.5t14.5 86.5t9 71h191z" />
    <glyph glyph-name="Tbar" unicode="&#x166;" horiz-adv-x="970" 
d="M385 0v656h-251v160h251v472h-362v174h922v-174h-363v-472h251v-160h-251v-656h-197z" />
    <glyph glyph-name="tbar" unicode="&#x167;" horiz-adv-x="661" 
d="M44 550v140h549v-140h-549zM485 142q35 0 70.5 6.5t64.5 18.5v-151q-35 -16 -83 -26t-101 -10q-84 0 -145.5 32.5t-94.5 103.5t-33 188v645h-129v96l137 61l59 244h125v-247h254v-154h-254v-635q0 -87 32.5 -129.5t97.5 -42.5z" />
    <glyph glyph-name="Utilde" unicode="&#x168;" horiz-adv-x="1295" 
d="M1136 1462v-972q0 -161 -55 -275t-164 -174.5t-272 -60.5q-238 0 -362.5 132.5t-124.5 377.5v972h198v-967q0 -175 74.5 -258.5t219.5 -83.5q98 0 162 38t95.5 114.5t31.5 190.5v966h197zM303 1602q5 57 19.5 105t39 83.5t60.5 55t82 19.5q42 0 80 -17.5t73.5 -40.5
t69 -40.5t65.5 -17.5q37 0 58.5 30.5t32.5 87.5h110q-9 -126 -63 -194.5t-137 -68.5q-41 0 -79.5 17.5t-74.5 40.5t-69 40.5t-63 17.5q-36 0 -59.5 -29.5t-34.5 -88.5h-110z" />
    <glyph glyph-name="utilde" unicode="&#x169;" horiz-adv-x="1114" 
d="M963 1103v-1103h-152l-25 152h-11q-29 -55 -73.5 -93.5t-101 -58.5t-122.5 -20q-112 0 -186.5 45t-111.5 134.5t-37 220.5v723h192v-688q0 -137 45 -204t138 -67q94 0 149.5 43t79.5 129t24 212v575h192zM212 1242q5 57 19.5 105t39 83.5t60.5 55t82 19.5q42 0 80 -17.5
t73.5 -40.5t69 -40.5t65.5 -17.5q37 0 58.5 30.5t32.5 87.5h110q-9 -126 -63 -194.5t-137 -68.5q-41 0 -79.5 17.5t-74.5 40.5t-69 40.5t-63 17.5q-36 0 -59.5 -29.5t-34.5 -88.5h-110z" />
    <glyph glyph-name="Umacron" unicode="&#x16a;" horiz-adv-x="1295" 
d="M1136 1462v-972q0 -161 -55 -275t-164 -174.5t-272 -60.5q-238 0 -362.5 132.5t-124.5 377.5v972h198v-967q0 -175 74.5 -258.5t219.5 -83.5q98 0 162 38t95.5 114.5t31.5 190.5v966h197zM929 1756v-145h-563v145h563z" />
    <glyph glyph-name="umacron" unicode="&#x16b;" horiz-adv-x="1114" 
d="M963 1103v-1103h-152l-25 152h-11q-29 -55 -73.5 -93.5t-101 -58.5t-122.5 -20q-112 0 -186.5 45t-111.5 134.5t-37 220.5v723h192v-688q0 -137 45 -204t138 -67q94 0 149.5 43t79.5 129t24 212v575h192zM840 1396v-145h-563v145h563z" />
    <glyph glyph-name="Ubreve" unicode="&#x16c;" horiz-adv-x="1295" 
d="M1136 1462v-972q0 -161 -55 -275t-164 -174.5t-272 -60.5q-238 0 -362.5 132.5t-124.5 377.5v972h198v-967q0 -175 74.5 -258.5t219.5 -83.5q98 0 162 38t95.5 114.5t31.5 190.5v966h197zM945 1888q-4 -87 -41.5 -151t-103 -99.5t-154.5 -35.5q-134 0 -209 74.5
t-81 211.5h118q6 -53 27.5 -83.5t59 -43.5t89.5 -13q47 0 85 13t62 44t29 83h119z" />
    <glyph glyph-name="ubreve" unicode="&#x16d;" horiz-adv-x="1114" 
d="M963 1103v-1103h-152l-25 152h-11q-29 -55 -73.5 -93.5t-101 -58.5t-122.5 -20q-112 0 -186.5 45t-111.5 134.5t-37 220.5v723h192v-688q0 -137 45 -204t138 -67q94 0 149.5 43t79.5 129t24 212v575h192zM855 1528q-4 -87 -41.5 -151t-103 -99.5t-154.5 -35.5
q-134 0 -209 74.5t-81 211.5h118q6 -53 27.5 -83.5t59 -43.5t89.5 -13q47 0 85 13t62 44t29 83h119z" />
    <glyph glyph-name="Uring" unicode="&#x16e;" horiz-adv-x="1295" 
d="M1136 1462v-972q0 -161 -55 -275t-164 -174.5t-272 -60.5q-238 0 -362.5 132.5t-124.5 377.5v972h198v-967q0 -175 74.5 -258.5t219.5 -83.5q98 0 162 38t95.5 114.5t31.5 190.5v966h197zM649 1604q-100 0 -161.5 58.5t-61.5 157.5t61 157t162 58q96 0 160.5 -58
t64.5 -155q0 -100 -63 -159t-162 -59zM650 1711q48 0 79 29.5t31 79.5t-30.5 80t-79.5 30q-48 0 -79.5 -30t-31.5 -80q0 -49 28 -79t83 -30z" />
    <glyph glyph-name="uring" unicode="&#x16f;" horiz-adv-x="1114" 
d="M963 1103v-1103h-152l-25 152h-11q-29 -55 -73.5 -93.5t-101 -58.5t-122.5 -20q-112 0 -186.5 45t-111.5 134.5t-37 220.5v723h192v-688q0 -137 45 -204t138 -67q94 0 149.5 43t79.5 129t24 212v575h192zM558 1244q-100 0 -161.5 58.5t-61.5 157.5t61 157t162 58
q96 0 160.5 -58t64.5 -155q0 -100 -63 -159t-162 -59zM559 1351q48 0 79 29.5t31 79.5t-30.5 80t-79.5 30q-48 0 -79.5 -30t-31.5 -80q0 -49 28 -79t83 -30z" />
    <glyph glyph-name="Uhungarumlaut" unicode="&#x170;" horiz-adv-x="1295" 
d="M1136 1462v-972q0 -161 -55 -275t-164 -174.5t-272 -60.5q-238 0 -362.5 132.5t-124.5 377.5v972h198v-967q0 -175 74.5 -258.5t219.5 -83.5q98 0 162 38t95.5 114.5t31.5 190.5v966h197zM1105 1929v-20q-17 -29 -48.5 -70t-70 -85.5t-78 -84.5t-72.5 -68h-103v24
q31 44 64.5 100.5t63.5 111t47 92.5h197zM771 1929v-20q-17 -30 -47.5 -70.5t-68.5 -83.5t-78.5 -83t-76.5 -71h-100v24q31 46 64 101.5t62.5 109.5t47.5 93h197z" />
    <glyph glyph-name="uhungarumlaut" unicode="&#x171;" horiz-adv-x="1114" 
d="M963 1103v-1103h-152l-25 152h-11q-29 -55 -73.5 -93.5t-101 -58.5t-122.5 -20q-112 0 -186.5 45t-111.5 134.5t-37 220.5v723h192v-688q0 -137 45 -204t138 -67q94 0 149.5 43t79.5 129t24 212v575h192zM1014 1569v-20q-17 -29 -48.5 -70t-70 -85.5t-78 -84.5t-72.5 -68
h-103v24q31 44 64.5 100.5t63.5 111t47 92.5h197zM680 1569v-20q-17 -30 -47.5 -70.5t-68.5 -83.5t-78.5 -83t-76.5 -71h-100v24q31 46 64 101.5t62.5 109.5t47.5 93h197z" />
    <glyph glyph-name="Uogonek" unicode="&#x172;" horiz-adv-x="1295" 
d="M795 -228q0 -53 24.5 -78t66.5 -25q26 0 49.5 5t37.5 9v-126q-25 -8 -55.5 -13t-66.5 -5q-104 0 -156 53t-52 152q0 58 26 113.5t67.5 103.5t88.5 83l162 50q-70 -72 -112 -128t-61 -102.5t-19 -91.5zM1136 1462v-972q0 -161 -55 -275t-164 -174.5t-272 -60.5
q-238 0 -362.5 132.5t-124.5 377.5v972h198v-967q0 -175 74.5 -258.5t219.5 -83.5q98 0 162 38t95.5 114.5t31.5 190.5v966h197z" />
    <glyph glyph-name="uogonek" unicode="&#x173;" horiz-adv-x="1114" 
d="M963 1103v-1103h-152l-25 152h-11q-29 -55 -73.5 -93.5t-101 -58.5t-122.5 -20q-112 0 -186.5 45t-111.5 134.5t-37 220.5v723h192v-688q0 -137 45 -204t138 -67q94 0 149.5 43t79.5 129t24 212v575h192zM798 -236q0 -47 24 -71.5t67 -24.5q28 0 49 4.5t36 9.5v-125
q-24 -7 -52.5 -12.5t-65.5 -5.5q-105 0 -157.5 51.5t-52.5 144.5q0 55 24 108t66 100.5t94 85.5l102 -29q-70 -67 -102 -122t-32 -114z" />
    <glyph glyph-name="Wcircumflex" unicode="&#x174;" horiz-adv-x="1701" 
d="M1687 1462l-342 -1462h-220l-222 911q-7 30 -15 66.5t-16 76.5t-14 79t-11 73q-3 -26 -8 -61.5t-12.5 -75t-16 -80.5t-17.5 -78l-218 -911h-218l-342 1462h199l197 -883q10 -47 19.5 -95t18 -94.5t15 -88.5t10.5 -78q6 42 13.5 88t16 92.5t18 91t18.5 83.5l214 884h188
l216 -885q10 -41 19.5 -85t18 -90t16 -91t12.5 -88q8 56 18 117t21.5 122t24.5 118l198 882h201zM948 1928q24 -45 63 -100t81.5 -109t77.5 -95v-23h-121q-48 36 -98.5 85.5t-99.5 104.5q-50 -54 -101 -104.5t-95 -85.5h-121v23q37 42 79 96.5t80 109t61 98.5h194z" />
    <glyph glyph-name="wcircumflex" unicode="&#x175;" horiz-adv-x="1446" 
d="M933 1l-146 614q-8 34 -17 73.5t-17 79t-15 75.5t-12 63h-6q-4 -28 -11 -64.5t-15 -76.5t-17 -79t-18 -73l-153 -612h-215l-271 1102h193l130 -557q12 -56 24 -116t21.5 -117t15.5 -105h7q5 31 11 69.5t14 81t17 85.5t19 82l148 577h211l145 -579q11 -43 22 -97t21 -110
t16 -108h8q3 34 11 81t18.5 101.5t23.5 109.5l141 602h189l-274 -1102h-219zM821 1568q24 -45 63 -100t81.5 -109t77.5 -95v-23h-121q-48 36 -98.5 85.5t-99.5 104.5q-50 -54 -101 -104.5t-95 -85.5h-121v23q37 42 79 96.5t80 109t61 98.5h194z" />
    <glyph glyph-name="Ycircumflex" unicode="&#x176;" horiz-adv-x="1005" 
d="M503 774l293 688h209l-404 -894v-568h-197v561l-404 901h210zM600 1928q24 -45 63 -100t81.5 -109t77.5 -95v-23h-121q-48 36 -98.5 85.5t-99.5 104.5q-50 -54 -101 -104.5t-95 -85.5h-121v23q37 42 79 96.5t80 109t61 98.5h194z" />
    <glyph glyph-name="ycircumflex" unicode="&#x177;" horiz-adv-x="924" 
d="M6 1103h203l192 -626q13 -45 25 -88t21.5 -84t14.5 -81h8q9 53 26 118t38 135l184 626h202l-402 -1261q-35 -111 -83.5 -185.5t-115 -111.5t-156.5 -37q-38 0 -69 5t-58 12v161q20 -6 46.5 -10t52.5 -4q51 0 87 21.5t62.5 66.5t48.5 114l41 131zM559 1568q24 -45 63 -100
t81.5 -109t77.5 -95v-23h-121q-48 36 -98.5 85.5t-99.5 104.5q-50 -54 -101 -104.5t-95 -85.5h-121v23q37 42 79 96.5t80 109t61 98.5h194z" />
    <glyph glyph-name="Ydieresis" unicode="&#x178;" horiz-adv-x="1005" 
d="M503 774l293 688h209l-404 -894v-568h-197v561l-404 901h210zM220 1745q0 55 28.5 81t69.5 26q42 0 70.5 -26t28.5 -81q0 -53 -28.5 -80.5t-70.5 -27.5q-41 0 -69.5 27t-28.5 81zM584 1745q0 55 28.5 81t69.5 26q42 0 71 -26t29 -81q0 -53 -29 -80.5t-71 -27.5t-70 27.5
t-28 80.5z" />
    <glyph glyph-name="Zacute" unicode="&#x179;" horiz-adv-x="972" 
d="M915 0h-854v145l612 1144h-595v173h820v-145l-612 -1143h629v-174zM790 1929v-20q-21 -30 -56.5 -70.5t-77.5 -84.5t-84 -84t-76 -69h-128v24q36 47 72 99.5t68.5 105.5t56.5 99h225z" />
    <glyph glyph-name="zacute" unicode="&#x17a;" horiz-adv-x="806" 
d="M747 0h-685v124l458 823h-430v156h643v-136l-451 -812h465v-155zM709 1569v-20q-21 -30 -56.5 -70.5t-77.5 -84.5t-84 -84t-76 -69h-128v24q36 47 72 99.5t68.5 105.5t56.5 99h225z" />
    <glyph glyph-name="Zdotaccent" unicode="&#x17b;" horiz-adv-x="972" 
d="M915 0h-854v145l612 1144h-595v173h820v-145l-612 -1143h629v-174zM499 1880q51 0 80.5 -30t29.5 -91q0 -60 -30 -90.5t-80 -30.5q-49 0 -80 30.5t-31 90.5q0 62 30 91.5t81 29.5z" />
    <glyph glyph-name="zdotaccent" unicode="&#x17c;" horiz-adv-x="806" 
d="M747 0h-685v124l458 823h-430v156h643v-136l-451 -812h465v-155zM417 1521q51 0 80.5 -30t29.5 -91q0 -60 -30 -90.5t-80 -30.5q-49 0 -80 30.5t-31 90.5q0 62 30 91.5t81 29.5z" />
    <glyph glyph-name="Zcaron" unicode="&#x17d;" horiz-adv-x="972" 
d="M915 0h-854v145l612 1144h-595v173h820v-145l-612 -1143h629v-174zM394 1601q-24 45 -62 99.5t-80 108.5t-78 96v23h121q45 -36 96.5 -86.5t98.5 -104.5q52 58 99.5 103t98.5 88h122v-23q-34 -40 -77 -93.5t-82.5 -109t-63.5 -101.5h-193z" />
    <glyph glyph-name="zcaron" unicode="&#x17e;" horiz-adv-x="806" 
d="M747 0h-685v124l458 823h-430v156h643v-136l-451 -812h465v-155zM312 1241q-24 45 -62 99.5t-80 108.5t-78 96v23h121q45 -36 96.5 -86.5t98.5 -104.5q52 58 99.5 103t98.5 88h122v-23q-34 -40 -77 -93.5t-82.5 -109t-63.5 -101.5h-193z" />
    <glyph glyph-name="longs" unicode="&#x17f;" horiz-adv-x="587" 
d="M487 1406q-72 0 -104.5 -52t-33.5 -173v-1181h-193v1178q0 135 35 221t104.5 127t173.5 41q57 0 103.5 -10t89.5 -27l-46 -149q-29 10 -62 17.5t-67 7.5z" />
    <glyph glyph-name="florin" unicode="&#x192;" horiz-adv-x="1004" 
d="M699 1483q59 0 109 -12t96 -31l-48 -148q-31 13 -64.5 21.5t-68.5 8.5q-73 0 -104.5 -49.5t-31.5 -166.5v-129h227v-154h-225v-939q0 -125 -31.5 -209t-98.5 -125.5t-174 -41.5q-43 0 -80.5 6t-68.5 14v161q32 -9 62 -14t60 -5q71 0 104.5 47t33.5 157v949h-174v98
l174 60v126q0 135 33.5 218t101.5 120.5t168 37.5z" />
    <glyph glyph-name="Ohorn" unicode="&#x1a0;" horiz-adv-x="1386" 
d="M1260 733q0 -165 -34.5 -303t-105 -239t-178 -156t-254.5 -55q-151 0 -260 56t-179 157t-104 239.5t-34 302.5q0 237 64 404.5t192.5 256t321.5 88.5q144 0 252.5 -53.5t180.5 -155.5q46 23 70 62.5t34 95t10 123.5h188l14 -23q-19 -149 -77 -245t-171 -141
q36 -84 53 -188t17 -226zM317 733q0 -184 40.5 -314t122.5 -198t207 -68q126 0 207 67.5t120 197t39 315.5q0 280 -88.5 429t-275.5 149q-127 0 -209 -67.5t-122.5 -196.5t-40.5 -314z" />
    <glyph glyph-name="ohorn" unicode="&#x1a1;" horiz-adv-x="1133" 
d="M988 553q0 -182 -53.5 -310.5t-153.5 -195.5t-242 -67q-133 0 -233 67.5t-155 195.5t-55 310q0 276 118 423t330 147q99 0 180.5 -37t138.5 -108q50 17 77.5 57.5t38.5 100t12 132.5h186l15 -23q-14 -106 -44.5 -183t-82.5 -127.5t-131 -77.5q27 -62 40.5 -138t13.5 -166
zM292 553q0 -136 27 -227.5t82.5 -138.5t141.5 -47q87 0 142 47t81 139t26 227q0 134 -26 225t-81 137t-143 46q-131 0 -190.5 -103t-59.5 -305z" />
    <glyph glyph-name="Uhorn" unicode="&#x1af;" horiz-adv-x="1427" 
d="M1136 1462v-201q60 12 93 51.5t45.5 102t12.5 141.5h187l14 -23q-11 -88 -35 -158.5t-65 -121.5t-103 -82.5t-149 -42.5v-617q0 -165 -53.5 -284t-161 -183t-271.5 -64q-240 0 -366 140t-126 392v950h198v-950q0 -179 75.5 -269t221.5 -90q98 0 161.5 41.5t94 121.5
t30.5 197v949h197z" />
    <glyph glyph-name="uhorn" unicode="&#x1b0;" horiz-adv-x="1246" 
d="M1296 1269l13 -24q-10 -88 -33.5 -158.5t-64 -121.5t-101.5 -83t-147 -42v-840h-152l-25 152h-12q-28 -55 -72.5 -93.5t-100.5 -58.5t-122 -20q-112 0 -187 45.5t-112 134.5t-37 220v722h192v-687q0 -137 45 -204t138 -67q137 0 195 95t58 297v566h192v-128
q58 12 89.5 52t44 102.5t12.5 140.5h187z" />
    <glyph glyph-name="uni01EA" unicode="&#x1ea;" horiz-adv-x="1372" 
d="M1261 733q0 -165 -34.5 -303t-105 -239t-178.5 -156t-255 -55q-150 0 -259 56t-179.5 157t-104.5 239.5t-34 302.5q0 237 64 404.5t192.5 256t321.5 88.5q195 0 321.5 -95t188.5 -264t62 -392zM317 733q0 -184 40.5 -314t123 -198t206.5 -68q126 0 207 67.5t120.5 197
t39.5 315.5q0 280 -89 429t-276 149q-126 0 -208.5 -67.5t-123 -196.5t-40.5 -314zM673 -236q0 -47 24 -71.5t67 -24.5q28 0 49 4.5t36 9.5v-125q-24 -7 -52.5 -12.5t-65.5 -5.5q-105 0 -157.5 51.5t-52.5 144.5q0 55 24 108t66 100.5t94 85.5l102 -29q-70 -67 -102 -122
t-32 -114z" />
    <glyph glyph-name="uni01EB" unicode="&#x1eb;" horiz-adv-x="1084" 
d="M988 553q0 -131 -29 -237t-85.5 -181t-140.5 -115t-194 -40q-103 0 -185 40t-139.5 114.5t-88 180.5t-30.5 238q0 180 51.5 307.5t151.5 195t245 67.5q136 0 236 -66t154 -193t54 -311zM292 553q0 -132 26.5 -224t82 -140t142.5 -48t142 47.5t81 139.5t26 225
q0 131 -26 222t-81 138.5t-143 47.5q-131 0 -190.5 -104.5t-59.5 -303.5zM530 -236q0 -47 24 -71.5t67 -24.5q28 0 49 4.5t36 9.5v-125q-24 -7 -52.5 -12.5t-65.5 -5.5q-105 0 -157.5 51.5t-52.5 144.5q0 55 24 108t66 100.5t94 85.5l102 -29q-70 -67 -102 -122t-32 -114z
" />
    <glyph glyph-name="uni01EC" unicode="&#x1ec;" horiz-adv-x="1372" 
d="M1261 733q0 -165 -34.5 -303t-105 -239t-178.5 -156t-255 -55q-150 0 -259 56t-179.5 157t-104.5 239.5t-34 302.5q0 237 64 404.5t192.5 256t321.5 88.5q195 0 321.5 -95t188.5 -264t62 -392zM317 733q0 -184 40.5 -314t123 -198t206.5 -68q126 0 207 67.5t120.5 197
t39.5 315.5q0 280 -89 429t-276 149q-126 0 -208.5 -67.5t-123 -196.5t-40.5 -314zM968 1756v-145h-563v145h563zM684 -236q0 -47 24 -71.5t67 -24.5q28 0 49 4.5t36 9.5v-125q-24 -7 -52.5 -12.5t-65.5 -5.5q-105 0 -157.5 51.5t-52.5 144.5q0 55 24 108t66 100.5t94 85.5
l102 -29q-70 -67 -102 -122t-32 -114z" />
    <glyph glyph-name="uni01ED" unicode="&#x1ed;" horiz-adv-x="1084" 
d="M988 553q0 -131 -29 -237t-85.5 -181t-140.5 -115t-194 -40q-103 0 -185 40t-139.5 114.5t-88 180.5t-30.5 238q0 180 51.5 307.5t151.5 195t245 67.5q136 0 236 -66t154 -193t54 -311zM292 553q0 -132 26.5 -224t82 -140t142.5 -48t142 47.5t81 139.5t26 225
q0 131 -26 222t-81 138.5t-143 47.5q-131 0 -190.5 -104.5t-59.5 -303.5zM823 1396v-145h-563v145h563zM530 -236q0 -47 24 -71.5t67 -24.5q28 0 49 4.5t36 9.5v-125q-24 -7 -52.5 -12.5t-65.5 -5.5q-105 0 -157.5 51.5t-52.5 144.5q0 55 24 108t66 100.5t94 85.5l102 -29
q-70 -67 -102 -122t-32 -114z" />
    <glyph glyph-name="uni01F0" unicode="&#x1f0;" horiz-adv-x="494" 
d="M63 -492q-40 0 -76.5 6.5t-60.5 15.5v161q25 -9 50.5 -14t54.5 -5q57 0 88.5 39t31.5 131v1261h191v-1265q0 -104 -30.5 -178t-92.5 -113t-156 -39zM150 1241q-24 45 -62 99.5t-80 108.5t-78 96v23h121q45 -36 96.5 -86.5t98.5 -104.5q52 58 99.5 103t98.5 88h122v-23
q-34 -40 -77 -93.5t-82.5 -109t-63.5 -101.5h-193z" />
    <glyph glyph-name="Aringacute" unicode="&#x1fa;" horiz-adv-x="1137" 
d="M-1 0l435 1276q-42 23 -66.5 64t-24.5 99q0 99 61.5 157.5t161.5 58.5q97 0 161.5 -58t64.5 -156q0 -59 -25 -100.5t-67 -63.5l438 -1277h-210l-124 380h-474l-122 -380h-209zM378 554h381l-134 420q-10 34 -21 73.5t-21 77.5t-16 66q-5 -22 -11.5 -48t-14 -53.5
t-14.5 -52.5t-12 -44zM566 1329q50 0 80.5 29.5t30.5 81.5q0 49 -30.5 79t-80.5 30q-49 0 -80 -30t-31 -79q0 -51 29 -81t82 -30zM462 1709v19q43 50 76 91.5t57.5 77t42.5 67.5h228v-15q-17 -23 -48.5 -55t-70.5 -65.5t-78.5 -64.5t-72.5 -55h-134z" />
    <glyph glyph-name="aringacute" unicode="&#x1fb;" horiz-adv-x="1015" 
d="M520 1122q179 0 265 -94t86 -285v-743h-141l-33 157h-6q-38 -58 -81 -97.5t-99 -59.5t-134 -20q-94 0 -160 41t-101.5 115t-35.5 173q0 167 112 255.5t330 96.5l159 8v65q0 125 -45.5 180t-135.5 55q-66 0 -131 -20.5t-132 -56.5l-59 142q72 41 159.5 64.5t182.5 23.5z
M681 538l-125 -6q-149 -7 -214 -62.5t-65 -158.5q0 -92 43.5 -135.5t117.5 -43.5q109 0 176 78.5t67 223.5v104zM519 1541q-48 0 -79.5 -30.5t-31.5 -79.5q0 -50 28.5 -80t82.5 -30q49 0 79.5 30t30.5 80q0 49 -30.5 79.5t-79.5 30.5zM519 1646q65 0 116 -26t80.5 -74
t29.5 -114q0 -99 -63 -158t-163 -59t-161.5 58t-61.5 158q0 98 61.5 156.5t161.5 58.5zM829 1958v-13q-24 -32 -76.5 -77.5t-110.5 -89t-98 -69.5h-138v18q39 45 71.5 85t58.5 76.5t46 69.5h247z" />
    <glyph glyph-name="AEacute" unicode="&#x1fc;" horiz-adv-x="1557" 
d="M1453 0h-696v438h-387l-165 -438h-208l560 1462h896v-172h-499v-441h467v-171h-467v-505h499v-173zM432 613h326v674h-77zM1135 1929v-20q-21 -30 -56.5 -70.5t-77.5 -84.5t-84 -84t-76 -69h-128v24q36 47 72 99.5t68.5 105.5t56.5 99h225z" />
    <glyph glyph-name="aeacute" unicode="&#x1fd;" horiz-adv-x="1569" 
d="M1088 1122q126 0 213 -63t132 -174t44 -256v-117h-618q3 -189 72.5 -282t201.5 -93q82 0 153 19t144 58v-162q-70 -37 -143.5 -54.5t-165.5 -17.5q-84 0 -156 26t-127 76.5t-91 123.5q-41 -74 -91.5 -124.5t-116.5 -76t-154 -25.5q-95 0 -163.5 41t-105 115t-36.5 174
q0 111 49 187t145 117.5t237 46.5l157 7v73q0 119 -46.5 173.5t-133.5 54.5q-63 0 -128.5 -20t-131.5 -56l-60 141q69 39 155 63.5t179 24.5q108 0 178.5 -39.5t107.5 -124.5q49 79 124 121.5t176 42.5zM667 537l-120 -5q-144 -7 -207 -62t-63 -159q0 -91 41.5 -135
t115.5 -44q69 0 121.5 35t82 101.5t29.5 161.5v107zM1086 969q-98 0 -157 -77.5t-67 -235.5h429q0 92 -22 162.5t-67.5 110.5t-115.5 40zM1097 1569v-20q-21 -30 -56.5 -70.5t-77.5 -84.5t-84 -84t-76 -69h-128v24q36 47 72 99.5t68.5 105.5t56.5 99h225z" />
    <glyph glyph-name="Oslashacute" unicode="&#x1fe;" horiz-adv-x="1374" 
d="M1263 733q0 -174 -36 -313.5t-108 -237.5t-179.5 -150t-250.5 -52q-95 0 -173.5 23.5t-140.5 69.5l-92 -158l-119 66l107 185q-81 103 -119.5 246t-38.5 323q0 237 64 404.5t192.5 256t321.5 88.5q92 0 171 -24.5t142 -71.5l89 149l117 -68l-103 -176q77 -97 116.5 -238
t39.5 -322zM1059 733q0 111 -17 203.5t-50 160.5l-523 -863q42 -41 97 -62t123 -21q126 0 208 68t122 198t40 316zM318 733q0 -116 17 -210t51 -164l525 866q-42 44 -96.5 65.5t-123.5 21.5q-127 0 -209.5 -67.5t-123 -197t-40.5 -314.5zM993 1929v-20q-21 -30 -56.5 -70.5
t-77.5 -84.5t-84 -84t-76 -69h-128v24q36 47 72 99.5t68.5 105.5t56.5 99h225z" />
    <glyph glyph-name="oslashacute" unicode="&#x1ff;" horiz-adv-x="1086" 
d="M990 553q0 -182 -53.5 -310.5t-154 -195.5t-241.5 -67q-65 0 -121 16t-103 47l-84 -145l-112 67l97 165q-59 78 -89.5 183.5t-30.5 239.5q0 276 117.5 423t330.5 147q66 0 123 -17.5t105 -52.5l76 129l113 -66l-88 -152q56 -74 85.5 -177.5t29.5 -233.5zM291 553
q0 -75 9 -136.5t27 -107.5l365 599q-28 27 -65.5 41.5t-82.5 14.5q-132 0 -192.5 -105.5t-60.5 -305.5zM798 553q0 70 -8.5 128t-24.5 102l-362 -596q26 -25 62.5 -37.5t78.5 -12.5q88 0 144.5 48.5t83 141t26.5 226.5zM847 1569v-20q-21 -30 -56.5 -70.5t-77.5 -84.5
t-84 -84t-76 -69h-128v24q36 47 72 99.5t68.5 105.5t56.5 99h225z" />
    <glyph glyph-name="uni0218" unicode="&#x218;" horiz-adv-x="990" 
d="M906 400q0 -128 -56.5 -222.5t-159.5 -146t-243 -51.5q-70 0 -133.5 7.5t-120 23t-104.5 39.5v195q77 -39 172 -64t187 -25q85 0 142.5 29t87 80.5t29.5 117.5q0 69 -27 116.5t-87.5 87t-162.5 84.5q-73 34 -133.5 72t-103.5 86.5t-66.5 113.5t-23.5 153q-1 119 53 206
t151 134.5t224 46.5q101 0 190 -22t165 -59l-61 -171q-74 36 -147.5 55.5t-146.5 19.5q-74 0 -125 -25.5t-78 -71.5t-27 -108q0 -70 26.5 -117t85.5 -85t156 -82q110 -50 185 -106t113.5 -130.5t38.5 -180.5zM588 -125v-19q-13 -46 -36 -100.5t-52 -109t-61 -99.5h-110v24
q12 36 27 91.5t27 113t17 99.5h188z" />
    <glyph glyph-name="uni0219" unicode="&#x219;" horiz-adv-x="847" 
d="M771 304q0 -105 -45 -177.5t-130.5 -109.5t-207.5 -37q-96 0 -170.5 17.5t-133.5 47.5v181q59 -36 140.5 -61.5t161.5 -25.5q101 0 149 40.5t48 111.5q0 41 -19.5 73t-67 63t-132.5 69q-87 41 -150 84.5t-96.5 102t-33.5 146.5q0 138 100 216t265 78q87 0 163 -19.5
t146 -55.5l-63 -150q-58 30 -120.5 49.5t-127.5 19.5q-85 0 -131.5 -34.5t-46.5 -95.5q0 -43 21 -73t70 -59t132 -68q85 -41 147.5 -84t97 -101.5t34.5 -147.5zM532 -125v-19q-13 -46 -36 -100.5t-52 -109t-61 -99.5h-110v24q12 36 27 91.5t27 113t17 99.5h188z" />
    <glyph glyph-name="uni021A" unicode="&#x21a;" horiz-adv-x="970" 
d="M583 0h-197v1289h-363v173h922v-173h-362v-1289zM605 -125v-19q-13 -46 -36 -100.5t-52 -109t-61 -99.5h-110v24q12 36 27 91.5t27 113t17 99.5h188z" />
    <glyph glyph-name="uni021B" unicode="&#x21b;" horiz-adv-x="661" 
d="M485 142q35 0 70.5 6.5t64.5 18.5v-151q-35 -16 -83 -26t-101 -10q-84 0 -145.5 32.5t-94.5 103.5t-33 188v645h-129v96l137 61l59 244h125v-247h254v-154h-254v-635q0 -87 32.5 -129.5t97.5 -42.5zM511 -125v-19q-13 -46 -36 -100.5t-52 -109t-61 -99.5h-110v24
q12 36 27 91.5t27 113t17 99.5h188z" />
    <glyph glyph-name="uni0237" unicode="&#x237;" horiz-adv-x="494" 
d="M63 -492q-40 0 -76.5 6.5t-60.5 15.5v161q25 -9 50.5 -14t54.5 -5q57 0 88.5 39t31.5 131v1261h191v-1265q0 -104 -30.5 -178t-92.5 -113t-156 -39z" />
    <glyph glyph-name="uni0259" unicode="&#x259;" horiz-adv-x="1017" 
d="M455 1122q151 0 255.5 -68t158 -194.5t53.5 -301.5q0 -184 -51 -313t-147 -197t-230 -68q-129 0 -219 63t-137 174.5t-47 257.5v116h638q-4 184 -77 278.5t-213 94.5q-82 0 -153 -19t-147 -58v163q71 37 146 54.5t170 17.5zM726 446h-448q1 -89 24 -160.5t70.5 -113
t121.5 -41.5q101 0 162 79.5t70 235.5z" />
    <glyph glyph-name="uni02BC" unicode="&#x2bc;" horiz-adv-x="387" 
d="M330 1462l15 -22q-18 -80 -44 -163.5t-56 -164.5t-63 -156h-144q15 59 30 125.5t28 134t23 130.5t16 116h195z" />
    <glyph glyph-name="circumflex" unicode="&#x2c6;" horiz-adv-x="800" 
d="M496 1568q24 -45 63 -100t81.5 -109t77.5 -95v-23h-121q-48 36 -98.5 85.5t-99.5 104.5q-50 -54 -101 -104.5t-95 -85.5h-121v23q37 42 79 96.5t80 109t61 98.5h194z" />
    <glyph glyph-name="caron" unicode="&#x2c7;" horiz-adv-x="800" 
d="M302 1241q-24 45 -62 99.5t-80 108.5t-78 96v23h121q45 -36 96.5 -86.5t98.5 -104.5q52 58 99.5 103t98.5 88h122v-23q-34 -40 -77 -93.5t-82.5 -109t-63.5 -101.5h-193z" />
    <glyph glyph-name="macron" unicode="&#x2c9;" horiz-adv-x="727" 
d="M645 1396v-145h-563v145h563z" />
    <glyph glyph-name="breve" unicode="&#x2d8;" horiz-adv-x="753" 
d="M671 1528q-4 -87 -41.5 -151t-103 -99.5t-154.5 -35.5q-134 0 -209 74.5t-81 211.5h118q6 -53 27.5 -83.5t59 -43.5t89.5 -13q47 0 85 13t62 44t29 83h119z" />
    <glyph glyph-name="dotaccent" unicode="&#x2d9;" horiz-adv-x="385" 
d="M193 1521q51 0 80.5 -30t29.5 -91q0 -60 -30 -90.5t-80 -30.5q-49 0 -80 30.5t-31 90.5q0 62 30 91.5t81 29.5z" />
    <glyph glyph-name="ring" unicode="&#x2da;" horiz-adv-x="612" 
d="M305 1244q-100 0 -161.5 58.5t-61.5 157.5t61 157t162 58q96 0 160.5 -58t64.5 -155q0 -100 -63 -159t-162 -59zM306 1351q48 0 79 29.5t31 79.5t-30.5 80t-79.5 30q-48 0 -79.5 -30t-31.5 -80q0 -49 28 -79t83 -30z" />
    <glyph glyph-name="ogonek" unicode="&#x2db;" horiz-adv-x="491" 
d="M234 -236q0 -47 24 -71.5t67 -24.5q28 0 49 4.5t36 9.5v-125q-24 -7 -52.5 -12.5t-65.5 -5.5q-105 0 -157.5 51.5t-52.5 144.5q0 55 24 108t66 100.5t94 85.5l102 -29q-70 -67 -102 -122t-32 -114z" />
    <glyph glyph-name="tilde" unicode="&#x2dc;" horiz-adv-x="854" 
d="M82 1242q5 57 19.5 105t39 83.5t60.5 55t82 19.5q42 0 80 -17.5t73.5 -40.5t69 -40.5t65.5 -17.5q37 0 58.5 30.5t32.5 87.5h110q-9 -126 -63 -194.5t-137 -68.5q-41 0 -79.5 17.5t-74.5 40.5t-69 40.5t-63 17.5q-36 0 -59.5 -29.5t-34.5 -88.5h-110z" />
    <glyph glyph-name="hungarumlaut" unicode="&#x2dd;" horiz-adv-x="869" 
d="M787 1569v-20q-17 -29 -48.5 -70t-70 -85.5t-78 -84.5t-72.5 -68h-103v24q31 44 64.5 100.5t63.5 111t47 92.5h197zM453 1569v-20q-17 -30 -47.5 -70.5t-68.5 -83.5t-78.5 -83t-76.5 -71h-100v24q31 46 64 101.5t62.5 109.5t47.5 93h197z" />
    <glyph glyph-name="uni02F3" unicode="&#x2f3;" horiz-adv-x="713" 
d="M355 -555q-100 0 -161.5 58t-61.5 158q0 98 61 157t162 59q97 0 161.5 -58.5t64.5 -155.5q0 -100 -63.5 -159t-162.5 -59zM355 -449q48 0 79 30t31 80t-30.5 79.5t-79.5 29.5t-80 -29.5t-31 -79.5q0 -49 28 -79.5t83 -30.5z" />
    <glyph glyph-name="gravecomb" unicode="&#x300;" 
d="M-691 1569q24 -47 58.5 -103.5t72 -109.5t68.5 -91v-24h-129q-33 27 -75 66.5t-84.5 84t-78 86t-56.5 71.5v20h224z" />
    <glyph glyph-name="acutecomb" unicode="&#x301;" 
d="M-194 1569v-20q-21 -30 -56.5 -70.5t-77.5 -84.5t-84 -84t-76 -69h-128v24q36 47 72 99.5t68.5 105.5t56.5 99h225z" />
    <glyph glyph-name="uni0302" unicode="&#x302;" 
d="M96 1568q24 -45 63 -100t81.5 -109t77.5 -95v-23h-121q-48 36 -98.5 85.5t-99.5 104.5q-50 -54 -101 -104.5t-95 -85.5h-121v23q37 42 79 96.5t80 109t61 98.5h194z" />
    <glyph glyph-name="tildecomb" unicode="&#x303;" 
d="M-930 1242q5 57 19.5 105t39 83.5t60.5 55t82 19.5q42 0 80 -17.5t73.5 -40.5t69 -40.5t65.5 -17.5q37 0 58.5 30.5t32.5 87.5h110q-9 -126 -63 -194.5t-137 -68.5q-41 0 -79.5 17.5t-74.5 40.5t-69 40.5t-63 17.5q-36 0 -59.5 -29.5t-34.5 -88.5h-110z" />
    <glyph glyph-name="uni0304" unicode="&#x304;" 
d="M281 1396v-145h-563v145h563z" />
    <glyph glyph-name="uni0306" unicode="&#x306;" 
d="M296 1528q-4 -87 -41.5 -151t-103 -99.5t-154.5 -35.5q-134 0 -209 74.5t-81 211.5h118q6 -53 27.5 -83.5t59 -43.5t89.5 -13q47 0 85 13t62 44t29 83h119z" />
    <glyph glyph-name="uni0307" unicode="&#x307;" 
d="M4 1521q51 0 80.5 -30t29.5 -91q0 -60 -30 -90.5t-80 -30.5q-49 0 -80 30.5t-31 90.5q0 62 30 91.5t81 29.5z" />
    <glyph glyph-name="uni0308" unicode="&#x308;" 
d="M-281 1385q0 55 28.5 81t69.5 26q42 0 70.5 -26t28.5 -81q0 -53 -28.5 -80.5t-70.5 -27.5q-41 0 -69.5 27t-28.5 81zM83 1385q0 55 28.5 81t69.5 26q42 0 71 -26t29 -81q0 -53 -29 -80.5t-71 -27.5t-70 27.5t-28 80.5z" />
    <glyph glyph-name="hookabovecomb" unicode="&#x309;" 
d="M-384 1497q0 -76 -42 -122t-118 -64l-10 -98h-111l-13 162q68 9 105 35.5t37 72.5q0 43 -30.5 63.5t-84.5 20.5q-26 0 -51.5 -4t-48.5 -10v117q26 8 58.5 13t70.5 5q116 0 177 -49t61 -142z" />
    <glyph glyph-name="uni030A" unicode="&#x30a;" 
d="M1 1244q-100 0 -161.5 58.5t-61.5 157.5t61 157t162 58q96 0 160.5 -58t64.5 -155q0 -100 -63 -159t-162 -59zM2 1351q48 0 79 29.5t31 79.5t-30.5 80t-79.5 30q-48 0 -79.5 -30t-31.5 -80q0 -49 28 -79t83 -30z" />
    <glyph glyph-name="uni030B" unicode="&#x30b;" 
d="M467 1569v-20q-17 -29 -48.5 -70t-70 -85.5t-78 -84.5t-72.5 -68h-103v24q31 44 64.5 100.5t63.5 111t47 92.5h197zM133 1569v-20q-17 -30 -47.5 -70.5t-68.5 -83.5t-78.5 -83t-76.5 -71h-100v24q31 46 64 101.5t62.5 109.5t47.5 93h197z" />
    <glyph glyph-name="uni030C" unicode="&#x30c;" 
d="M-97 1241q-24 45 -62 99.5t-80 108.5t-78 96v23h121q45 -36 96.5 -86.5t98.5 -104.5q52 58 99.5 103t98.5 88h122v-23q-34 -40 -77 -93.5t-82.5 -109t-63.5 -101.5h-193z" />
    <glyph glyph-name="uni030F" unicode="&#x30f;" 
d="M-505 1569q19 -41 48 -96t62 -110t61 -98v-24h-100q-33 28 -73 68t-78.5 84.5t-69.5 85.5t-46 70v20h196zM-838 1569q22 -48 50 -102t59 -106t60 -96v-24h-102q-33 28 -72 68t-77 84.5t-69.5 85.5t-47.5 70v20h199z" />
    <glyph glyph-name="uni0312" unicode="&#x312;" 
d="M-134 956l-13 22q19 81 44.5 164.5t56 165t63.5 154.5h143q-21 -81 -40 -171t-33.5 -176.5t-24.5 -158.5h-196z" />
    <glyph glyph-name="dotbelowcomb" unicode="&#x323;" 
d="M-601 -374q-49 0 -80 30t-31 90q0 63 30 92.5t81 29.5t80.5 -30t29.5 -91t-30 -91t-80 -30z" />
    <glyph glyph-name="uni0326" unicode="&#x326;" 
d="M125 -125v-19q-13 -46 -36 -100.5t-52 -109t-61 -99.5h-110v24q12 36 27 91.5t27 113t17 99.5h188z" />
    <glyph glyph-name="uni0327" unicode="&#x327;" 
d="M194 -278q0 -102 -68.5 -158t-202.5 -56q-36 0 -66.5 4t-52.5 10v118q22 -5 50.5 -8.5t55.5 -3.5q62 0 95.5 23t33.5 69q0 51 -45.5 77.5t-124.5 35.5l78 167h118l-45 -99q52 -11 91 -34t61 -59t22 -86z" />
    <glyph glyph-name="uni0328" unicode="&#x328;" 
d="M-21 -236q0 -47 24 -71.5t67 -24.5q28 0 49 4.5t36 9.5v-125q-24 -7 -52.5 -12.5t-65.5 -5.5q-105 0 -157.5 51.5t-52.5 144.5q0 55 24 108t66 100.5t94 85.5l102 -29q-70 -67 -102 -122t-32 -114z" />
    <glyph glyph-name="tonos" unicode="&#x384;" horiz-adv-x="1116" 
d="M477 1241v27q11 30 24.5 76t26 97.5t22.5 98.5t15 79h190v-22q-17 -50 -43.5 -112t-57.5 -125.5t-62 -118.5h-115z" />
    <glyph glyph-name="dieresistonos" unicode="&#x385;" horiz-adv-x="1106" 
d="M731 1672v-20q-16 -40 -40.5 -90.5t-54 -102.5t-60.5 -98h-92v24q13 43 26 94.5t24 102t16 90.5h181zM339 1474q41 0 67.5 -27t26.5 -82q0 -53 -26.5 -80.5t-67.5 -27.5q-42 0 -68.5 28t-26.5 80q0 55 26.5 82t68.5 27zM777 1475q40 0 68 -27t28 -83q0 -52 -28 -79.5
t-68 -27.5q-42 0 -68.5 27.5t-26.5 80.5q0 55 26.5 82t68.5 27z" />
    <glyph glyph-name="Alphatonos" unicode="&#x386;" horiz-adv-x="1152" 
d="M942 0l-131 438h-457l-131 -438h-208l456 1465h222l458 -1465h-209zM766 613l-129 449q-7 31 -17.5 72t-21 82.5t-17.5 73.5q-6 -37 -15.5 -77.5t-19 -79t-17.5 -69.5l-129 -451h366zM12 1167v27q11 30 24.5 76t26 97.5t22.5 98.5t15 79h190v-22q-17 -50 -43.5 -112
t-57.5 -125.5t-62 -118.5h-115z" />
    <glyph glyph-name="anoteleia" unicode="&#x387;" horiz-adv-x="510" 
d="M130 981q0 71 34 104.5t91 33.5q55 0 90.5 -32.5t35.5 -105.5q0 -71 -36 -104.5t-90 -33.5q-55 0 -90 34t-35 104z" />
    <glyph glyph-name="Epsilontonos" unicode="&#x388;" horiz-adv-x="1165" 
d="M1058 0h-708v1462h708v-171h-511v-442h480v-171h-480v-505h511v-173zM-4 1157v27q11 30 24.5 76t26 97.5t22.5 98.5t15 79h190v-22q-17 -50 -43.5 -112t-57.5 -125.5t-62 -118.5h-115z" />
    <glyph glyph-name="Etatonos" unicode="&#x389;" horiz-adv-x="1496" 
d="M1325 0h-197v677h-580v-677h-197v1462h197v-612h580v612h197v-1462zM-4 1157v27q11 30 24.5 76t26 97.5t22.5 98.5t15 79h190v-22q-17 -50 -43.5 -112t-57.5 -125.5t-62 -118.5h-115z" />
    <glyph glyph-name="Iotatonos" unicode="&#x38a;" horiz-adv-x="715" 
d="M347 0v1462h197v-1462h-197zM-4 1157v27q11 30 24.5 76t26 97.5t22.5 98.5t15 79h190v-22q-17 -50 -43.5 -112t-57.5 -125.5t-62 -118.5h-115z" />
    <glyph glyph-name="Omicrontonos" unicode="&#x38c;" horiz-adv-x="1460" 
d="M1349 733q0 -165 -34.5 -303t-105 -239t-178.5 -156t-255 -55q-150 0 -259 56t-179.5 157t-104.5 239.5t-34 302.5q0 237 64 404.5t192.5 256t321.5 88.5q195 0 321.5 -95t188.5 -264t62 -392zM405 733q0 -184 40.5 -314t123 -198t206.5 -68q126 0 207 67.5t120.5 197
t39.5 315.5q0 280 -89 429t-276 149q-126 0 -208.5 -67.5t-123 -196.5t-40.5 -314zM-4 1157v27q11 30 24.5 76t26 97.5t22.5 98.5t15 79h190v-22q-17 -50 -43.5 -112t-57.5 -125.5t-62 -118.5h-115z" />
    <glyph glyph-name="Upsilontonos" unicode="&#x38e;" horiz-adv-x="1309" 
d="M806 774l293 688h209l-404 -894v-568h-197v561l-404 901h210zM-4 1157v27q11 30 24.5 76t26 97.5t22.5 98.5t15 79h190v-22q-17 -50 -43.5 -112t-57.5 -125.5t-62 -118.5h-115z" />
    <glyph glyph-name="Omegatonos" unicode="&#x38f;" horiz-adv-x="1468" 
d="M780 1311q-123 0 -205.5 -57.5t-124.5 -168.5t-42 -274q0 -141 27.5 -259t86.5 -214t154 -172v-166h-523v174h323q-80 65 -141.5 159.5t-96.5 219.5t-35 278q0 209 68.5 354.5t197.5 222t310 76.5q183 0 311 -76.5t195 -222t67 -353.5q0 -156 -34 -281t-95.5 -219
t-142.5 -158h324v-174h-525v166q99 76 158 172.5t86 214.5t27 259q0 160 -41 271.5t-123.5 169.5t-205.5 58zM-9 1157v27q11 30 24.5 76t26 97.5t22.5 98.5t15 79h190v-22q-17 -50 -43.5 -112t-57.5 -125.5t-62 -118.5h-115z" />
    <glyph glyph-name="iotadieresistonos" unicode="&#x390;" horiz-adv-x="631" 
d="M338 1103v-801q0 -83 29.5 -121.5t89.5 -38.5q37 0 75.5 8t63.5 19v-154q-33 -16 -81 -25.5t-99 -9.5q-84 0 -144 30t-92 99.5t-32 189.5v804h190zM434 1672v-20q-16 -40 -40.5 -90.5t-54 -102.5t-60.5 -98h-92v24q13 43 26 94.5t24 102t16 90.5h181zM42 1474
q41 0 67.5 -27t26.5 -82q0 -53 -26.5 -80.5t-67.5 -27.5q-42 0 -68.5 28t-26.5 80q0 55 26.5 82t68.5 27zM480 1475q40 0 68 -27t28 -83q0 -52 -28 -79.5t-68 -27.5q-42 0 -68.5 27.5t-26.5 80.5q0 55 26.5 82t68.5 27z" />
    <glyph glyph-name="Alpha" unicode="&#x391;" horiz-adv-x="1137" 
d="M927 0l-131 438h-457l-131 -438h-208l456 1465h222l458 -1465h-209zM751 613l-129 449q-7 31 -17.5 72t-21 82.5t-17.5 73.5q-6 -37 -15.5 -77.5t-19 -79t-17.5 -69.5l-129 -451h366z" />
    <glyph glyph-name="Beta" unicode="&#x392;" horiz-adv-x="1166" 
d="M171 1462h380q239 0 360.5 -84.5t121.5 -273.5q0 -88 -27.5 -156.5t-80 -112.5t-129.5 -60v-9q86 -17 147 -59t94 -113t33 -175q0 -131 -54 -225t-155 -144t-242 -50h-448v1462zM368 844h200q144 0 203.5 60t59.5 178q0 109 -67.5 161.5t-209.5 52.5h-186v-452zM368 681
v-513h226q143 0 206.5 69t63.5 196q0 80 -30 135t-93 84t-162 29h-211z" />
    <glyph glyph-name="Gamma" unicode="&#x393;" horiz-adv-x="928" 
d="M896 1462v-173h-528v-1289h-197v1462h725z" />
    <glyph glyph-name="uni0394" unicode="&#x394;" horiz-adv-x="1082" 
d="M653 1463l397 -1341v-122h-1017v127l395 1336h225zM834 173l-228 818q-13 45 -26 96.5t-24 99.5t-17 85q-8 -41 -19 -90t-23 -98t-24 -92l-227 -819h588z" />
    <glyph glyph-name="Epsilon" unicode="&#x395;" horiz-adv-x="986" 
d="M879 0h-708v1462h708v-171h-511v-442h480v-171h-480v-505h511v-173z" />
    <glyph glyph-name="Zeta" unicode="&#x396;" horiz-adv-x="972" 
d="M915 0h-854v145l612 1144h-595v173h820v-145l-612 -1143h629v-174z" />
    <glyph glyph-name="Eta" unicode="&#x397;" horiz-adv-x="1316" 
d="M1145 0h-197v677h-580v-677h-197v1462h197v-612h580v612h197v-1462z" />
    <glyph glyph-name="Theta" unicode="&#x398;" horiz-adv-x="1372" 
d="M922 827v-167h-473v167h473zM1261 733q0 -165 -34.5 -303t-105 -239t-178.5 -156t-255 -55q-150 0 -259 56t-179.5 157t-104.5 239.5t-34 302.5q0 237 64 404.5t192.5 256t321.5 88.5q195 0 321.5 -95t188.5 -264t62 -392zM317 733q0 -184 40.5 -314t123 -198t206.5 -68
q126 0 207 67.5t120.5 197t39.5 315.5q0 280 -89 429t-276 149q-126 0 -208.5 -67.5t-123 -196.5t-40.5 -314z" />
    <glyph glyph-name="Iota" unicode="&#x399;" horiz-adv-x="539" 
d="M171 0v1462h197v-1462h-197z" />
    <glyph glyph-name="Kappa" unicode="&#x39a;" horiz-adv-x="1109" 
d="M1113 0h-225l-394 675l-126 -123v-552h-197v1462h197v-719q31 45 71 100.5t86 121.5l352 497h220l-463 -642z" />
    <glyph glyph-name="Lambda" unicode="&#x39b;" horiz-adv-x="1096" 
d="M654 1462l441 -1462h-206l-274 960q-14 53 -27.5 105.5t-24.5 100t-18 85.5q-7 -43 -18 -92.5t-23.5 -99.5t-26.5 -97l-270 -962h-207l438 1462h216z" />
    <glyph glyph-name="Mu" unicode="&#x39c;" horiz-adv-x="1675" 
d="M746 0l-397 1229h-8q4 -54 7 -113.5t4.5 -118.5t1.5 -109v-888h-183v1462h280l382 -1177h6l387 1177h280v-1462h-191v892q0 49 1.5 106t4.5 116.5t6 113.5h-8l-403 -1228h-170z" />
    <glyph glyph-name="Nu" unicode="&#x39d;" horiz-adv-x="1377" 
d="M1207 0h-236l-623 1180h-8q4 -56 7 -114.5t5 -117.5t2 -116v-832h-183v1462h235l622 -1167h7q-3 52 -5.5 111.5t-4.5 119t-2 111.5v825h184v-1462z" />
    <glyph glyph-name="Xi" unicode="&#x39e;" horiz-adv-x="983" 
d="M77 0v173h830v-173h-830zM174 679v172h635v-172h-635zM110 1291v171h765v-171h-765z" />
    <glyph glyph-name="Omicron" unicode="&#x39f;" horiz-adv-x="1372" 
d="M1261 733q0 -165 -34.5 -303t-105 -239t-178.5 -156t-255 -55q-150 0 -259 56t-179.5 157t-104.5 239.5t-34 302.5q0 237 64 404.5t192.5 256t321.5 88.5q195 0 321.5 -95t188.5 -264t62 -392zM317 733q0 -184 40.5 -314t123 -198t206.5 -68q126 0 207 67.5t120.5 197
t39.5 315.5q0 280 -89 429t-276 149q-126 0 -208.5 -67.5t-123 -196.5t-40.5 -314z" />
    <glyph glyph-name="Pi" unicode="&#x3a0;" horiz-adv-x="1298" 
d="M171 0v1462h957v-1462h-197v1289h-563v-1289h-197z" />
    <glyph glyph-name="Rho" unicode="&#x3a1;" horiz-adv-x="1084" 
d="M517 1462q250 0 367.5 -110t117.5 -324q0 -103 -28.5 -188.5t-89 -148t-156 -96.5t-230.5 -34h-130v-561h-197v1462h346zM504 1294h-136v-564h111q108 0 179.5 29.5t107 94t35.5 169.5q0 140 -72 205.5t-225 65.5z" />
    <glyph glyph-name="Sigma" unicode="&#x3a3;" horiz-adv-x="1008" 
d="M67 0v161l410 603l-396 540v158h827v-172h-415q-30 0 -65.5 0.5t-68 2t-56.5 3.5l391 -531l-413 -599q57 3 113 5t113 2h448v-173h-888z" />
    <glyph glyph-name="Tau" unicode="&#x3a4;" horiz-adv-x="970" 
d="M583 0h-197v1289h-363v173h922v-173h-362v-1289z" />
    <glyph glyph-name="Upsilon" unicode="&#x3a5;" horiz-adv-x="1005" 
d="M503 774l293 688h209l-404 -894v-568h-197v561l-404 901h210z" />
    <glyph glyph-name="Phi" unicode="&#x3a6;" horiz-adv-x="1495" 
d="M842 1483v-180q195 -2 317.5 -73.5t180 -193t57.5 -275.5q0 -113 -31.5 -213t-98 -176.5t-172 -120.5t-253.5 -46v-225h-190v225q-148 1 -253.5 46t-172.5 121.5t-98 176.5t-31 212t32 210t99.5 172t172.5 116.5t251 43.5v180h190zM652 1137q-126 -2 -205.5 -47
t-117 -128.5t-37.5 -199.5q0 -125 40 -212t120.5 -133t199.5 -49v769zM842 1137v-769q122 3 202 50t119 134.5t39 210.5q0 118 -37.5 201t-117 127t-205.5 46z" />
    <glyph glyph-name="Chi" unicode="&#x3a7;" horiz-adv-x="1037" 
d="M1029 0h-218l-292 601l-303 -601h-208l400 759l-366 703h212l270 -551l270 551h209l-367 -707z" />
    <glyph glyph-name="Psi" unicode="&#x3a8;" horiz-adv-x="1501" 
d="M1382 1462v-477q0 -127 -28 -228t-90.5 -172t-165.5 -109t-254 -38v-438h-189v438q-151 0 -254.5 37.5t-165 108t-89 170.5t-27.5 224v484h195v-483q0 -121 32 -203.5t107 -125t202 -42.5v854h189v-854q120 1 195.5 38.5t110.5 118.5t35 212v485h197z" />
    <glyph glyph-name="uni03A9" unicode="&#x3a9;" horiz-adv-x="1379" 
d="M691 1311q-123 0 -205.5 -57.5t-124.5 -168.5t-42 -274q0 -141 27.5 -259t86.5 -214t154 -172v-166h-523v174h323q-80 65 -141.5 159.5t-96.5 219.5t-35 278q0 209 68.5 354.5t197.5 222t310 76.5q183 0 311 -76.5t195 -222t67 -353.5q0 -156 -34 -281t-95.5 -219
t-142.5 -158h324v-174h-525v166q99 76 158 172.5t86 214.5t27 259q0 160 -41 271.5t-123.5 169.5t-205.5 58z" />
    <glyph glyph-name="Iotadieresis" unicode="&#x3aa;" horiz-adv-x="539" 
d="M171 0v1462h197v-1462h-197zM-11 1737q0 55 28.5 81t69.5 26q42 0 70.5 -26t28.5 -81q0 -53 -28.5 -80.5t-70.5 -27.5q-41 0 -69.5 27t-28.5 81zM353 1737q0 55 28.5 81t69.5 26q42 0 71 -26t29 -81q0 -53 -29 -80.5t-71 -27.5t-70 27.5t-28 80.5z" />
    <glyph glyph-name="Upsilondieresis" unicode="&#x3ab;" horiz-adv-x="1005" 
d="M503 774l293 688h209l-404 -894v-568h-197v561l-404 901h210zM222 1734q0 55 28.5 81t69.5 26q42 0 70.5 -26t28.5 -81q0 -53 -28.5 -80.5t-70.5 -27.5q-41 0 -69.5 27t-28.5 81zM586 1734q0 55 28.5 81t69.5 26q42 0 71 -26t29 -81q0 -53 -29 -80.5t-71 -27.5t-70 27.5
t-28 80.5z" />
    <glyph glyph-name="alphatonos" unicode="&#x3ac;" horiz-adv-x="1133" 
d="M529 140q87 0 140.5 44t79 130.5t26.5 215.5v25q0 203 -57 303.5t-191 100.5q-120 0 -177.5 -106.5t-57.5 -307.5q0 -205 58 -305t179 -100zM481 -20q-178 0 -281 144t-103 423q0 282 106 429t294 147q104 0 174.5 -44.5t116.5 -131.5h11q9 40 24 82.5t35 73.5h156
q-14 -47 -25.5 -113t-18.5 -143t-7 -156v-415q0 -72 22.5 -103.5t58.5 -31.5q16 0 33 3t28 8v-150q-8 -5 -26.5 -10t-39.5 -8.5t-39 -3.5q-87 0 -137 39.5t-72 136.5h-14q-28 -52 -69 -91.5t-97 -62t-130 -22.5zM482 1241v27q11 30 24.5 76t26 97.5t22.5 98.5t15 79h190v-22
q-17 -50 -43.5 -112t-57.5 -125.5t-62 -118.5h-115z" />
    <glyph glyph-name="epsilontonos" unicode="&#x3ad;" horiz-adv-x="878" 
d="M642 651v-149h-111q-88 0 -144.5 -21.5t-84 -63t-27.5 -103.5q0 -59 28.5 -97.5t80.5 -58t122 -19.5q88 0 166 23t138 57v-168q-61 -34 -139 -52.5t-185 -18.5q-208 0 -306 90.5t-98 231.5q0 115 62.5 182t163.5 92v9q-88 28 -135 92t-47 159q0 91 47.5 155t131.5 98
t193 34q91 0 168.5 -19t150.5 -57l-69 -147q-56 29 -115 47t-128 18q-98 0 -147.5 -38t-49.5 -109q0 -86 63 -126.5t180 -40.5h91zM416 1241v27q11 30 24.5 76t26 97.5t22.5 98.5t15 79h190v-22q-17 -50 -43.5 -112t-57.5 -125.5t-62 -118.5h-115z" />
    <glyph glyph-name="etatonos" unicode="&#x3ae;" horiz-adv-x="1114" 
d="M635 1123q108 0 182.5 -42t113 -128.5t38.5 -220.5v-1223h-191v1188q0 131 -44.5 196t-139.5 65q-91 0 -146.5 -42.5t-80.5 -129.5t-25 -220v-566h-192v1103h152l25 -155h11q29 56 74 95t102 59.5t121 20.5zM495 1241v27q11 30 24.5 76t26 97.5t22.5 98.5t15 79h190v-22
q-17 -50 -43.5 -112t-57.5 -125.5t-62 -118.5h-115z" />
    <glyph glyph-name="iotatonos" unicode="&#x3af;" horiz-adv-x="631" 
d="M338 1103v-801q0 -83 29.5 -121.5t89.5 -38.5q37 0 75.5 8t63.5 19v-154q-33 -16 -81 -25.5t-99 -9.5q-84 0 -144 30t-92 99.5t-32 189.5v804h190zM173 1241v27q11 30 24.5 76t26 97.5t22.5 98.5t15 79h190v-22q-17 -50 -43.5 -112t-57.5 -125.5t-62 -118.5h-115z" />
    <glyph glyph-name="upsilondieresistonos" unicode="&#x3b0;" horiz-adv-x="1098" 
d="M549 -19q-153 1 -242 59.5t-127 171t-38 275.5v616h191v-623q0 -161 50 -249t173 -88q127 0 188.5 106.5t61.5 332.5q0 139 -15.5 262t-47.5 259h192q22 -96 36 -177t20.5 -162.5t6.5 -182.5q0 -304 -114 -452t-335 -148zM725 1672v-20q-16 -40 -40.5 -90.5t-54 -102.5
t-60.5 -98h-92v24q13 43 26 94.5t24 102t16 90.5h181zM333 1474q41 0 67.5 -27t26.5 -82q0 -53 -26.5 -80.5t-67.5 -27.5q-42 0 -68.5 28t-26.5 80q0 55 26.5 82t68.5 27zM771 1475q40 0 68 -27t28 -83q0 -52 -28 -79.5t-68 -27.5q-42 0 -68.5 27.5t-26.5 80.5q0 55 26.5 82
t68.5 27z" />
    <glyph glyph-name="alpha" unicode="&#x3b1;" horiz-adv-x="1133" 
d="M529 140q87 0 140.5 44t79 130.5t26.5 215.5v25q0 203 -57 303.5t-191 100.5q-120 0 -177.5 -106.5t-57.5 -307.5q0 -205 58 -305t179 -100zM481 -20q-178 0 -281 144t-103 423q0 282 106 429t294 147q104 0 174.5 -44.5t116.5 -131.5h11q9 40 24 82.5t35 73.5h156
q-14 -47 -25.5 -113t-18.5 -143t-7 -156v-415q0 -72 22.5 -103.5t58.5 -31.5q16 0 33 3t28 8v-150q-8 -5 -26.5 -10t-39.5 -8.5t-39 -3.5q-87 0 -137 39.5t-72 136.5h-14q-28 -52 -69 -91.5t-97 -62t-130 -22.5z" />
    <glyph glyph-name="beta" unicode="&#x3b2;" horiz-adv-x="1135" 
d="M580 1567q125 0 216 -45.5t141 -132t50 -207.5q0 -156 -65.5 -243t-192.5 -109v-8q161 -21 241 -119.5t80 -283.5q0 -138 -50.5 -236.5t-144.5 -150.5t-227 -52q-93 0 -161 18.5t-125 52.5v-542h-192v1611q0 149 54 248t150.5 149t225.5 50zM576 1406q-68 0 -121 -30.5
t-83 -96t-30 -172.5v-887q51 -35 116.5 -56t134.5 -21q136 0 200 75t64 218q0 100 -33.5 165.5t-96 98t-151.5 32.5h-71v163h57q120 0 176 69t56 197q0 121 -58.5 183t-159.5 62z" />
    <glyph glyph-name="gamma" unicode="&#x3b3;" horiz-adv-x="929" 
d="M920 1103l-338 -1059q-26 -85 -46 -180.5t-31 -187.5t-11 -167h-203q0 60 11.5 148t30.5 180t40 165l-366 1101h201l168 -524q19 -61 38 -127t33.5 -128t20.5 -110h8q6 46 19.5 106t31 125.5t34.5 127.5l161 530h198z" />
    <glyph glyph-name="delta" unicode="&#x3b4;" horiz-adv-x="1084" 
d="M594 1562q111 0 200 -28t162 -68l-75 -152q-71 42 -142 65.5t-148 23.5q-82 0 -124 -37.5t-42 -94.5q0 -47 26 -88.5t79 -85t134 -98.5q106 -72 178.5 -149.5t109.5 -169.5t37 -211q0 -152 -54 -261.5t-155 -168.5t-242 -59q-137 0 -236.5 56.5t-153 159.5t-53.5 242
q0 124 46 221.5t128.5 165.5t191.5 106q-67 50 -118 101.5t-79 110.5t-28 129q0 141 100.5 215.5t257.5 74.5zM583 841q-78 -26 -144 -78t-106.5 -131.5t-40.5 -188.5q0 -86 29 -154.5t84.5 -108.5t134.5 -40q81 0 137.5 38.5t86 112t29.5 177.5q0 122 -53.5 211t-156.5 162
z" />
    <glyph glyph-name="epsilon" unicode="&#x3b5;" horiz-adv-x="878" 
d="M642 651v-149h-111q-88 0 -144.5 -21.5t-84 -63t-27.5 -103.5q0 -59 28.5 -97.5t80.5 -58t122 -19.5q88 0 166 23t138 57v-168q-61 -34 -139 -52.5t-185 -18.5q-208 0 -306 90.5t-98 231.5q0 115 62.5 182t163.5 92v9q-88 28 -135 92t-47 159q0 91 47.5 155t131.5 98
t193 34q91 0 168.5 -19t150.5 -57l-69 -147q-56 29 -115 47t-128 18q-98 0 -147.5 -38t-49.5 -109q0 -86 63 -126.5t180 -40.5h91z" />
    <glyph glyph-name="zeta" unicode="&#x3b6;" horiz-adv-x="861" 
d="M816 -90q0 -79 -36.5 -160t-85.5 -148h-193q33 46 62 95t46 94.5t17 78.5q0 32 -16 57.5t-59 47.5t-126 44q-111 31 -183.5 84t-108.5 140.5t-36 219.5q0 135 37 255.5t104.5 233.5t161 225.5t207.5 232.5q-19 -3 -55 -5.5t-80 -4.5t-90 -2h-236v158h671v-134
q-151 -144 -251.5 -271t-160.5 -241.5t-86 -222t-26 -212.5q0 -94 27 -151t85 -91.5t152 -63.5q83 -22 140.5 -55.5t88 -83t30.5 -120.5z" />
    <glyph glyph-name="eta" unicode="&#x3b7;" horiz-adv-x="1114" 
d="M635 1123q108 0 182.5 -42t113 -128.5t38.5 -220.5v-1223h-191v1188q0 131 -44.5 196t-139.5 65q-91 0 -146.5 -42.5t-80.5 -129.5t-25 -220v-566h-192v1103h152l25 -155h11q29 56 74 95t102 59.5t121 20.5z" />
    <glyph glyph-name="theta" unicode="&#x3b8;" horiz-adv-x="1091" 
d="M996 780q0 -260 -47.5 -438.5t-147.5 -270t-258 -91.5q-226 0 -336 204t-110 595q0 258 47.5 435t147 268t253.5 91q227 0 339 -202t112 -591zM543 135q128 0 190 144.5t68 434.5h-511q5 -287 65 -433t188 -146zM545 1418q-125 0 -185 -137t-68 -410h508
q-8 271 -68.5 409t-186.5 138z" />
    <glyph glyph-name="iota" unicode="&#x3b9;" horiz-adv-x="631" 
d="M338 1103v-801q0 -83 29.5 -121.5t89.5 -38.5q37 0 75.5 8t63.5 19v-154q-33 -16 -81 -25.5t-99 -9.5q-84 0 -144 30t-92 99.5t-32 189.5v804h190z" />
    <glyph glyph-name="kappa" unicode="&#x3ba;" horiz-adv-x="983" 
d="M950 1103l-346 -462l371 -641h-216l-286 508l-128 -125v-383h-195v1103h195v-294q0 -71 -2.5 -137.5t-7.5 -118.5h6q19 31 40 61t39 58l316 431h214z" />
    <glyph glyph-name="lambda" unicode="&#x3bb;" horiz-adv-x="995" 
d="M4 0l390 1078l-45 162q-25 82 -59.5 125t-105.5 43q-27 0 -49 -4t-40 -9v159q16 5 35.5 8.5t40.5 5.5t42 2q91 0 150.5 -33.5t100.5 -103.5t75 -181l285 -971q15 -50 31 -80t36 -43t46 -13q16 0 32.5 3t28.5 7v-156q-14 -5 -32 -9.5t-37.5 -7t-40.5 -2.5q-61 0 -104 23.5
t-72.5 73.5t-52.5 129l-113 385q-9 31 -18.5 63.5t-17.5 64t-15 61t-12 54.5h-7q-11 -48 -26.5 -100t-33.5 -101l-214 -633h-198z" />
    <glyph glyph-name="uni03BC" unicode="&#x3bc;" horiz-adv-x="1120" 
d="M969 1103v-1103h-151l-26 153h-10q-26 -54 -63 -92.5t-85 -59.5t-107 -21q-65 0 -111 25t-76 73h-7q2 -30 4 -66.5t3 -76t1 -79.5v-347h-191v1594h191v-695q0 -131 46 -197.5t139 -66.5q95 0 150 45t78.5 133t23.5 214v567h191z" />
    <glyph glyph-name="nu" unicode="&#x3bd;" horiz-adv-x="987" 
d="M11 1103h198l184 -653q12 -43 25.5 -91.5t25.5 -94t17 -78.5h8q93 125 149.5 265t82 301.5t25.5 350.5h192q0 -217 -37.5 -405.5t-123.5 -359.5t-230 -338h-185z" />
    <glyph glyph-name="xi" unicode="&#x3be;" horiz-adv-x="857" 
d="M97 423q0 99 32 178t92 133.5t142 78.5v9q-68 15 -115.5 50.5t-72 93t-24.5 139.5t33.5 142.5t91.5 100.5t131 60q-30 -3 -64 -5t-68 -3.5t-66 -1.5h-74v158h641v-151h-59q-76 0 -144.5 -18.5t-120.5 -55.5t-82 -91.5t-30 -125.5q0 -113 62.5 -167t209.5 -54h126v-153
h-133q-101 0 -170.5 -35t-105 -101t-35.5 -162q0 -88 28.5 -139t87.5 -81t147 -54q91 -25 147.5 -60.5t82.5 -84.5t26 -114q0 -79 -37 -159.5t-82 -147.5h-192q35 48 63 97t44.5 94t16.5 78t-16 59t-58.5 47.5t-121.5 41.5q-112 28 -186 80t-110.5 132.5t-36.5 191.5z" />
    <glyph glyph-name="omicron" unicode="&#x3bf;" horiz-adv-x="1084" 
d="M988 553q0 -131 -29 -237t-85.5 -181t-140.5 -115t-194 -40q-103 0 -185 40t-139.5 114.5t-88 180.5t-30.5 238q0 180 51.5 307.5t151.5 195t245 67.5q136 0 236 -66t154 -193t54 -311zM292 553q0 -132 26.5 -224t82 -140t142.5 -48t142 47.5t81 139.5t26 225
q0 131 -26 222t-81 138.5t-143 47.5q-131 0 -190.5 -104.5t-59.5 -303.5z" />
    <glyph glyph-name="pi" unicode="&#x3c0;" horiz-adv-x="1196" 
d="M1039 144q24 0 47.5 5.5t41.5 14.5v-151q-22 -12 -60.5 -21t-84.5 -9q-110 0 -166.5 69.5t-56.5 211.5v679h-358v-943h-190v943h-193v84l132 76h992v-160h-192v-671q0 -69 23 -98.5t65 -29.5z" />
    <glyph glyph-name="rho" unicode="&#x3c1;" horiz-adv-x="1095" 
d="M1001 553q0 -180 -47.5 -308.5t-139.5 -196.5t-227 -68q-77 0 -142.5 23.5t-113.5 64.5h-10q6 -56 8 -126t2 -141v-292h-192v1056q0 180 49 304.5t146 189t240 64.5q131 0 227 -64.5t148 -191t52 -314.5zM568 961q-121 0 -179 -94.5t-58 -287.5v-349q44 -44 102.5 -67
t123.5 -23q129 0 188 102t59 311t-55.5 308.5t-180.5 99.5z" />
    <glyph glyph-name="uni03C2" unicode="&#x3c2;" horiz-adv-x="858" 
d="M556 1123q72 0 140 -16t124 -43l-56 -157q-51 23 -102 36.5t-104 13.5q-137 0 -201 -107.5t-64 -320.5q0 -107 22 -173.5t79 -108t162 -74.5q89 -27 146 -62.5t84.5 -84.5t27.5 -116q0 -79 -37 -160.5t-82 -147.5h-190q34 47 61.5 96.5t44 95.5t16.5 79q0 32 -15 58
t-57 48.5t-123 45.5q-81 24 -143.5 61t-105 95t-64.5 142t-22 202q0 205 55 337t158 196.5t246 64.5z" />
    <glyph glyph-name="sigma" unicode="&#x3c3;" horiz-adv-x="1118" 
d="M991 497q0 -157 -52.5 -273t-153 -180t-244.5 -64q-138 0 -238 63.5t-153 185t-53 296.5q0 199 62 327t182.5 189.5t293.5 61.5h439v-159h-231q69 -83 108.5 -194t39.5 -253zM293 528q0 -123 27 -209.5t83 -132.5t141 -46q130 0 191 99t61 273q0 83 -14.5 158t-42 143
t-68.5 131h-55q-166 0 -244.5 -98t-78.5 -318z" />
    <glyph glyph-name="tau" unicode="&#x3c4;" horiz-adv-x="830" 
d="M781 1103v-160h-334v-609q0 -102 38 -148.5t109 -46.5q37 0 75.5 7t70.5 18v-150q-29 -15 -81.5 -25.5t-105.5 -10.5q-92 0 -159 33t-103 108.5t-36 202.5v621h-241v84l130 76h637z" />
    <glyph glyph-name="upsilon" unicode="&#x3c5;" horiz-adv-x="1098" 
d="M549 -19q-153 1 -242 59.5t-127 171t-38 275.5v616h191v-623q0 -161 50 -249t173 -88q127 0 188.5 106.5t61.5 332.5q0 139 -15.5 262t-47.5 259h192q22 -96 36 -177t20.5 -162.5t6.5 -182.5q0 -304 -114 -452t-335 -148z" />
    <glyph glyph-name="phi" unicode="&#x3c6;" horiz-adv-x="1357" 
d="M303 1116l145 -96q-76 -99 -118 -215t-42 -255q0 -130 35.5 -216.5t101 -133t152.5 -58.5v602q0 188 80 283t227 95q122 0 206 -69.5t128 -190t44 -276.5q0 -180 -63 -311t-175 -205t-262 -86v-475h-185v475q-147 11 -255 76.5t-166.5 188t-58.5 305.5q0 165 55 304
t151 258zM885 964q-60 0 -91.5 -51.5t-31.5 -167.5v-603q91 9 160 62.5t108 150t39 230.5q0 118 -23 203t-64.5 131t-96.5 45z" />
    <glyph glyph-name="chi" unicode="&#x3c7;" horiz-adv-x="979" 
d="M162 1115q67 0 112 -27t77 -82.5t59 -143.5l98 -307l242 548h197l-362 -765l159 -490q21 -67 41 -105.5t46 -55.5t65 -17q21 0 40.5 3t37.5 7v-154q-25 -8 -54 -13t-69 -5q-75 0 -126 29t-86.5 89t-64.5 154l-111 357l-274 -628h-203l398 847l-141 440q-25 81 -54 119.5
t-75 38.5q-19 0 -38 -3t-34 -9v155q22 8 52.5 13t67.5 5z" />
    <glyph glyph-name="psi" unicode="&#x3c8;" horiz-adv-x="1382" 
d="M789 1555v-1410q98 9 164 57.5t99.5 142.5t33.5 239q0 133 -17.5 257.5t-50.5 261.5h187q35 -142 51.5 -265.5t16.5 -254.5q0 -198 -59.5 -328.5t-168.5 -197t-256 -74.5v-474h-185v474q-144 5 -248.5 63.5t-160.5 178.5t-56 308v570h189v-567q0 -133 32.5 -217t94 -126
t149.5 -49v1411h185z" />
    <glyph glyph-name="omega" unicode="&#x3c9;" horiz-adv-x="1410" 
d="M1198 1103q37 -96 60.5 -187.5t35 -185t11.5 -197.5q0 -169 -39.5 -293t-116 -192t-188.5 -68q-99 0 -162.5 49.5t-90.5 142.5h-8q-27 -93 -90 -142.5t-165 -49.5q-109 0 -185.5 67t-116 191t-39.5 295q0 105 11.5 198t35.5 183.5t61 188.5h191q-55 -137 -82.5 -274
t-27.5 -294q0 -192 43.5 -291t127.5 -99q53 0 86 33t48 96.5t15 155.5v291h183v-291q0 -96 15.5 -158.5t49 -94t84.5 -32.5q56 0 94.5 44.5t58 131t19.5 212.5q0 154 -27 293t-84 277h192z" />
    <glyph glyph-name="iotadieresis" unicode="&#x3ca;" horiz-adv-x="632" 
d="M338 1103v-801q0 -83 29.5 -121.5t89.5 -38.5q37 0 75.5 8t63.5 19v-154q-33 -16 -81 -25.5t-99 -9.5q-84 0 -144 30t-92 99.5t-32 189.5v804h190zM-24 1385q0 55 28.5 81t69.5 26q42 0 70.5 -26t28.5 -81q0 -53 -28.5 -80.5t-70.5 -27.5q-41 0 -69.5 27t-28.5 81z
M340 1385q0 55 28.5 81t69.5 26q42 0 71 -26t29 -81q0 -53 -29 -80.5t-71 -27.5t-70 27.5t-28 80.5z" />
    <glyph glyph-name="upsilondieresis" unicode="&#x3cb;" horiz-adv-x="1098" 
d="M549 -19q-153 1 -242 59.5t-127 171t-38 275.5v616h191v-623q0 -161 50 -249t173 -88q127 0 188.5 106.5t61.5 332.5q0 139 -15.5 262t-47.5 259h192q22 -96 36 -177t20.5 -162.5t6.5 -182.5q0 -304 -114 -452t-335 -148zM267 1385q0 55 28.5 81t69.5 26q42 0 70.5 -26
t28.5 -81q0 -53 -28.5 -80.5t-70.5 -27.5q-41 0 -69.5 27t-28.5 81zM631 1385q0 55 28.5 81t69.5 26q42 0 71 -26t29 -81q0 -53 -29 -80.5t-71 -27.5t-70 27.5t-28 80.5z" />
    <glyph glyph-name="omicrontonos" unicode="&#x3cc;" horiz-adv-x="1084" 
d="M988 553q0 -131 -29 -237t-85.5 -181t-140.5 -115t-194 -40q-103 0 -185 40t-139.5 114.5t-88 180.5t-30.5 238q0 180 51.5 307.5t151.5 195t245 67.5q136 0 236 -66t154 -193t54 -311zM292 553q0 -132 26.5 -224t82 -140t142.5 -48t142 47.5t81 139.5t26 225
q0 131 -26 222t-81 138.5t-143 47.5q-131 0 -190.5 -104.5t-59.5 -303.5zM456 1241v27q11 30 24.5 76t26 97.5t22.5 98.5t15 79h190v-22q-17 -50 -43.5 -112t-57.5 -125.5t-62 -118.5h-115z" />
    <glyph glyph-name="upsilontonos" unicode="&#x3cd;" horiz-adv-x="1098" 
d="M549 -19q-153 1 -242 59.5t-127 171t-38 275.5v616h191v-623q0 -161 50 -249t173 -88q127 0 188.5 106.5t61.5 332.5q0 139 -15.5 262t-47.5 259h192q22 -96 36 -177t20.5 -162.5t6.5 -182.5q0 -304 -114 -452t-335 -148zM465 1241v27q11 30 24.5 76t26 97.5t22.5 98.5
t15 79h190v-22q-17 -50 -43.5 -112t-57.5 -125.5t-62 -118.5h-115z" />
    <glyph glyph-name="omegatonos" unicode="&#x3ce;" horiz-adv-x="1410" 
d="M1198 1103q37 -96 60.5 -187.5t35 -185t11.5 -197.5q0 -169 -39.5 -293t-116 -192t-188.5 -68q-99 0 -162.5 49.5t-90.5 142.5h-8q-27 -93 -90 -142.5t-165 -49.5q-109 0 -185.5 67t-116 191t-39.5 295q0 105 11.5 198t35.5 183.5t61 188.5h191q-55 -137 -82.5 -274
t-27.5 -294q0 -192 43.5 -291t127.5 -99q53 0 86 33t48 96.5t15 155.5v291h183v-291q0 -96 15.5 -158.5t49 -94t84.5 -32.5q56 0 94.5 44.5t58 131t19.5 212.5q0 154 -27 293t-84 277h192zM621 1241v27q11 30 24.5 76t26 97.5t22.5 98.5t15 79h190v-22q-17 -50 -43.5 -112
t-57.5 -125.5t-62 -118.5h-115z" />
    <glyph glyph-name="uni03D1" unicode="&#x3d1;" horiz-adv-x="1188" 
d="M561 1574q101 0 179.5 -39.5t136 -116.5t94 -189t52.5 -257h135v-159h-128q2 -20 2.5 -43t0.5 -47q-1 -170 -30 -307t-89.5 -234.5t-154.5 -149.5t-223 -52q-97 0 -165.5 25.5t-111 72t-62 109t-19.5 137.5q0 46 5.5 97t10 98t4.5 78q0 49 -16 67.5t-49 18.5
q-18 0 -39 -6t-38 -14l-40 140q34 16 80.5 28.5t100.5 12.5q93 0 139.5 -53.5t46.5 -148.5q0 -44 -4.5 -96.5t-10 -105t-5.5 -99.5q0 -91 42.5 -147.5t134.5 -56.5q99 0 164.5 63.5t99 194.5t34.5 331q0 21 -0.5 44t-1.5 42q-206 3 -341.5 58t-202.5 153.5t-67 228.5
q0 92 36 164.5t110.5 115t189.5 42.5zM560 1417q-73 0 -109.5 -44t-36.5 -125t44 -143t136 -97t235 -36q-9 97 -31.5 178t-56 141t-79 93t-102.5 33z" />
    <glyph glyph-name="uni03D2" unicode="&#x3d2;" horiz-adv-x="1013" 
d="M501 773q26 77 52 150t50.5 138.5t47.5 120t43 96.5q26 61 54.5 105t67.5 68t99 24q28 0 52.5 -4.5t44.5 -14.5v-158q-11 4 -24.5 6t-27.5 2q-31 0 -58.5 -28.5t-64.5 -107.5q-19 -43 -48 -108.5t-62 -147.5t-66 -173t-63 -184v-557h-198v561l-400 901h213z" />
    <glyph glyph-name="uni03D6" unicode="&#x3d6;" horiz-adv-x="1511" 
d="M1465 1103v-160h-207q27 -77 46 -153t29 -152.5t10 -155.5q0 -161 -39.5 -273t-115 -170.5t-186.5 -58.5q-98 0 -158.5 46.5t-88.5 138.5h-9q-28 -91 -88 -138t-160 -47q-164 0 -252.5 129.5t-88.5 373.5q0 80 11 156.5t32 152t49 151.5h-225v83l130 77h1311zM1072 943
h-639q-26 -73 -46 -146t-30.5 -147.5t-10.5 -155.5q0 -184 43 -267t125 -83q78 0 111.5 75.5t33.5 222.5v190h184v-190q0 -103 15 -168.5t47 -97.5t82 -32q81 0 124.5 84t43.5 264q0 79 -10 154t-28 149t-45 148z" />
    <glyph glyph-name="uni0400" unicode="&#x400;" horiz-adv-x="986" 
d="M879 0h-708v1462h708v-171h-511v-442h480v-171h-480v-505h511v-173zM461 1917q24 -47 58.5 -103.5t72 -109.5t68.5 -91v-24h-129q-33 27 -75 66.5t-84.5 84t-78 86t-56.5 71.5v20h224z" />
    <glyph glyph-name="uni0401" unicode="&#x401;" horiz-adv-x="986" 
d="M879 0h-708v1462h708v-171h-511v-442h480v-171h-480v-505h511v-173zM249 1733q0 55 28.5 81t69.5 26q42 0 70.5 -26t28.5 -81q0 -53 -28.5 -80.5t-70.5 -27.5q-41 0 -69.5 27t-28.5 81zM613 1733q0 55 28.5 81t69.5 26q42 0 71 -26t29 -81q0 -53 -29 -80.5t-71 -27.5
t-70 27.5t-28 80.5z" />
    <glyph glyph-name="uni0402" unicode="&#x402;" horiz-adv-x="1299" 
d="M850 -20q-39 0 -75 6.5t-63 17.5v171q27 -11 56 -17.5t60 -6.5q42 0 76 18t54 62t20 121v173q0 107 -49.5 157t-163.5 50h-250v-732h-196v1289h-296v173h854v-173h-362v-384h267q192 0 292 -94t100 -275v-173q0 -189 -86 -286t-238 -97z" />
    <glyph glyph-name="uni0403" unicode="&#x403;" horiz-adv-x="928" 
d="M896 1462v-173h-528v-1289h-197v1462h725zM860 1917v-20q-21 -30 -56.5 -70.5t-77.5 -84.5t-84 -84t-76 -69h-128v24q36 47 72 99.5t68.5 105.5t56.5 99h225z" />
    <glyph glyph-name="uni0404" unicode="&#x404;" horiz-adv-x="1135" 
d="M719 1311q-91 0 -161.5 -34.5t-120 -97.5t-78.5 -148.5t-38 -187.5h567v-172h-570q3 -115 30 -210t77 -164t124 -106.5t173 -37.5q88 0 162.5 19t146.5 47v-175q-70 -32 -152 -48t-179 -16q-194 0 -325.5 92.5t-197.5 261.5t-66 398q0 162 39 299t116 239t190.5 158.5
t263.5 56.5q104 0 192.5 -23t166.5 -65l-71 -166q-66 37 -136.5 58.5t-152.5 21.5z" />
    <glyph glyph-name="uni0405" unicode="&#x405;" horiz-adv-x="990" 
d="M906 400q0 -128 -56.5 -222.5t-159.5 -146t-243 -51.5q-70 0 -133.5 7.5t-120 23t-104.5 39.5v195q77 -39 172 -64t187 -25q85 0 142.5 29t87 80.5t29.5 117.5q0 69 -27 116.5t-87.5 87t-162.5 84.5q-73 34 -133.5 72t-103.5 86.5t-66.5 113.5t-23.5 153q-1 119 53 206
t151 134.5t224 46.5q101 0 190 -22t165 -59l-61 -171q-74 36 -147.5 55.5t-146.5 19.5q-74 0 -125 -25.5t-78 -71.5t-27 -108q0 -70 26.5 -117t85.5 -85t156 -82q110 -50 185 -106t113.5 -130.5t38.5 -180.5z" />
    <glyph glyph-name="uni0406" unicode="&#x406;" horiz-adv-x="539" 
d="M171 0v1462h197v-1462h-197z" />
    <glyph glyph-name="uni0407" unicode="&#x407;" horiz-adv-x="539" 
d="M171 0v1462h197v-1462h-197zM-11 1737q0 55 28.5 81t69.5 26q42 0 70.5 -26t28.5 -81q0 -53 -28.5 -80.5t-70.5 -27.5q-41 0 -69.5 27t-28.5 81zM353 1737q0 55 28.5 81t69.5 26q42 0 71 -26t29 -81q0 -53 -29 -80.5t-71 -27.5t-70 27.5t-28 80.5z" />
    <glyph glyph-name="uni0408" unicode="&#x408;" horiz-adv-x="527" 
d="M17 -399q-45 0 -82.5 6t-66.5 18v170q29 -9 61.5 -15t69.5 -6q52 0 89 23.5t57.5 78t20.5 149.5v1437h197v-1437q0 -151 -41 -244t-119 -136.5t-186 -43.5z" />
    <glyph glyph-name="uni0409" unicode="&#x409;" horiz-adv-x="1688" 
d="M120 -19q-35 0 -65.5 6t-53.5 15v168q19 -9 42 -14.5t48 -5.5q47 0 75.5 32.5t46 90.5t31.5 133q12 59 26 157.5t30.5 232.5t35 301.5t38.5 364.5h635v-604h106q173 0 283 -50t162 -144t52 -227q0 -205 -121 -321t-363 -116h-313v1285h-272q-13 -140 -26 -263t-25 -228.5
t-24 -192.5t-23 -156t-22 -118q-24 -112 -59 -189t-93 -117t-151 -40zM1009 169h107q147 0 220.5 66.5t73.5 199.5q0 91 -33.5 146.5t-102 81t-173.5 25.5h-92v-519z" />
    <glyph glyph-name="uni040A" unicode="&#x40a;" horiz-adv-x="1719" 
d="M171 0v1462h197v-609h478v609h196v-607h104q175 0 284.5 -50t161 -143t51.5 -225q0 -206 -121.5 -321.5t-361.5 -115.5h-314v682h-478v-682h-197zM1041 169h107q146 0 220 66t74 200q0 90 -33.5 145t-102 79.5t-172.5 24.5h-93v-515z" />
    <glyph glyph-name="uni040B" unicode="&#x40b;" horiz-adv-x="1306" 
d="M896 1462v-174h-381v-384h276q188 0 286 -93.5t98 -275.5v-535h-198v525q0 107 -47 156.5t-157 49.5h-258v-731h-197v1288h-295v174h873z" />
    <glyph glyph-name="uni040C" unicode="&#x40c;" horiz-adv-x="1104" 
d="M1107 0h-227l-512 748v-748h-197v1462h197v-703l499 703h217l-506 -704zM920 1917v-20q-21 -30 -56.5 -70.5t-77.5 -84.5t-84 -84t-76 -69h-128v24q36 47 72 99.5t68.5 105.5t56.5 99h225z" />
    <glyph glyph-name="uni040D" unicode="&#x40d;" horiz-adv-x="1390" 
d="M172 1462h186v-825q0 -39 -0.5 -84t-2.5 -91.5t-4 -90.5t-5 -81h8l633 1172h233v-1462h-186v830q0 43 1.5 91t3.5 95.5t5 90.5t5 76h-8l-637 -1183h-232v1462zM640 1917q24 -47 58.5 -103.5t72 -109.5t68.5 -91v-24h-129q-33 27 -75 66.5t-84.5 84t-78 86t-56.5 71.5v20
h224z" />
    <glyph glyph-name="uni040E" unicode="&#x40e;" horiz-adv-x="1063" 
d="M1062 1462l-384 -1049q-54 -150 -111 -246t-135.5 -141.5t-197.5 -45.5q-46 0 -88.5 7t-78.5 19v182q35 -16 73 -24.5t78 -8.5q59 0 100 24t72.5 78.5t61.5 146.5l-440 1058h210l281 -693q8 -22 17.5 -48.5t18.5 -56t17 -61.5h9q6 28 13.5 55.5t15.5 54.5t17 52l245 697
h206zM892 1906q-9 -103 -49 -173.5t-115.5 -107t-191.5 -36.5q-119 0 -193.5 35t-111 105.5t-43.5 176.5h168q9 -109 50.5 -152.5t131.5 -43.5q85 0 130 45.5t55 150.5h169z" />
    <glyph glyph-name="uni040F" unicode="&#x40f;" horiz-adv-x="1298" 
d="M1128 0h-383v-397h-195v397h-379v1462h197v-1288h563v1288h197v-1462z" />
    <glyph glyph-name="uni0410" unicode="&#x410;" horiz-adv-x="1137" 
d="M927 0l-131 438h-457l-131 -438h-208l456 1465h222l458 -1465h-209zM751 613l-129 449q-7 31 -17.5 72t-21 82.5t-17.5 73.5q-6 -37 -15.5 -77.5t-19 -79t-17.5 -69.5l-129 -451h366z" />
    <glyph glyph-name="uni0411" unicode="&#x411;" horiz-adv-x="1101" 
d="M171 0v1462h761v-173h-564v-431h152q176 0 285.5 -49.5t160 -144t50.5 -227.5q0 -207 -119 -322t-363 -115h-363zM368 169h154q150 0 222 66t72 200q0 91 -33 147t-101 81t-175 25h-139v-519z" />
    <glyph glyph-name="uni0412" unicode="&#x412;" horiz-adv-x="1166" 
d="M171 1462h380q239 0 360.5 -84.5t121.5 -273.5q0 -88 -27.5 -156.5t-80 -112.5t-129.5 -60v-9q86 -17 147 -59t94 -113t33 -175q0 -131 -54 -225t-155 -144t-242 -50h-448v1462zM368 844h200q144 0 203.5 60t59.5 178q0 109 -67.5 161.5t-209.5 52.5h-186v-452zM368 681
v-513h226q143 0 206.5 69t63.5 196q0 80 -30 135t-93 84t-162 29h-211z" />
    <glyph glyph-name="uni0413" unicode="&#x413;" horiz-adv-x="928" 
d="M896 1462v-173h-528v-1289h-197v1462h725z" />
    <glyph glyph-name="uni0414" unicode="&#x414;" horiz-adv-x="1261" 
d="M1061 1462v-1288h158v-571h-190v397h-828v-397h-190v571h100q63 142 114.5 295t90 315.5t63 332.5t32.5 345h650zM864 1290h-279q-8 -137 -30.5 -283t-57.5 -292t-80 -283t-98 -258h545v1116z" />
    <glyph glyph-name="uni0415" unicode="&#x415;" horiz-adv-x="986" 
d="M879 0h-708v1462h708v-171h-511v-442h480v-171h-480v-505h511v-173z" />
    <glyph glyph-name="uni0416" unicode="&#x416;" horiz-adv-x="1544" 
d="M476 756l-464 706h213l452 -705v705h190v-705l452 705h212l-464 -705l479 -757h-219l-460 745v-745h-190v745l-461 -745h-218z" />
    <glyph glyph-name="uni0417" unicode="&#x417;" horiz-adv-x="1065" 
d="M925 1123q0 -145 -80.5 -236t-220.5 -118v-8q163 -21 247.5 -112t84.5 -242q0 -128 -56.5 -224t-169.5 -149.5t-283 -53.5q-108 0 -203.5 17t-173.5 54v184q50 -26 111 -46.5t125 -31t122 -10.5q164 0 244.5 67.5t80.5 200.5q0 135 -96 197.5t-278 62.5h-151v168h146
q121 0 198.5 29t115 86t37.5 140q0 106 -65.5 161t-179.5 55q-99 0 -173 -30t-137 -79l-91 138q55 44 118.5 75.5t139 48t166.5 16.5q134 0 228 -45.5t144 -126.5t50 -188z" />
    <glyph glyph-name="uni0418" unicode="&#x418;" horiz-adv-x="1390" 
d="M172 1462h186v-825q0 -39 -0.5 -84t-2.5 -91.5t-4 -90.5t-5 -81h8l633 1172h233v-1462h-186v830q0 43 1.5 91t3.5 95.5t5 90.5t5 76h-8l-637 -1183h-232v1462z" />
    <glyph glyph-name="uni0419" unicode="&#x419;" horiz-adv-x="1390" 
d="M172 1462h186v-825q0 -39 -0.5 -84t-2.5 -91.5t-4 -90.5t-5 -81h8l633 1172h233v-1462h-186v830q0 43 1.5 91t3.5 95.5t5 90.5t5 76h-8l-637 -1183h-232v1462zM1060 1906q-9 -103 -49 -173.5t-115.5 -107t-191.5 -36.5q-119 0 -193.5 35t-111 105.5t-43.5 176.5h168
q9 -109 50.5 -152.5t131.5 -43.5q85 0 130 45.5t55 150.5h169z" />
    <glyph glyph-name="uni041A" unicode="&#x41a;" horiz-adv-x="1104" 
d="M1107 0h-227l-512 748v-748h-197v1462h197v-703l499 703h217l-506 -704z" />
    <glyph glyph-name="uni041B" unicode="&#x41b;" horiz-adv-x="1254" 
d="M1084 0h-197v1285h-345q-11 -113 -24.5 -238.5t-28.5 -249t-29.5 -230t-27.5 -182.5q-24 -135 -59.5 -224.5t-94.5 -134.5t-158 -45q-35 0 -65.5 6t-53.5 15v168q20 -9 42.5 -14.5t47.5 -5.5q49 0 78.5 35.5t48.5 105t35 171.5q10 67 24 173t30 239.5t33 283.5t33 304
h711v-1462z" />
    <glyph glyph-name="uni041C" unicode="&#x41c;" horiz-adv-x="1675" 
d="M746 0l-397 1229h-8q4 -54 7 -113.5t4.5 -118.5t1.5 -109v-888h-183v1462h280l382 -1177h6l387 1177h280v-1462h-191v892q0 49 1.5 106t4.5 116.5t6 113.5h-8l-403 -1228h-170z" />
    <glyph glyph-name="uni041D" unicode="&#x41d;" horiz-adv-x="1316" 
d="M1145 0h-197v677h-580v-677h-197v1462h197v-612h580v612h197v-1462z" />
    <glyph glyph-name="uni041E" unicode="&#x41e;" horiz-adv-x="1372" 
d="M1261 733q0 -165 -34.5 -303t-105 -239t-178.5 -156t-255 -55q-150 0 -259 56t-179.5 157t-104.5 239.5t-34 302.5q0 237 64 404.5t192.5 256t321.5 88.5q195 0 321.5 -95t188.5 -264t62 -392zM317 733q0 -184 40.5 -314t123 -198t206.5 -68q126 0 207 67.5t120.5 197
t39.5 315.5q0 280 -89 429t-276 149q-126 0 -208.5 -67.5t-123 -196.5t-40.5 -314z" />
    <glyph glyph-name="uni041F" unicode="&#x41f;" horiz-adv-x="1298" 
d="M171 0v1462h957v-1462h-197v1289h-563v-1289h-197z" />
    <glyph glyph-name="uni0420" unicode="&#x420;" horiz-adv-x="1084" 
d="M517 1462q250 0 367.5 -110t117.5 -324q0 -103 -28.5 -188.5t-89 -148t-156 -96.5t-230.5 -34h-130v-561h-197v1462h346zM504 1294h-136v-564h111q108 0 179.5 29.5t107 94t35.5 169.5q0 140 -72 205.5t-225 65.5z" />
    <glyph glyph-name="uni0421" unicode="&#x421;" horiz-adv-x="1110" 
d="M713 1311q-97 0 -171.5 -43t-124.5 -121.5t-75 -184.5t-25 -232q0 -179 45.5 -308.5t134.5 -199t219 -69.5q80 0 152 17.5t140 43.5v-173q-68 -31 -144 -46t-172 -15q-189 0 -318.5 91t-196 259.5t-66.5 401.5q0 162 38.5 299t114 238.5t187.5 158t258 56.5
q93 0 180.5 -21.5t163.5 -61.5l-69 -165q-61 32 -128.5 53.5t-142.5 21.5z" />
    <glyph glyph-name="uni0422" unicode="&#x422;" horiz-adv-x="970" 
d="M583 0h-197v1289h-363v173h922v-173h-362v-1289z" />
    <glyph glyph-name="uni0423" unicode="&#x423;" horiz-adv-x="1063" 
d="M1062 1462l-384 -1049q-54 -150 -111 -246t-135.5 -141.5t-197.5 -45.5q-46 0 -88.5 7t-78.5 19v182q35 -16 73 -24.5t78 -8.5q59 0 100 24t72.5 78.5t61.5 146.5l-440 1058h210l281 -693q8 -22 17.5 -48.5t18.5 -56t17 -61.5h9q6 28 13.5 55.5t15.5 54.5t17 52l245 697
h206z" />
    <glyph glyph-name="uni0424" unicode="&#x424;" horiz-adv-x="1495" 
d="M842 1483v-180q195 -2 317.5 -73.5t180 -193t57.5 -275.5q0 -113 -31.5 -213t-98 -176.5t-172 -120.5t-253.5 -46v-225h-190v225q-148 1 -253.5 46t-172.5 121.5t-98 176.5t-31 212t32 210t99.5 172t172.5 116.5t251 43.5v180h190zM652 1137q-126 -2 -205.5 -47
t-117 -128.5t-37.5 -199.5q0 -125 40 -212t120.5 -133t199.5 -49v769zM842 1137v-769q122 3 202 50t119 134.5t39 210.5q0 118 -37.5 201t-117 127t-205.5 46z" />
    <glyph glyph-name="uni0425" unicode="&#x425;" horiz-adv-x="1037" 
d="M1029 0h-218l-292 601l-303 -601h-208l400 759l-366 703h212l270 -551l270 551h209l-367 -707z" />
    <glyph glyph-name="uni0426" unicode="&#x426;" horiz-adv-x="1340" 
d="M1295 172v-569h-190v397h-934v1462h197v-1288h568v1288h197v-1290h162z" />
    <glyph glyph-name="uni0427" unicode="&#x427;" horiz-adv-x="1248" 
d="M1078 0h-197v594q-102 -44 -194 -67.5t-190 -23.5q-175 0 -268 96t-93 278v585h197v-546q0 -121 50 -180.5t161 -59.5q89 0 166.5 20t170.5 60v706h197v-1462z" />
    <glyph glyph-name="uni0428" unicode="&#x428;" horiz-adv-x="1847" 
d="M1675 0h-1504v1462h197v-1288h456v1288h197v-1288h457v1288h197v-1462z" />
    <glyph glyph-name="uni0429" unicode="&#x429;" horiz-adv-x="1879" 
d="M1828 172v-569h-189v397h-1468v1462h197v-1288h451v1288h198v-1288h452v1288h197v-1290h162z" />
    <glyph glyph-name="uni042A" unicode="&#x42a;" horiz-adv-x="1266" 
d="M334 0v1289h-314v173h510v-604h157q172 0 280.5 -50t160.5 -144.5t52 -226.5q0 -204 -120 -320.5t-360 -116.5h-366zM531 169h158q145 0 217.5 66t72.5 200q0 91 -33.5 147t-101.5 81t-169 25h-144v-519z" />
    <glyph glyph-name="uni042B" unicode="&#x42b;" horiz-adv-x="1583" 
d="M171 0v1462h197v-604h152q171 0 279.5 -50t159.5 -144.5t51 -226.5q0 -205 -120 -321t-359 -116h-360zM368 169h153q144 0 216.5 66t72.5 200q0 91 -33 146.5t-99.5 81t-168.5 25.5h-141v-519zM1213 0v1462h197v-1462h-197z" />
    <glyph glyph-name="uni042C" unicode="&#x42c;" horiz-adv-x="1120" 
d="M171 0v1462h197v-604h171q172 0 281.5 -50t161.5 -144.5t52 -226.5q0 -205 -122 -321t-361 -116h-380zM368 169h172q144 0 219 66t75 200q0 91 -34.5 147t-103 81t-170.5 25h-158v-519z" />
    <glyph glyph-name="uni042D" unicode="&#x42d;" horiz-adv-x="1125" 
d="M411 1311q-80 0 -150.5 -21t-133.5 -54l-70 164q79 41 170 62.5t193 21.5q143 0 253 -51.5t186 -149.5t114.5 -235.5t38.5 -308.5q0 -226 -66 -397t-199.5 -266.5t-336.5 -95.5q-100 0 -180 15t-149 45v174q73 -26 149 -43.5t159 -17.5q103 0 179.5 37t128 106t79 164.5
t30.5 211.5h-568v172h565q-7 100 -35 184.5t-77.5 148t-119 99t-160.5 35.5z" />
    <glyph glyph-name="uni042E" unicode="&#x42e;" horiz-adv-x="1838" 
d="M1725 733q0 -165 -32.5 -302.5t-99 -239t-168.5 -156.5t-242 -55q-171 0 -289.5 83t-182.5 239t-72 374h-271v-676h-197v1462h197v-613h274q14 202 78.5 344t180 216.5t281.5 74.5q179 0 300 -90t182 -258t61 -403zM841 734q0 -185 37 -314.5t112 -198t189 -68.5
q118 0 193 68t111.5 197t36.5 315q0 187 -36.5 315.5t-111 195.5t-190.5 67q-115 0 -191 -67.5t-113 -196.5t-37 -313z" />
    <glyph glyph-name="uni042F" unicode="&#x42f;" horiz-adv-x="1137" 
d="M564 602l-314 -602h-222l353 645q-75 28 -133 80t-90.5 131.5t-32.5 187.5q0 207 122.5 312.5t362.5 105.5h357v-1462h-197v602h-206zM769 1295h-150q-97 0 -162 -27t-97.5 -84t-32.5 -148q0 -134 70 -202.5t215 -68.5h157v530z" />
    <glyph glyph-name="uni0430" unicode="&#x430;" horiz-adv-x="1016" 
d="M520 1122q179 0 265 -94t86 -285v-743h-141l-33 157h-6q-38 -58 -81 -97.5t-99 -59.5t-134 -20q-94 0 -160 41t-101.5 115t-35.5 173q0 167 112 255.5t330 96.5l159 8v65q0 125 -45.5 180t-135.5 55q-66 0 -131 -20.5t-132 -56.5l-59 142q72 41 159.5 64.5t182.5 23.5z
M681 538l-125 -6q-149 -7 -214 -62.5t-65 -158.5q0 -92 43.5 -135.5t117.5 -43.5q109 0 176 78.5t67 223.5v104z" />
    <glyph glyph-name="uni0431" unicode="&#x431;" horiz-adv-x="1083" 
d="M101 679q0 212 38.5 372t125.5 265.5t235 154.5q93 33 207 56.5t246 39.5l25 -170q-53 -6 -113 -15t-120.5 -19.5t-113.5 -23.5t-91 -27q-80 -30 -131 -88.5t-77.5 -150t-32.5 -222.5h11q26 46 69.5 85.5t101.5 63.5t128 24q122 0 206.5 -58.5t128.5 -169.5t44 -269
q0 -176 -54.5 -298.5t-154.5 -185.5t-240 -63q-104 0 -185.5 43.5t-137.5 130.5t-85.5 218t-29.5 307zM549 141q76 0 130.5 39t83 121t28.5 210q0 171 -54 264t-170 93q-65 0 -120 -33t-93.5 -80t-56.5 -91q0 -113 13 -209t42 -166.5t77 -109t120 -38.5z" />
    <glyph glyph-name="uni0432" unicode="&#x432;" horiz-adv-x="1044" 
d="M926 826q0 -98 -50 -159t-141 -81v-8q99 -15 161 -79.5t62 -175.5q0 -98 -42.5 -171t-130 -112.5t-223.5 -39.5h-412v1103h404q115 0 198 -29t128.5 -90t45.5 -158zM762 333q0 91 -55 130t-161 39h-204v-353h204q106 0 161 43.5t55 140.5zM732 806q0 72 -46 109t-144 37
h-200v-302h192q100 0 149 38.5t49 117.5z" />
    <glyph glyph-name="uni0433" unicode="&#x433;" horiz-adv-x="787" 
d="M755 1103v-161h-413v-942h-192v1103h605z" />
    <glyph glyph-name="uni0434" unicode="&#x434;" horiz-adv-x="1080" 
d="M905 1103v-943h137v-545h-183v385h-650v-385h-183v545h89q71 129 119 283t74 322t30 338h567zM716 946h-211q-8 -133 -31 -271t-63 -270t-99 -245h404v786z" />
    <glyph glyph-name="uni0435" unicode="&#x435;" horiz-adv-x="1017" 
d="M525 1122q130 0 219.5 -63t136 -174.5t46.5 -257.5v-117h-637q3 -183 76.5 -277.5t212.5 -94.5q83 0 153.5 19t146.5 59v-164q-71 -37 -145.5 -54.5t-169.5 -17.5q-151 0 -255.5 68t-158 195t-53.5 301q0 184 51 313t147 197t230 68zM525 970q-102 0 -162 -78.5
t-70 -235.5h448q-1 90 -24 161t-70.5 112t-121.5 41z" />
    <glyph glyph-name="uni0436" unicode="&#x436;" horiz-adv-x="1389" 
d="M1352 1103l-373 -529l405 -574h-214l-384 564v-564h-184v564l-383 -564h-214l406 574l-374 529h207l358 -530v530h184v-530l360 530h206z" />
    <glyph glyph-name="uni0437" unicode="&#x437;" horiz-adv-x="882" 
d="M404 1123q108 0 188.5 -33.5t125 -97.5t44.5 -156q0 -94 -49.5 -157.5t-132.5 -88.5v-8q64 -17 113 -52t77 -89.5t28 -131.5q0 -95 -46 -169.5t-137 -117t-227 -42.5q-67 0 -126.5 8t-109 24t-90.5 40v172q61 -35 140 -60.5t169 -25.5q70 0 123 19.5t83 60t30 103.5
q0 58 -28 98.5t-84.5 61.5t-143.5 21h-105v149h92q112 0 176 40.5t64 126.5q0 74 -49.5 111.5t-142.5 37.5q-65 0 -124.5 -16.5t-121.5 -47.5l-68 145q78 38 159 56.5t173 18.5z" />
    <glyph glyph-name="uni0438" unicode="&#x438;" horiz-adv-x="1167" 
d="M335 1103v-609q0 -28 -1 -61.5t-3 -68.5t-4 -69t-5 -62l469 870h225v-1103h-183v596q0 41 1.5 90.5t4 97.5t4.5 85l-469 -869h-224v1103h185z" />
    <glyph glyph-name="uni0439" unicode="&#x439;" horiz-adv-x="1167" 
d="M335 1103v-609q0 -28 -1 -61.5t-3 -68.5t-4 -69t-5 -62l469 870h225v-1103h-183v596q0 41 1.5 90.5t4 97.5t4.5 85l-469 -869h-224v1103h185zM946 1556q-9 -103 -49 -173.5t-115.5 -107t-191.5 -36.5q-119 0 -193.5 35t-111 105.5t-43.5 176.5h168q9 -109 50.5 -152.5
t131.5 -43.5q85 0 130 45.5t55 150.5h169z" />
    <glyph glyph-name="uni043A" unicode="&#x43a;" horiz-adv-x="973" 
d="M720 1103h210l-390 -527l422 -576h-219l-401 565v-565h-192v1103h192v-530z" />
    <glyph glyph-name="uni043B" unicode="&#x43b;" horiz-adv-x="1056" 
d="M905 0h-192v940h-260q-16 -251 -41 -432t-64 -296.5t-98 -170.5t-144 -55q-29 0 -54 4t-46 13v155q12 -5 27 -7.5t31 -2.5q37 0 66.5 35.5t53 109t42 187t32.5 268.5t25 355h622v-1103z" />
    <glyph glyph-name="uni043C" unicode="&#x43c;" horiz-adv-x="1374" 
d="M1226 1103v-1103h-179v628q0 52 3.5 116t8.5 136h-7l-287 -880h-157l-283 880h-8q5 -67 7.5 -132t2.5 -122v-626h-177v1103h266l272 -849l275 849h263z" />
    <glyph glyph-name="uni043D" unicode="&#x43d;" horiz-adv-x="1134" 
d="M342 1103v-453h449v453h192v-1103h-192v490h-449v-490h-192v1103h192z" />
    <glyph glyph-name="uni043E" unicode="&#x43e;" horiz-adv-x="1084" 
d="M988 553q0 -131 -29 -237t-85.5 -181t-140.5 -115t-194 -40q-103 0 -185 40t-139.5 114.5t-88 180.5t-30.5 238q0 180 51.5 307.5t151.5 195t245 67.5q136 0 236 -66t154 -193t54 -311zM292 553q0 -132 26.5 -224t82 -140t142.5 -48t142 47.5t81 139.5t26 225
q0 131 -26 222t-81 138.5t-143 47.5q-131 0 -190.5 -104.5t-59.5 -303.5z" />
    <glyph glyph-name="uni043F" unicode="&#x43f;" horiz-adv-x="1122" 
d="M971 1103v-1103h-192v942h-437v-942h-192v1103h821z" />
    <glyph glyph-name="uni0440" unicode="&#x440;" horiz-adv-x="1111" 
d="M633 1123q180 0 281.5 -143.5t101.5 -426.5q0 -185 -46.5 -312.5t-132 -194t-202.5 -66.5q-70 0 -126 21.5t-97 59.5t-70 87h-10q3 -42 6.5 -88t3.5 -82v-468h-192v1593h156l26 -158h10q30 55 71 95t95.5 61.5t124.5 21.5zM587 962q-85 0 -139 -41.5t-79.5 -125
t-26.5 -209.5v-43q0 -133 25 -222t79.5 -134t142.5 -45q77 0 128.5 47.5t77 139.5t25.5 224q0 198 -56 303.5t-177 105.5z" />
    <glyph glyph-name="uni0441" unicode="&#x441;" horiz-adv-x="865" 
d="M538 -20q-139 0 -238 62t-151 187.5t-52 315.5q0 189 54.5 317.5t156 194.5t242.5 66q79 0 145 -16.5t116 -42.5l-58 -156q-47 22 -98.5 35.5t-99.5 13.5q-87 0 -145 -46.5t-87.5 -137.5t-29.5 -227q0 -131 29 -220.5t86 -135.5t143 -46q68 0 128 17.5t114 46.5v-165
q-52 -31 -116 -47t-139 -16z" />
    <glyph glyph-name="uni0442" unicode="&#x442;" horiz-adv-x="835" 
d="M802 943h-290v-943h-190v943h-290v160h770v-160z" />
    <glyph glyph-name="uni0443" unicode="&#x443;" horiz-adv-x="924" 
d="M6 1103h203l192 -626q13 -45 25 -88t21.5 -84t14.5 -81h8q9 53 26 118t38 135l184 626h202l-402 -1261q-35 -111 -83.5 -185.5t-115 -111.5t-156.5 -37q-38 0 -69 5t-58 12v161q20 -6 46.5 -10t52.5 -4q51 0 87 21.5t62.5 66.5t48.5 114l41 131z" />
    <glyph glyph-name="uni0444" unicode="&#x444;" horiz-adv-x="1341" 
d="M764 1556v-441q155 -13 262 -87.5t163 -196.5t56 -279q0 -158 -54.5 -280.5t-161.5 -196t-265 -88.5v-479h-185v479q-150 12 -258 83.5t-166.5 193.5t-58.5 288q0 162 54.5 284t161.5 194t268 85v441h184zM580 957q-94 -9 -158 -60.5t-96.5 -138.5t-32.5 -206
q0 -113 31 -201.5t95 -142.5t161 -63v812zM764 956v-811q97 10 160.5 65t94.5 143t31 199q0 177 -74 282.5t-212 121.5z" />
    <glyph glyph-name="uni0445" unicode="&#x445;" horiz-adv-x="943" 
d="M355 566l-309 537h212l215 -398l216 398h210l-310 -541l326 -562h-212l-232 423l-232 -423h-210z" />
    <glyph glyph-name="uni0446" unicode="&#x446;" horiz-adv-x="1153" 
d="M1116 -385h-184v385h-782v1103h192v-943h445v943h191v-944h138v-544z" />
    <glyph glyph-name="uni0447" unicode="&#x447;" horiz-adv-x="1105" 
d="M316 1103v-415q0 -89 41.5 -131t117.5 -42q80 0 150.5 29t138.5 77v482h191v-1103h-191v472q-74 -53 -153.5 -83.5t-176.5 -30.5q-150 0 -229 84t-79 244v417h190z" />
    <glyph glyph-name="uni0448" unicode="&#x448;" horiz-adv-x="1605" 
d="M1454 1103v-1103h-1304v1103h192v-943h364v943h191v-943h365v943h192z" />
    <glyph glyph-name="uni0449" unicode="&#x449;" horiz-adv-x="1629" 
d="M1453 1103v-944h139v-543h-185v384h-1257v1103h192v-943h364v943h191v-943h365v943h191z" />
    <glyph glyph-name="uni044A" unicode="&#x44a;" horiz-adv-x="1199" 
d="M508 1103v-449h197q138 0 229.5 -35.5t137 -106.5t45.5 -177t-44 -181t-134 -114.5t-227 -39.5h-396v940h-291v163h483zM704 503h-196v-354h197q106 0 163.5 43.5t57.5 135.5q0 91 -54.5 133t-167.5 42z" />
    <glyph glyph-name="uni044B" unicode="&#x44b;" horiz-adv-x="1430" 
d="M150 0v1103h192v-449h183q135 0 224 -35.5t133.5 -106.5t44.5 -177t-43.5 -181t-132 -114.5t-223.5 -39.5h-378zM342 149h174q104 0 162 43.5t58 135.5t-55 134t-163 42h-176v-355zM1088 0v1103h191v-1103h-191z" />
    <glyph glyph-name="uni044C" unicode="&#x44c;" horiz-adv-x="1037" 
d="M342 654h205q135 0 225.5 -35.5t135.5 -106.5t45 -177t-44 -181t-133.5 -114.5t-225.5 -39.5h-400v1103h192v-449zM761 328q0 92 -56 134t-164 42h-199v-355h200q102 0 160.5 43.5t58.5 135.5z" />
    <glyph glyph-name="uni044D" unicode="&#x44d;" horiz-adv-x="893" 
d="M326 -20q-79 0 -144 15.5t-118 45.5v162q58 -28 120.5 -46t132.5 -18q86 0 147 38t95.5 116t40.5 198h-407v149h405q-11 163 -76 243.5t-187 80.5q-51 0 -108.5 -15.5t-100.5 -36.5l-56 150q56 27 125.5 44t143.5 17q141 0 243.5 -61t159 -186.5t56.5 -320.5
q0 -190 -56 -318t-161.5 -192.5t-254.5 -64.5z" />
    <glyph glyph-name="uni044E" unicode="&#x44e;" horiz-adv-x="1509" 
d="M1412 553q0 -183 -50.5 -311.5t-146 -195t-230.5 -66.5q-125 0 -215.5 57t-142.5 170.5t-63 282.5h-222v-490h-192v1103h192v-453h223q14 152 67.5 257.5t144 160.5t213.5 55q129 0 224 -67t146.5 -194t51.5 -309zM756 553q0 -135 24.5 -226.5t75.5 -139t131 -47.5
t131 47t75 139t24 227q0 134 -24.5 224.5t-75 137t-131.5 46.5q-80 0 -131 -46t-75 -137t-24 -225z" />
    <glyph glyph-name="uni044F" unicode="&#x44f;" horiz-adv-x="1011" 
d="M240 0h-213l289 464q-68 17 -120 57t-81.5 103.5t-29.5 150.5q0 158 102 243t275 85h399v-1103h-191v440h-175zM274 773q0 -90 57.5 -136t165.5 -46h173v361h-188q-106 0 -157 -48.5t-51 -130.5z" />
    <glyph glyph-name="uni0450" unicode="&#x450;" horiz-adv-x="1017" 
d="M525 1122q130 0 219.5 -63t136 -174.5t46.5 -257.5v-117h-637q3 -183 76.5 -277.5t212.5 -94.5q83 0 153.5 19t146.5 59v-164q-71 -37 -145.5 -54.5t-169.5 -17.5q-151 0 -255.5 68t-158 195t-53.5 301q0 184 51 313t147 197t230 68zM525 970q-102 0 -162 -78.5
t-70 -235.5h448q-1 90 -24 161t-70.5 112t-121.5 41zM449 1569q24 -47 58.5 -103.5t72 -109.5t68.5 -91v-24h-129q-33 27 -75 66.5t-84.5 84t-78 86t-56.5 71.5v20h224z" />
    <glyph glyph-name="uni0451" unicode="&#x451;" horiz-adv-x="1017" 
d="M525 1122q130 0 219.5 -63t136 -174.5t46.5 -257.5v-117h-637q3 -183 76.5 -277.5t212.5 -94.5q83 0 153.5 19t146.5 59v-164q-71 -37 -145.5 -54.5t-169.5 -17.5q-151 0 -255.5 68t-158 195t-53.5 301q0 184 51 313t147 197t230 68zM525 970q-102 0 -162 -78.5
t-70 -235.5h448q-1 90 -24 161t-70.5 112t-121.5 41zM235 1385q0 55 28.5 81t69.5 26q42 0 70.5 -26t28.5 -81q0 -53 -28.5 -80.5t-70.5 -27.5q-41 0 -69.5 27t-28.5 81zM599 1385q0 55 28.5 81t69.5 26q42 0 71 -26t29 -81q0 -53 -29 -80.5t-71 -27.5t-70 27.5t-28 80.5z
" />
    <glyph glyph-name="uni0452" unicode="&#x452;" horiz-adv-x="1114" 
d="M703 -492q-36 0 -70.5 6.5t-57.5 15.5v162q24 -9 47 -14t48 -5q50 0 79.5 39t29.5 130v828q0 133 -45.5 195.5t-139.5 62.5q-89 0 -144.5 -42.5t-81.5 -129.5t-26 -222v-534h-191v1234h-138v141h138v181h191v-181h306v-141h-306v-147q0 -44 -3 -87t-8 -81h12
q28 55 71.5 94t99.5 59t120 20q111 0 186 -42.5t112.5 -129t37.5 -218.5v-865q0 -103 -29.5 -177t-89 -113t-148.5 -39z" />
    <glyph glyph-name="uni0453" unicode="&#x453;" horiz-adv-x="787" 
d="M755 1103v-161h-413v-942h-192v1103h605zM776 1569v-20q-21 -30 -56.5 -70.5t-77.5 -84.5t-84 -84t-76 -69h-128v24q36 47 72 99.5t68.5 105.5t56.5 99h225z" />
    <glyph glyph-name="uni0454" unicode="&#x454;" horiz-adv-x="896" 
d="M557 -20q-144 0 -247 62.5t-158 188t-55 315.5q0 194 56.5 322t161.5 191.5t250 63.5q72 0 141.5 -15.5t126.5 -44.5l-56 -151q-47 23 -103 37.5t-109 14.5q-82 0 -139 -36t-89.5 -108t-41.5 -180h406v-149h-407q6 -117 37 -195t89 -117.5t143 -39.5q72 0 134 18t120 46
v-161q-51 -30 -118.5 -46t-141.5 -16z" />
    <glyph glyph-name="uni0455" unicode="&#x455;" horiz-adv-x="847" 
d="M771 304q0 -105 -45 -177.5t-130.5 -109.5t-207.5 -37q-96 0 -170.5 17.5t-133.5 47.5v181q59 -36 140.5 -61.5t161.5 -25.5q101 0 149 40.5t48 111.5q0 41 -19.5 73t-67 63t-132.5 69q-87 41 -150 84.5t-96.5 102t-33.5 146.5q0 138 100 216t265 78q87 0 163 -19.5
t146 -55.5l-63 -150q-58 30 -120.5 49.5t-127.5 19.5q-85 0 -131.5 -34.5t-46.5 -95.5q0 -43 21 -73t70 -59t132 -68q85 -41 147.5 -84t97 -101.5t34.5 -147.5z" />
    <glyph glyph-name="uni0456" unicode="&#x456;" horiz-adv-x="494" 
d="M342 1103v-1103h-191v1103h191zM249 1521q50 0 80 -30t30 -91q0 -60 -30.5 -90.5t-79.5 -30.5q-50 0 -81 30.5t-31 90.5q0 62 30.5 91.5t81.5 29.5z" />
    <glyph glyph-name="uni0457" unicode="&#x457;" horiz-adv-x="493" 
d="M342 0h-191v1103h191v-1103zM-35 1386q0 55 28.5 81t69.5 26q42 0 70.5 -26t28.5 -81q0 -53 -28.5 -80.5t-70.5 -27.5q-41 0 -69.5 27t-28.5 81zM329 1386q0 55 28.5 81t69.5 26q42 0 71 -26t29 -81q0 -53 -29 -80.5t-71 -27.5t-70 27.5t-28 80.5z" />
    <glyph glyph-name="uni0458" unicode="&#x458;" horiz-adv-x="494" 
d="M63 -492q-41 0 -76 6.5t-61 15.5v161q25 -9 50.5 -14t54.5 -5q57 0 88.5 39t31.5 133v1259h191v-1265q0 -106 -30.5 -180t-92.5 -111.5t-156 -38.5zM137 1400q0 62 30.5 91.5t81.5 29.5q50 0 80 -30t30 -91q0 -60 -30.5 -90.5t-79.5 -30.5q-50 0 -81 30.5t-31 90.5z" />
    <glyph glyph-name="uni0459" unicode="&#x459;" horiz-adv-x="1517" 
d="M862 1103v-449h170q135 0 224 -35.5t133.5 -106.5t44.5 -177t-44 -181t-133.5 -114.5t-225.5 -39.5h-359v940h-220q-16 -252 -40 -432.5t-62.5 -296t-97.5 -170.5t-146 -55q-30 0 -54.5 4t-45.5 13v155q11 -5 26 -8t31 -3q37 0 66.5 35t53.5 107.5t42.5 185.5t32.5 269
t25 359h579zM1020 503h-158v-354h159q104 0 162 43.5t58 135.5q0 91 -55 133t-166 42z" />
    <glyph glyph-name="uni045A" unicode="&#x45a;" horiz-adv-x="1586" 
d="M931 1103v-450h169q136 0 225 -35.5t133.5 -106t44.5 -176.5t-43.5 -181t-132.5 -114.5t-226 -39.5h-361v493h-397v-493h-193v1103h193v-451h398v451h190zM1090 503h-160v-354h160q104 0 162 43.5t58 135.5q0 91 -55 133t-165 42z" />
    <glyph glyph-name="uni045B" unicode="&#x45b;" horiz-adv-x="1114" 
d="M342 1556v-181h320v-141h-320v-147q0 -44 -3 -87.5t-8 -80.5h12q28 55 71 94t99.5 59t120.5 20q111 0 185.5 -42.5t112.5 -129t38 -219.5v-701h-191v666q0 135 -45.5 198.5t-140.5 63.5q-90 0 -145.5 -42.5t-80.5 -129.5t-25 -222v-534h-191v1234h-138v141h138v181h191z
" />
    <glyph glyph-name="uni045C" unicode="&#x45c;" horiz-adv-x="973" 
d="M720 1103h210l-390 -527l422 -576h-219l-401 565v-565h-192v1103h192v-530zM832 1569v-20q-21 -30 -56.5 -70.5t-77.5 -84.5t-84 -84t-76 -69h-128v24q36 47 72 99.5t68.5 105.5t56.5 99h225z" />
    <glyph glyph-name="uni045D" unicode="&#x45d;" horiz-adv-x="1167" 
d="M335 1103v-609q0 -28 -1 -61.5t-3 -68.5t-4 -69t-5 -62l469 870h225v-1103h-183v596q0 41 1.5 90.5t4 97.5t4.5 85l-469 -869h-224v1103h185zM506 1569q24 -47 58.5 -103.5t72 -109.5t68.5 -91v-24h-129q-33 27 -75 66.5t-84.5 84t-78 86t-56.5 71.5v20h224z" />
    <glyph glyph-name="uni045E" unicode="&#x45e;" horiz-adv-x="924" 
d="M6 1103h203l192 -626q13 -45 25 -88t21.5 -84t14.5 -81h8q9 53 26 118t38 135l184 626h202l-402 -1261q-35 -111 -83.5 -185.5t-115 -111.5t-156.5 -37q-38 0 -69 5t-58 12v161q20 -6 46.5 -10t52.5 -4q51 0 87 21.5t62.5 66.5t48.5 114l41 131zM819 1556
q-9 -103 -49 -173.5t-115.5 -107t-191.5 -36.5q-119 0 -193.5 35t-111 105.5t-43.5 176.5h168q9 -109 50.5 -152.5t131.5 -43.5q85 0 130 45.5t55 150.5h169z" />
    <glyph glyph-name="uni045F" unicode="&#x45f;" horiz-adv-x="1128" 
d="M474 0h-324v1103h192v-943h443v943h192v-1103h-320v-384h-183v384z" />
    <glyph glyph-name="uni0460" unicode="&#x460;" horiz-adv-x="1677" 
d="M417 -4q-79 163 -145 341.5t-115.5 366.5t-79.5 379t-37 379h204q7 -164 30.5 -329.5t59.5 -324.5t79.5 -303.5t90.5 -266.5h8q12 60 34 135.5t46 147.5l155 474q-12 78 -21.5 156.5t-15 156.5t-7.5 154h202q4 -159 25.5 -322t58 -322.5t84.5 -307.5t104 -279h7
q77 176 131.5 373.5t85.5 413.5t37 444h203q-10 -255 -54 -508t-124.5 -494.5t-202.5 -463.5h-165q-42 80 -81.5 168.5t-75 180t-65 181.5t-51.5 173l-221 -703h-184z" />
    <glyph glyph-name="uni0461" unicode="&#x461;" horiz-adv-x="1495" 
d="M1434 1103q-8 -194 -48 -383t-110.5 -370t-169.5 -350h-174q-36 72 -72.5 156.5t-68 171.5t-53.5 165l-211 -493h-172q-63 118 -117 250.5t-95 274t-65.5 288t-29.5 290.5h187q8 -167 39 -334.5t76.5 -316.5t96.5 -263h6q12 36 28.5 75t34 78t32.5 73l126 284
q-21 100 -32.5 203.5t-14.5 200.5h186q5 -155 32.5 -316.5t72 -315t97.5 -285.5h7q62 117 110.5 264t78 313.5t35.5 339.5h188z" />
    <glyph glyph-name="uni0462" unicode="&#x462;" horiz-adv-x="1178" 
d="M250 0v1118h-239v155h239v236h198v-236h336v-155h-336v-264h144q175 0 285.5 -49.5t162 -143t51.5 -226.5q0 -202 -119.5 -318.5t-365.5 -116.5h-356zM448 169h146q149 0 223 65.5t74 198.5q0 90 -33.5 145t-102.5 80.5t-175 25.5h-132v-515z" />
    <glyph glyph-name="uni0463" unicode="&#x463;" horiz-adv-x="1104" 
d="M408 1325v-222h276v-150h-276v-300h201q206 0 308.5 -80t102.5 -238q0 -106 -44.5 -181t-134.5 -114.5t-228 -39.5h-395v953h-204v150h204v222h190zM603 503h-195v-354h195q105 0 165 43.5t60 135.5q0 91 -56.5 133t-168.5 42z" />
    <glyph glyph-name="uni0464" unicode="&#x464;" horiz-adv-x="1634" 
d="M1207 -20q-189 0 -315 89t-191 245t-74 360h-259v-674h-197v1462h197v-616h264q13 141 57.5 258t119 202t179.5 131t241 47q96 0 185 -23.5t164 -65.5l-68 -166q-65 36 -135 59t-148 23q-89 0 -158 -34t-118 -96.5t-78.5 -147t-39.5 -187.5h556v-172h-559
q4 -113 30.5 -208.5t76 -165.5t123 -108.5t170.5 -38.5q81 0 154.5 18t146.5 49v-176q-70 -32 -148 -48t-176 -16z" />
    <glyph glyph-name="uni0465" unicode="&#x465;" horiz-adv-x="1358" 
d="M1023 -20q-138 0 -235.5 56.5t-152 170t-64.5 282.5h-229v-489h-192v1103h192v-460h230q14 159 72.5 266t155.5 160.5t227 53.5q75 0 143.5 -16.5t122.5 -43.5l-56 -150q-44 21 -98.5 36t-107.5 15q-82 0 -138.5 -36t-88 -107t-40.5 -178h402v-154h-402q5 -116 37 -194
t90 -117t142 -39q70 0 131.5 18t117.5 46v-162q-50 -30 -116.5 -45.5t-142.5 -15.5z" />
    <glyph glyph-name="uni0466" unicode="&#x466;" horiz-adv-x="1254" 
d="M738 1463l515 -1463h-205l-222 662h-110v-662h-181v662h-112l-221 -662h-204l513 1463h227zM624 1296q-4 -22 -11.5 -49t-17 -56.5t-19 -57.5t-18.5 -51l-81 -255h294l-84 262q-8 23 -16.5 49t-17 52.5t-16.5 53.5t-13 52z" />
    <glyph glyph-name="uni0467" unicode="&#x467;" horiz-adv-x="1058" 
d="M644 1103l407 -1103h-191l-163 468h-84v-468h-170v468h-86l-160 -468h-192l408 1103h231zM532 969h-8q-6 -26 -14 -52t-17 -51.5t-18 -49.5l-65 -196h235l-64 194q-9 26 -18.5 54t-17.5 54t-13 47z" />
    <glyph glyph-name="uni0468" unicode="&#x468;" horiz-adv-x="1732" 
d="M1225 1463l513 -1463h-207l-221 665h-108v-665h-180v665h-113l-220 -665h-205l235 675h-351v-675h-197v1462h197v-614h413l215 615h229zM1109 1296q-5 -24 -12.5 -50t-15.5 -53.5t-17.5 -54t-18.5 -52.5l-82 -256h290l-82 261q-8 24 -17 50t-17 52.5t-15.5 52.5t-12.5 50
z" />
    <glyph glyph-name="uni0469" unicode="&#x469;" horiz-adv-x="1478" 
d="M1066 1103l406 -1103h-191l-165 475h-81v-475h-170v475h-83l-164 -475h-190l181 490h-274v-490h-185v1103h185v-454h334l167 454h230zM953 969h-7q-7 -28 -17 -61t-21 -67t-22 -65l-52 -149h230l-52 154q-10 27 -21.5 62.5t-21.5 69.5t-16 56z" />
    <glyph glyph-name="uni046A" unicode="&#x46a;" horiz-adv-x="1347" 
d="M1202 1462v-123l-348 -500q104 -12 168.5 -57.5t106 -126t73.5 -197.5l127 -458h-205l-114 433q-24 94 -51 148t-71 78.5t-118 27.5v-687h-193v687q-75 -3 -118 -27t-69 -78t-51 -149l-114 -433h-207l127 458q24 88 51.5 155t65.5 114t93.5 75t134.5 37l-344 500v123
h1056zM960 1293h-574l287 -432z" />
    <glyph glyph-name="uni046B" unicode="&#x46b;" horiz-adv-x="1175" 
d="M1042 1103v-101l-284 -365q90 -13 143 -51.5t86.5 -101t60.5 -147.5l111 -337h-187l-102 335q-21 63 -44 99.5t-58 52.5t-94 16v-503h-173v503q-62 -1 -97 -17t-56.5 -52t-42.5 -98l-105 -336h-186l110 337q27 85 60.5 148t87.5 101.5t142 50.5l-284 365v101h912z
M815 956h-458l229 -302z" />
    <glyph glyph-name="uni046C" unicode="&#x46c;" horiz-adv-x="1839" 
d="M1698 1462v-123l-348 -508q106 -11 171 -58t105 -128t72 -194l128 -451h-203l-115 427q-25 95 -53 149t-71.5 77.5t-117.5 26.5v-680h-193v680q-72 -3 -115.5 -26t-70.5 -76.5t-53 -150.5l-114 -427h-204l126 442q23 80 49 139t61 97h-384v-678h-197v1462h197v-611h605
l-331 488v123h1056zM1456 1293h-573l286 -438z" />
    <glyph glyph-name="uni046D" unicode="&#x46d;" horiz-adv-x="1605" 
d="M1475 1103v-101l-284 -372q88 -12 142 -49.5t87 -99t61 -146.5l111 -335h-187l-104 332q-20 62 -42.5 97.5t-57.5 51t-95 16.5v-497h-172v497q-61 -1 -96 -17t-56.5 -51.5t-42.5 -96.5l-106 -332h-185l111 339q17 50 36 90t41 64h-301v-493h-185v1103h185v-451h498
l-270 350v101h912zM1247 956h-458l229 -304z" />
    <glyph glyph-name="uni046E" unicode="&#x46e;" horiz-adv-x="1057" 
d="M753 1752q29 0 51 -4t38 -9v-120q-10 5 -26.5 7.5t-32.5 2.5q-43 0 -86 -44.5t-82 -112.5q146 -28 225.5 -121t79.5 -228q0 -145 -81 -236t-220 -119v-8q162 -20 247 -110t85 -239q0 -98 -31.5 -175t-93.5 -131t-152.5 -83.5t-208.5 -32.5q-83 -3 -130 -17t-66 -39.5
t-19 -62.5q0 -53 36 -82.5t119 -29.5q60 0 107 3.5t89.5 6.5t88.5 3q59 0 98.5 -8t62.5 -23v-170q-20 15 -61.5 25.5t-102.5 10.5q-48 0 -93.5 -2.5t-95.5 -5.5t-114 -3q-117 0 -190 35t-107.5 97.5t-34.5 144.5q0 90 40 152t124 95.5t215 37.5q163 6 240.5 68t77.5 194
q0 135 -97.5 195.5t-277.5 60.5h-151v168h146q121 1 198.5 30t115 85.5t37.5 139.5q0 106 -65.5 161t-180.5 55q-93 0 -169 -30t-139 -79l-92 138q64 50 136.5 83.5t161.5 46.5q-25 37 -59 82t-69 89.5t-63 75.5v23h132q42 -34 89.5 -85.5t94.5 -110.5q34 53 72.5 99.5
t84 76t99.5 29.5z" />
    <glyph glyph-name="uni046F" unicode="&#x46f;" horiz-adv-x="885" 
d="M666 1360q27 0 49.5 -4t38.5 -10v-118q-11 5 -27 7.5t-32 2.5q-38 0 -78.5 -35t-78.5 -98q106 -27 166 -96t60 -173q0 -95 -49.5 -157t-132.5 -89v-8q66 -18 115 -53t76.5 -87.5t27.5 -126.5q0 -95 -43.5 -166.5t-133.5 -113t-231 -46.5q-75 -2 -116 -15t-57 -36.5
t-16 -56.5q0 -50 32.5 -73.5t107.5 -23.5q51 0 94.5 3t83.5 5.5t79 2.5q51 0 83.5 -8.5t51.5 -22.5v-162q-20 16 -56.5 24.5t-75.5 8.5q-36 0 -82.5 -2.5t-97.5 -5.5t-103 -3q-103 0 -167.5 32.5t-95 89.5t-30.5 133q0 80 35 138.5t109 92t191 37.5q80 4 135 23.5t83 58
t28 98.5q0 58 -28.5 97t-84.5 58.5t-140 19.5h-110v149h93q112 0 177 40.5t65 126.5q0 74 -50 111.5t-147 37.5q-64 0 -125.5 -16t-122.5 -47l-66 145q47 23 94 38.5t100 23.5q-24 37 -52 75.5t-57.5 75t-56.5 66.5v24h130q41 -36 86.5 -85.5t95.5 -108.5q34 53 72 99
t84 74.5t100 28.5z" />
    <glyph glyph-name="uni0470" unicode="&#x470;" horiz-adv-x="1501" 
d="M1382 1462v-477q0 -127 -28 -228t-90.5 -172t-165.5 -109t-254 -38v-438h-189v438q-151 0 -254.5 37.5t-165 108t-89 170.5t-27.5 224v484h195v-483q0 -121 32 -203.5t107 -125t202 -42.5v854h189v-854q120 1 195.5 38.5t110.5 118.5t35 212v485h197z" />
    <glyph glyph-name="uni0471" unicode="&#x471;" horiz-adv-x="1382" 
d="M789 1555v-1410q98 9 164 57.5t99.5 142.5t33.5 239q0 133 -17.5 257.5t-50.5 261.5h187q35 -142 51.5 -265.5t16.5 -254.5q0 -198 -59.5 -328.5t-168.5 -197t-256 -74.5v-474h-185v474q-144 5 -248.5 63.5t-160.5 178.5t-56 308v570h189v-567q0 -133 32.5 -217t94 -126
t149.5 -49v1411h185z" />
    <glyph glyph-name="uni0472" unicode="&#x472;" horiz-adv-x="1381" 
d="M1269 733q0 -165 -35 -303t-106 -239t-180 -156t-257 -55q-151 0 -260.5 56t-180 157t-105 239.5t-34.5 302.5q0 237 64.5 404.5t194 256t323.5 88.5q196 0 323.5 -95t190 -264t62.5 -392zM691 152q119 0 199.5 59.5t123.5 173.5t49 278h-745q6 -162 49 -276t124 -174.5
t200 -60.5zM693 1312q-117 0 -196.5 -56t-124 -163.5t-53.5 -262.5h742q-14 233 -104.5 357.5t-263.5 124.5z" />
    <glyph glyph-name="uni0473" unicode="&#x473;" horiz-adv-x="1094" 
d="M999 553q0 -182 -54.5 -310.5t-156 -195.5t-244.5 -67q-135 0 -236 67.5t-156.5 195.5t-55.5 310q0 276 119.5 423t334.5 147q141 0 241.5 -71.5t154 -199.5t53.5 -299zM547 140q82 0 136.5 40t83.5 118t35 193h-510q5 -111 34 -189.5t83.5 -120t137.5 -41.5zM547 961
q-120 0 -181.5 -82t-73.5 -241h509q-7 101 -36 173.5t-83 111t-135 38.5z" />
    <glyph glyph-name="uni0474" unicode="&#x474;" horiz-adv-x="1169" 
d="M1123 1307q-40 0 -67 -26t-47.5 -77.5t-43.5 -130.5l-303 -1073h-225l-437 1462h205l269 -931q18 -60 31.5 -116t24.5 -108.5t19 -104.5q6 36 14 75.5t17 80.5t19 82t20 78l159 587q38 135 75 216t90 117.5t137 37.5q37 0 68 -7t54 -17v-162q-19 7 -39 12t-40 5z" />
    <glyph glyph-name="uni0475" unicode="&#x475;" horiz-adv-x="970" 
d="M895 1116q28 0 53.5 -4.5t45.5 -12.5v-153q-16 7 -33 10.5t-32 3.5q-30 -1 -50.5 -18t-36.5 -54t-33 -98l-237 -790h-220l-348 1103h198l198 -676q20 -70 35.5 -133t23.5 -115h7q7 49 21 115.5t33 135.5l111 384q33 116 65.5 182t79 93t119.5 27z" />
    <glyph glyph-name="uni0476" unicode="&#x476;" horiz-adv-x="1169" 
d="M1123 1307q-40 0 -67 -26t-47.5 -77.5t-43.5 -130.5l-303 -1073h-225l-437 1462h205l269 -931q18 -60 31.5 -116t24.5 -108.5t19 -104.5q6 36 14 75.5t17 80.5t19 82t20 78l159 587q38 135 75 216t90 117.5t137 37.5q37 0 68 -7t54 -17v-162q-19 7 -39 12t-40 5z
M655 1919q19 -41 48 -96t62 -110t61 -98v-24h-100q-33 28 -73 68t-78.5 84.5t-69.5 85.5t-46 70v20h196zM322 1919q22 -48 50 -102t59 -106t60 -96v-24h-102q-33 28 -72 68t-77 84.5t-69.5 85.5t-47.5 70v20h199z" />
    <glyph glyph-name="uni0477" unicode="&#x477;" horiz-adv-x="970" 
d="M895 1116q28 0 53.5 -4.5t45.5 -12.5v-153q-16 7 -33 10.5t-32 3.5q-30 -1 -50.5 -18t-36.5 -54t-33 -98l-237 -790h-220l-348 1103h198l198 -676q20 -70 35.5 -133t23.5 -115h7q7 49 21 115.5t33 135.5l111 384q33 116 65.5 182t79 93t119.5 27zM569 1569q19 -41 48 -96
t62 -110t61 -98v-24h-100q-33 28 -73 68t-78.5 84.5t-69.5 85.5t-46 70v20h196zM236 1569q22 -48 50 -102t59 -106t60 -96v-24h-102q-33 28 -72 68t-77 84.5t-69.5 85.5t-47.5 70v20h199z" />
    </font>
</defs>
</svg>
