<?xml version="1.0" standalone="no"?>
<!DOCTYPE svg PUBLIC "-//W3C//DTD SVG 1.1//EN" "http://www.w3.org/Graphics/SVG/1.1/DTD/svg11.dtd" >
<svg xmlns="http://www.w3.org/2000/svg" xmlns:xlink="http://www.w3.org/1999/xlink" version="1.1">
<metadata>
Created by FontForge 20170731 at Wed Feb 10 17:54:37 2021
 By Aleksey,,,
Copyright 2020 The Open Sans Project Authors (https://github.com/googlefonts/opensans)
</metadata>
<defs>
<font id="OpenSansCondensed-LightItalic" horiz-adv-x="0" >
  <font-face 
    font-family="Open Sans Condensed Light"
    font-weight="300"
    font-style="italic"
    font-stretch="condensed"
    units-per-em="2048"
    panose-1="0 0 0 0 0 0 0 0 0 0"
    ascent="1638"
    descent="-410"
    x-height="1085"
    cap-height="1462"
    bbox="-814 -533 1985 2166"
    underline-thickness="50"
    underline-position="-175"
    slope="-12"
    unicode-range="U+000D-FFFD"
  />
<missing-glyph horiz-adv-x="1229" 
 />
    <glyph glyph-name="f_f" unicode="ff" horiz-adv-x="812" 
d="M-174 -492q-28 0 -49.5 4t-38.5 10v84q18 -6 37 -9t44 -3q77 0 108 63t54 167l253 1178h-121l11 59l127 26l40 180q16 75 36.5 130.5t48 93.5t67 57t94.5 19q30 0 62.5 -7.5t52.5 -18.5l-35 -78q-16 9 -38 14.5t-44 5.5q-67 0 -98.5 -59t-55.5 -168l-37 -171h310l37 183
q16 74 36 129.5t48 93.5t67.5 57t94.5 19q31 0 63 -7.5t53 -18.5l-35 -78q-17 9 -39 14.5t-43 5.5q-67 0 -99 -59t-56 -168l-37 -171h144l-16 -83h-144l-255 -1185q-19 -85 -45 -155.5t-73.5 -112t-129.5 -41.5q-27 0 -48.5 4t-38.5 10v84q17 -6 36.5 -9t44.5 -3
q78 0 108.5 63t54.5 167l252 1178h-307l-254 -1185q-19 -85 -45.5 -155.5t-73.5 -112t-128 -41.5z" />
    <glyph glyph-name="fi" unicode="fi" horiz-adv-x="748" 
d="M-174 -492q-28 0 -49.5 4t-38.5 10v84q18 -6 37 -9t44 -3q77 0 108.5 63t53.5 167l253 1178h-121l11 59l127 26l40 180q16 75 36.5 130.5t48 93.5t67 57t94.5 19q30 0 62.5 -7.5t52.5 -18.5l-35 -78q-16 9 -38 14.5t-44 5.5q-67 0 -98.5 -59t-55.5 -168l-37 -171h145
l-18 -83h-144l-254 -1185q-19 -85 -45.5 -155.5t-73.5 -112t-128 -41.5zM413 0l230 1085h93l-230 -1085h-93zM743 1304q-26 0 -39.5 15.5t-13.5 44.5q0 27 8.5 52.5t27 43t45.5 17.5q24 0 37.5 -14.5t13.5 -45.5q0 -39 -20.5 -76t-58.5 -37z" />
    <glyph glyph-name="fl" unicode="fl" horiz-adv-x="748" 
d="M-174 -492q-28 0 -49.5 4t-38.5 10v84q18 -6 37 -9t44 -3q77 0 108.5 63t53.5 167l253 1178h-121l11 59l127 26l40 180q16 75 36.5 130.5t48 93.5t67 57t94.5 19q30 0 62.5 -7.5t52.5 -18.5l-35 -78q-16 9 -38 14.5t-44 5.5q-67 0 -98.5 -59t-55.5 -168l-37 -171h145
l-18 -83h-144l-254 -1185q-19 -85 -45.5 -155.5t-73.5 -112t-128 -41.5zM412 0l332 1556h92l-331 -1556h-93z" />
    <glyph glyph-name="f_f_i" unicode="ffi" horiz-adv-x="1152" 
d="M-174 -492q-28 0 -49.5 4t-38.5 10v84q18 -6 37 -9t44 -3q77 0 108 63t54 167l253 1178h-121l11 59l127 26l40 180q16 75 36.5 130.5t48 93.5t67 57t94.5 19q30 0 62.5 -7.5t52.5 -18.5l-35 -78q-16 9 -38 14.5t-44 5.5q-67 0 -98.5 -59t-55.5 -168l-37 -171h310l37 183
q16 74 36 129.5t48 93.5t67.5 57t94.5 19q31 0 63 -7.5t53 -18.5l-35 -78q-17 9 -39 14.5t-43 5.5q-67 0 -99 -59t-56 -168l-37 -171h144l-16 -83h-144l-255 -1185q-19 -85 -45 -155.5t-73.5 -112t-129.5 -41.5q-27 0 -48.5 4t-38.5 10v84q17 -6 36.5 -9t44.5 -3
q78 0 108.5 63t54.5 167l252 1178h-307l-254 -1185q-19 -85 -45.5 -155.5t-73.5 -112t-128 -41.5zM814 0l230 1085h92l-231 -1085h-91zM1141 1304q-25 0 -38.5 15.5t-13.5 44.5q0 27 8.5 52.5t26.5 43t46 17.5q24 0 38 -14.5t14 -45.5q0 -39 -21 -76t-60 -37z" />
    <glyph glyph-name="f_f_l" unicode="ffl" horiz-adv-x="1142" 
d="M-174 -492q-28 0 -49.5 4t-38.5 10v84q18 -6 37 -9t44 -3q77 0 108 63t54 167l253 1178h-121l11 59l127 26l40 180q16 75 36.5 130.5t48 93.5t67 57t94.5 19q30 0 62.5 -7.5t52.5 -18.5l-35 -78q-16 9 -38 14.5t-44 5.5q-67 0 -98.5 -59t-55.5 -168l-37 -171h310l37 183
q16 74 36 129.5t48 93.5t67.5 57t94.5 19q31 0 63 -7.5t53 -18.5l-35 -78q-17 9 -39 14.5t-43 5.5q-67 0 -99 -59t-56 -168l-37 -171h144l-16 -83h-144l-255 -1185q-19 -85 -45 -155.5t-73.5 -112t-129.5 -41.5q-27 0 -48.5 4t-38.5 10v84q17 -6 36.5 -9t44.5 -3
q78 0 108.5 63t54.5 167l252 1178h-307l-254 -1185q-19 -85 -45.5 -155.5t-73.5 -112t-128 -41.5zM813 0l331 1556h93l-331 -1556h-93z" />
    <glyph glyph-name=".notdef" horiz-adv-x="1229" 
 />
    <glyph glyph-name=".null" 
 />
    <glyph glyph-name="nonmarkingreturn" horiz-adv-x="682" 
 />
    <glyph glyph-name="NULL" 
 />
    <glyph glyph-name="NULL" 
 />
    <glyph glyph-name="CR" unicode="&#xd;" horiz-adv-x="346" 
 />
    <glyph glyph-name="space" unicode=" " horiz-adv-x="346" 
 />
    <glyph glyph-name="exclam" unicode="!" horiz-adv-x="440" 
d="M121 366l229 1096h106l-256 -1096h-79zM82 -7q-24 0 -39.5 16t-15.5 47q0 43 22 81t66 38q25 0 39 -17t14 -48q0 -42 -22.5 -79.5t-63.5 -37.5z" />
    <glyph glyph-name="quotedbl" unicode="&#x22;" horiz-adv-x="588" 
d="M460 934l97 528h103l-131 -528h-69zM198 934l95 528h103l-130 -528h-68z" />
    <glyph glyph-name="numbersign" unicode="#" horiz-adv-x="794" 
d="M5 0l146 468h-147l8 80h162l129 414h-156l9 79h173l130 421h80l-130 -421h204l130 421h79l-130 -421h141l-9 -79h-157l-128 -414h150l-8 -80h-167l-144 -468h-81l145 468h-205l-143 -468h-81zM254 548h205l129 414h-205z" />
    <glyph glyph-name="dollar" unicode="$" horiz-adv-x="737" 
d="M178 -119l43 205q-80 2 -138.5 19t-95.5 37l8 94q40 -25 101 -45t144 -23l116 548q-48 47 -91 94t-69 103.5t-26 129.5q0 110 41 184t114.5 114t171.5 45l37 170h61l-36 -170q78 -4 132 -24.5t88 -41.5l-43 -79q-33 22 -81 41t-114 22l-113 -537q53 -50 95.5 -99
t67.5 -103.5t25 -123.5q0 -107 -40 -184t-114.5 -120.5t-177.5 -50.5l-44 -205h-62zM301 172q77 7 127.5 39.5t75.5 88.5t25 133q0 45 -14 82t-41.5 73t-67.5 79zM377 816l103 488q-73 -6 -122.5 -37.5t-75 -84.5t-25.5 -128q0 -47 13.5 -86t41 -75.5t65.5 -76.5z" />
    <glyph glyph-name="percent" unicode="%" horiz-adv-x="1132" 
d="M166 0l737 1462h81l-732 -1462h-86zM239 565q-66 0 -104.5 51.5t-38.5 170.5q0 73 13 165t38.5 185t64.5 172t91.5 126.5t118.5 47.5t103 -50.5t37 -160.5q0 -67 -12.5 -157.5t-37.5 -186t-63.5 -178t-91 -134t-118.5 -51.5zM248 643q45 0 80.5 48t64 124.5t48 163
t30 164.5t10.5 127q0 76 -17.5 106t-52.5 30q-42 0 -78 -44t-64.5 -115.5t-49 -154.5t-31.5 -162.5t-11 -137.5q0 -86 19.5 -117.5t51.5 -31.5zM734 -23q-67 0 -104.5 51.5t-37.5 170.5q0 75 12.5 167.5t38.5 185.5t65 170.5t90.5 125t117.5 47.5t103 -50t37 -161
q0 -67 -12 -158.5t-37 -187t-63.5 -177.5t-91 -133t-118.5 -51zM743 55q43 0 79 48t65 124.5t48 162.5t30 164.5t11 127.5q0 76 -19 106t-52 30q-43 0 -79 -45t-64.5 -116.5t-49 -155t-31 -162t-10.5 -135.5q0 -85 19.5 -117t52.5 -32z" />
    <glyph glyph-name="ampersand" unicode="&#x26;" horiz-adv-x="743" 
d="M198 -20q-102 0 -160 66.5t-58 190.5q0 114 37.5 212t105.5 183t161 163q-20 67 -31 143t-11 150q0 114 28.5 202.5t83.5 140.5t137 52q45 0 80.5 -21.5t55.5 -63.5t20 -103q0 -103 -32.5 -196t-89 -173.5t-133.5 -149.5l116 -435q31 61 60 139t48 162h91
q-15 -64 -40 -134t-56 -138.5t-67 -131.5l69 -238h-99l-43 160q-47 -69 -110 -124.5t-163 -55.5zM212 66q55 0 97 26t73.5 68t59.5 87l-130 472q-74 -69 -127 -142t-81 -152.5t-28 -171.5q0 -62 16 -103.5t47 -62.5t73 -21zM365 853q41 41 75.5 89.5t60 103.5t39.5 115.5
t14 123.5q0 54 -19.5 86t-56.5 32q-48 0 -80.5 -44.5t-48.5 -114t-16 -145.5q0 -72 8 -132.5t24 -113.5z" />
    <glyph glyph-name="quotesingle" unicode="'" horiz-adv-x="327" 
d="M201 934l95 528h103l-130 -528h-68z" />
    <glyph glyph-name="parenleft" unicode="(" horiz-adv-x="507" 
d="M166 -324q-37 75 -63.5 170.5t-41 199.5t-14.5 204q0 174 33 336.5t96.5 313.5t156 291t210.5 270h82q-118 -141 -208 -284.5t-152.5 -292.5t-93.5 -307.5t-31 -328.5q0 -101 12 -203t36 -196.5t58 -172.5h-80z" />
    <glyph glyph-name="parenright" unicode=")" horiz-adv-x="508" 
d="M-144 -324q117 141 207.5 284.5t152 292.5t93 307.5t31.5 328.5q0 100 -12 203t-35.5 198t-57.5 171h80q37 -77 63.5 -171.5t41 -197.5t14.5 -205q0 -176 -33 -338.5t-96.5 -313t-156 -290.5t-211.5 -269h-81z" />
    <glyph glyph-name="asterisk" unicode="*" horiz-adv-x="683" 
d="M599 958l-109 238l-186 -192l-58 56l204 180l-221 103l32 73l211 -125l29 264l86 -12l-56 -259l235 56l9 -80l-237 -33l135 -231z" />
    <glyph glyph-name="plus" unicode="+" horiz-adv-x="841" 
d="M471 762h315v-84h-315v-429h-85v429h-318v84h318v436h85v-436z" />
    <glyph glyph-name="comma" unicode="," horiz-adv-x="355" 
d="M-84 -264q32 63 68 145.5t68 167.5t49 153h94l7 -21q-23 -68 -58 -147t-76 -157t-82 -141h-70z" />
    <glyph glyph-name="hyphen" unicode="-" horiz-adv-x="535" 
d="M43 510l11 91h430l-11 -91h-430z" />
    <glyph glyph-name="period" unicode="." horiz-adv-x="352" 
d="M85 -7q-26 0 -41 16.5t-15 47.5q0 41 21.5 79.5t65.5 38.5q25 0 39.5 -17t14.5 -49q0 -42 -23 -79t-62 -37z" />
    <glyph glyph-name="slash" unicode="/" horiz-adv-x="630" 
d="M-95 0l778 1462h89l-779 -1462h-88z" />
    <glyph glyph-name="zero" unicode="0" horiz-adv-x="739" 
d="M247 -20q-96 0 -151 82.5t-55 263.5q0 78 13 193.5t40 246.5t67.5 257.5t95 230.5t124.5 166.5t154 62.5q51 0 88 -19t62 -59t37.5 -100t12.5 -141q0 -91 -13.5 -213t-40.5 -255t-67 -260t-94 -230.5t-122 -164.5t-151 -61zM253 67q61 0 113.5 59.5t95.5 158.5t76.5 219
t57 243.5t35 232.5t11.5 185q0 123 -27.5 176.5t-86.5 53.5q-61 0 -113.5 -59t-96.5 -156t-78 -215.5t-58 -239t-36 -225.5t-12 -176q0 -142 31.5 -199.5t87.5 -57.5z" />
    <glyph glyph-name="one" unicode="1" horiz-adv-x="739" 
d="M229 0l245 1161q7 30 13 55.5t13 55t17 72.5q-13 -15 -28.5 -30t-35.5 -31l-178 -149l-50 63l316 265h92l-309 -1462h-95z" />
    <glyph glyph-name="two" unicode="2" horiz-adv-x="739" 
d="M-70 0l12 77l350 432q73 91 136.5 176t112 168t75.5 167t27 174q0 100 -47 151t-128 51q-43 0 -77.5 -11.5t-64 -30t-59.5 -41.5l-42 73q44 39 108 68t151 29q75 0 133 -33.5t91.5 -95.5t33.5 -148q0 -124 -48.5 -242.5t-131.5 -237t-186 -243.5l-319 -390v-6h470
l-16 -87h-581z" />
    <glyph glyph-name="three" unicode="3" horiz-adv-x="739" 
d="M181 -22q-68 0 -126 14.5t-97 37.5v100q44 -30 100 -48t121 -18q85 0 147 34.5t102.5 90.5t60 125.5t19.5 140.5q0 94 -28 151t-78 82.5t-121 25.5h-57l17 86h60q86 0 151 33.5t109.5 90t67 126.5t22.5 143q0 95 -44 149.5t-134 54.5q-70 0 -123.5 -28t-95.5 -65l-41 77
q50 41 116.5 71.5t155.5 30.5q85 0 143.5 -34.5t89 -97.5t30.5 -146q0 -104 -40 -198.5t-109.5 -160.5t-161.5 -86l-2 -4q76 -24 123 -94t47 -198q0 -90 -25.5 -176.5t-78 -156.5t-132 -111.5t-188.5 -41.5z" />
    <glyph glyph-name="four" unicode="4" horiz-adv-x="739" 
d="M344 0l72 335h-455l14 73l656 1071h120l-225 -1059h139l-17 -85h-141l-70 -335h-93zM70 420h363l157 727q9 38 17 76t17 75t17 70h-5q-30 -57 -51.5 -95.5t-49.5 -84.5z" />
    <glyph glyph-name="five" unicode="5" horiz-adv-x="739" 
d="M170 -20q-47 0 -87.5 7.5t-72 19.5t-53.5 22v104q35 -27 90 -47.5t126 -20.5q94 0 162.5 39t113 104.5t65.5 146.5t21 166q0 136 -55.5 203.5t-167.5 67.5q-43 0 -80 -8.5t-72 -22.5l-38 54l178 647h454l-19 -88h-369l-144 -516q23 7 53.5 13t69.5 6q92 0 156.5 -41
t98.5 -117.5t34 -183.5q0 -103 -27.5 -201.5t-84 -178.5t-144 -127.5t-208.5 -47.5z" />
    <glyph glyph-name="six" unicode="6" horiz-adv-x="739" 
d="M281 -20q-73 0 -126 39.5t-80.5 116t-27.5 187.5q0 117 15 237.5t43 236t65.5 217.5t81.5 183q39 73 94.5 138t130 106.5t167.5 41.5q48 0 82 -6t59 -16l-26 -86q-23 10 -53.5 16t-63.5 6q-104 0 -188.5 -71.5t-151 -217t-119.5 -369.5h8q30 51 68.5 87.5t86.5 56.5
t103 20q103 0 160.5 -79t57.5 -215q0 -98 -22.5 -207.5t-69 -205.5t-119.5 -156t-175 -60zM288 66q75 0 129.5 55t87.5 139.5t49 175t16 162.5q0 107 -38.5 163t-106.5 56q-62 0 -111 -30t-83.5 -81t-54.5 -114q-12 -33 -20 -73t-11.5 -88t-3.5 -107q0 -65 10 -113.5
t29 -80.5t46 -48t62 -16z" />
    <glyph glyph-name="seven" unicode="7" horiz-adv-x="739" 
d="M71 0l640 1375h-518l17 87h610l-9 -77l-640 -1385h-100z" />
    <glyph glyph-name="eight" unicode="8" horiz-adv-x="739" 
d="M274 -20q-90 0 -157 38.5t-103 107.5t-36 160q0 119 41.5 208t118.5 156.5t182 122.5q-43 51 -74 104.5t-48 113t-17 125.5q0 105 39.5 188t113.5 131t176 48q75 0 131 -34t88 -94.5t32 -139.5q0 -99 -36.5 -182.5t-105.5 -151t-168 -118.5q55 -57 94.5 -117.5t61 -128
t21.5 -146.5q0 -103 -42 -192t-121 -144t-191 -55zM275 65q85 0 142 40.5t86.5 110t29.5 152.5q0 73 -21 133.5t-57.5 113.5t-81.5 102q-88 -46 -155.5 -102.5t-106.5 -134.5t-39 -186q0 -101 55.5 -165t147.5 -64zM399 817q91 45 150.5 104t89 129.5t29.5 150.5
q0 96 -47 147.5t-120 51.5q-67 0 -118 -33.5t-80.5 -95.5t-29.5 -150q0 -96 34 -167.5t92 -136.5z" />
    <glyph glyph-name="nine" unicode="9" horiz-adv-x="739" 
d="M137 -20q-48 0 -83 6.5t-61 15.5v91q23 -13 61.5 -20.5t81.5 -7.5q79 0 146 40.5t123 121.5t102.5 205t85.5 291h-4q-31 -50 -71 -87t-87.5 -57t-101.5 -20q-69 0 -118.5 37t-74.5 103t-25 155q0 79 14 165t43.5 168.5t75 149t108 106.5t143.5 40q73 0 125.5 -38
t80.5 -113t28 -189q0 -112 -14 -227t-38 -226t-57 -210t-72 -180q-31 -64 -70.5 -121.5t-90 -102.5t-113 -70.5t-137.5 -25.5zM352 646q56 0 101 26t78 71t53 102q26 52 38.5 123.5t12.5 170.5q0 87 -17 144.5t-49.5 85t-79.5 27.5q-75 0 -128.5 -53.5t-88 -136.5
t-51 -173.5t-16.5 -164.5q0 -109 39 -165.5t108 -56.5z" />
    <glyph glyph-name="colon" unicode=":" horiz-adv-x="352" 
d="M255 909q-25 0 -40.5 17t-15.5 47q0 29 10 55.5t29.5 44.5t47.5 18q26 0 40.5 -17t14.5 -48q0 -42 -23 -79.5t-63 -37.5zM60 -7q-26 0 -41 16.5t-15 47.5q0 41 22 79.5t65 38.5q25 0 39.5 -17t14.5 -49q0 -42 -23 -79t-62 -37z" />
    <glyph glyph-name="semicolon" unicode=";" horiz-adv-x="356" 
d="M-96 -264q35 69 71 150t66.5 163t49.5 153h92l9 -21q-24 -68 -59 -146.5t-76 -156.5t-82 -142h-71zM266 909q-25 0 -40 17t-15 47q0 29 9.5 55.5t29 44.5t48.5 18q25 0 39.5 -17t14.5 -48q0 -42 -23 -79.5t-63 -37.5z" />
    <glyph glyph-name="less" unicode="&#x3c;" horiz-adv-x="841" 
d="M788 291l-721 418v65l721 385v-97l-613 -321l613 -355v-95z" />
    <glyph glyph-name="equal" unicode="=" horiz-adv-x="841" 
d="M68 898v87h718v-87h-718zM68 459v85h718v-85h-718z" />
    <glyph glyph-name="greater" unicode="&#x3e;" horiz-adv-x="841" 
d="M67 386l615 354l-615 322v97l721 -385v-65l-721 -418v95z" />
    <glyph glyph-name="question" unicode="?" horiz-adv-x="531" 
d="M102 366q21 103 44.5 176t61 137.5t99.5 141.5q66 81 113.5 144.5t73.5 128.5t26 149q0 75 -38.5 114t-103.5 39q-55 0 -96.5 -18t-76.5 -43l-29 74q47 35 102.5 54.5t114.5 19.5q106 0 164.5 -60t58.5 -166q0 -89 -30 -164.5t-80.5 -147t-116.5 -150.5t-105 -139.5
t-62 -127t-40 -162.5h-80zM83 -7q-24 0 -39.5 16.5t-15.5 47.5q0 41 21.5 79.5t65.5 38.5q24 0 39 -17t15 -49q0 -42 -23 -79t-63 -37z" />
    <glyph glyph-name="at" unicode="@" horiz-adv-x="1101" 
d="M392 -180q-88 0 -152 32.5t-106 93t-63 146t-21 191.5q0 161 29.5 329t86.5 322t141 275t192.5 192t241.5 71q108 0 182 -51.5t111 -151t37 -244.5q0 -90 -15 -196.5t-43.5 -211t-70 -191t-94 -138.5t-113.5 -52q-66 0 -89.5 47t-24.5 128h-2q-26 -79 -70.5 -129.5
t-101.5 -50.5q-60 0 -94 48t-34 152q0 66 14.5 149.5t44.5 167t73.5 155t101.5 114.5t128 43q39 0 77.5 -7.5t68.5 -21.5l-109 -438q-18 -68 -26 -115.5t-8 -73.5q0 -50 13.5 -72.5t45.5 -22.5q41 0 78.5 47.5t68.5 126.5t54 173.5t35.5 189t12.5 171.5q0 135 -29 219
t-86.5 123t-142.5 39q-116 0 -211.5 -66.5t-168 -181t-123 -258.5t-76 -299.5t-25.5 -303.5q0 -117 26.5 -206.5t84.5 -139t155 -49.5q59 0 114 14.5t91 35.5v-73q-40 -22 -93.5 -36.5t-115.5 -14.5zM466 306q44 0 92 89.5t94 270.5l81 312q-13 5 -28.5 7t-34.5 2
q-63 0 -113 -58.5t-85.5 -147t-53.5 -181t-18 -161.5q0 -70 17 -101.5t49 -31.5z" />
    <glyph glyph-name="A" unicode="A" horiz-adv-x="728" 
d="M-136 0l605 1468h120v-1468h-97l2 539h-307l-221 -539h-102zM219 626h276l7 573q0 45 1.5 85.5t3.5 71.5h-5q-10 -30 -23 -68.5t-34 -90.5z" />
    <glyph glyph-name="B" unicode="B" horiz-adv-x="809" 
d="M5 0l308 1462h221q91 0 155 -32.5t97.5 -93.5t33.5 -147q0 -93 -30.5 -181.5t-93.5 -153t-162 -87.5v-5q78 -19 123.5 -89.5t45.5 -177.5q0 -136 -48.5 -248.5t-146 -179.5t-247.5 -67h-256zM118 87h145q125 0 199.5 58.5t108 151.5t33.5 195q0 125 -61 178.5t-162 53.5
h-128zM270 810h132q112 0 182 54t103 139t33 175q0 97 -50 147.5t-155 50.5h-126z" />
    <glyph glyph-name="C" unicode="C" horiz-adv-x="728" 
d="M385 -20q-103 0 -171.5 50.5t-103.5 156t-35 269.5q0 112 23 249t71 274.5t121.5 252t174 184t227.5 69.5q64 0 110.5 -15.5t83.5 -43.5l-53 -79q-26 25 -62.5 37.5t-81.5 12.5q-105 0 -187.5 -65t-144.5 -170.5t-102.5 -231.5t-60.5 -249t-20 -220q0 -208 55 -301
t172 -93q37 0 78 10t89 29v-91q-48 -17 -93 -26t-90 -9z" />
    <glyph glyph-name="D" unicode="D" horiz-adv-x="883" 
d="M4 0l309 1462h186q168 0 258 -102.5t90 -322.5q0 -122 -21 -263t-68 -278t-122.5 -249t-183.5 -179.5t-252 -67.5h-196zM116 88h91q118 0 207 61.5t152.5 163.5t102.5 226.5t58 253.5t19 240q0 189 -65.5 265t-194.5 76h-96z" />
    <glyph glyph-name="E" unicode="E" horiz-adv-x="714" 
d="M2 0l311 1462h487l-18 -87h-392l-120 -564h367l-21 -88h-366l-135 -635h392l-17 -88h-488z" />
    <glyph glyph-name="F" unicode="F" horiz-adv-x="664" 
d="M2 0l311 1462h489l-18 -87h-394l-135 -630h370l-19 -87h-368l-141 -658h-95z" />
    <glyph glyph-name="G" unicode="G" horiz-adv-x="957" 
d="M447 -20q-186 0 -279.5 115.5t-93.5 346.5q0 160 28.5 313.5t84 285.5t135 231.5t181.5 156t223 56.5q90 0 157.5 -25.5t118.5 -62.5l-52 -81q-49 39 -105 60t-124 21q-129 0 -231 -83t-173 -220.5t-108 -305.5t-37 -340q0 -133 32 -217t96 -124t157 -40q51 0 96.5 8
t87.5 24l117 555h-194l19 86h290l-152 -708q-63 -24 -130.5 -38t-143.5 -14z" />
    <glyph glyph-name="H" unicode="H" horiz-adv-x="934" 
d="M2 0l311 1462h95l-138 -650h465l140 650h94l-312 -1462h-94l154 723h-467l-153 -723h-95z" />
    <glyph glyph-name="I" unicode="I" horiz-adv-x="373" 
d="M2 0l311 1462h93l-310 -1462h-94z" />
    <glyph glyph-name="J" unicode="J" horiz-adv-x="352" 
d="M-179 -367q-36 0 -65 6.5t-51 16.5l25 85q20 -9 43.5 -15t48.5 -6q47 0 78.5 25t54.5 79t42 139l317 1499h95l-322 -1521q-22 -106 -56.5 -174.5t-86 -101t-123.5 -32.5z" />
    <glyph glyph-name="K" unicode="K" horiz-adv-x="754" 
d="M2 0l311 1462h95l-165 -779l130 188l428 591h107l-470 -653l181 -809h-104l-157 733l-140 -165l-121 -568h-95z" />
    <glyph glyph-name="L" unicode="L" horiz-adv-x="645" 
d="M2 0l311 1462h95l-293 -1374h376l-18 -88h-471z" />
    <glyph glyph-name="M" unicode="M" horiz-adv-x="1249" 
d="M2 0l311 1462h135l63 -1321h6l620 1321h146l-311 -1462h-94l235 1106q6 30 13 59t14.5 61t16.5 69h-4l-610 -1295h-114l-60 1296h-5q-7 -42 -13 -74.5t-11.5 -62t-11.5 -61.5l-234 -1098h-92z" />
    <glyph glyph-name="N" unicode="N" horiz-adv-x="984" 
d="M2 0l311 1462h116l226 -1275h4q10 56 21.5 112t21 105t16.5 82l208 976h94l-312 -1462h-111l-228 1293h-4q-5 -35 -12 -74t-15.5 -79t-17 -80.5t-16.5 -78.5l-208 -981h-94z" />
    <glyph glyph-name="O" unicode="O" horiz-adv-x="949" 
d="M351 -20q-92 0 -154.5 44.5t-94 135.5t-31.5 232q0 101 15 219.5t45 241.5t76 235.5t109 201.5t142.5 141t176.5 52q137 0 207 -93t70 -296q0 -94 -14 -212t-42 -243t-72.5 -242.5t-106.5 -211.5t-143 -149.5t-183 -55.5zM360 67q78 0 142 51.5t114.5 138.5t88 195
t61.5 223.5t36.5 224t12.5 193.5q0 158 -46 230t-142 72q-80 0 -145.5 -52t-116.5 -139.5t-87.5 -195.5t-61 -221t-36 -215.5t-11.5 -178.5q0 -114 21.5 -186t64.5 -106t105 -34z" />
    <glyph glyph-name="P" unicode="P" horiz-adv-x="761" 
d="M4 0l309 1462h166q105 0 174.5 -36.5t104.5 -105t35 -165.5q0 -119 -31.5 -219.5t-91.5 -174t-147 -114.5t-199 -41h-96l-130 -606h-94zM245 694h75q127 0 209.5 59.5t123 161.5t40.5 232q0 108 -53 168t-175 60h-75z" />
    <glyph glyph-name="Q" unicode="Q" horiz-adv-x="949" 
d="M476 -349l-94 333q-10 -1 -20.5 -2t-21.5 -1q-89 2 -149 46.5t-90 135t-30 229.5q0 101 15 219.5t45 241.5t76 235.5t109 201.5t142.5 141t176.5 52q137 0 207 -93t70 -296q0 -100 -16 -228.5t-48.5 -263.5t-84 -257.5t-124 -212.5t-166.5 -127l107 -353zM360 67
q78 0 142 51.5t114.5 138.5t88 195t61.5 223.5t36.5 224t12.5 193.5q0 158 -46 230t-142 72q-80 0 -145.5 -52t-116.5 -139.5t-87.5 -195.5t-61 -221t-36 -215.5t-11.5 -178.5q0 -114 21.5 -186t64.5 -106t105 -34z" />
    <glyph glyph-name="R" unicode="R" horiz-adv-x="777" 
d="M4 0l309 1462h179q137 0 217.5 -77.5t80.5 -227.5q0 -119 -36 -225t-105 -179t-170 -95l122 -658h-103l-112 640h-152l-136 -640h-94zM254 725h124q85 0 144 37.5t97 99.5t55.5 136.5t17.5 147.5q0 118 -56 174t-165 56h-81z" />
    <glyph glyph-name="S" unicode="S" horiz-adv-x="725" 
d="M203 -20q-83 0 -148.5 16.5t-108.5 41.5l8 101q48 -29 112 -49t141 -20q67 0 121 20.5t92 61t58.5 99t20.5 133.5q0 61 -16 110t-52 100.5t-97 117.5q-53 60 -93 114.5t-62 117.5t-22 146q0 95 28 168t79 123t120 76t153 26q76 0 143 -21t107 -48l-48 -87
q-39 26 -91.5 46t-118.5 20q-59 0 -109 -19t-87 -56.5t-57 -92t-20 -125.5q0 -67 19 -120.5t58 -106t99 -118.5q52 -55 89 -110.5t57.5 -117.5t20.5 -136q0 -95 -27.5 -170.5t-78.5 -129.5t-124 -82.5t-166 -28.5z" />
    <glyph glyph-name="T" unicode="T" horiz-adv-x="641" 
d="M133 0l294 1374h-258l19 88h611l-19 -88h-259l-292 -1374h-96z" />
    <glyph glyph-name="U" unicode="U" horiz-adv-x="904" 
d="M332 -20q-80 0 -140 32t-94 94.5t-34 152.5q0 37 6.5 83.5t16.5 96.5l218 1023h94l-218 -1025q-9 -48 -14 -91t-5 -78q0 -100 49 -150.5t130 -50.5q88 0 142.5 45.5t90 134.5t64.5 220l217 995h94l-218 -1003q-31 -146 -77.5 -254t-123 -166.5t-198.5 -58.5z" />
    <glyph glyph-name="V" unicode="V" horiz-adv-x="751" 
d="M176 0l-2 1462h96l-6 -1101q0 -41 -0.5 -79t-2 -75.5t-3.5 -80.5h4q11 35 25 73.5t31 81.5l34 86l461 1095h101l-621 -1462h-117z" />
    <glyph glyph-name="W" unicode="W" horiz-adv-x="1267" 
d="M148 0l26 1462h93l-21 -1077q-2 -81 -4.5 -141t-4.5 -103h4q23 66 48 133.5t48 124.5l418 1063h90l-36 -1028q-2 -86 -5.5 -156.5t-7.5 -143.5h4q18 50 35 97t37 97.5t43 111.5l405 1022h100l-586 -1462h-122l37 1066q2 32 3.5 64t3.5 65t4 68h-4q-15 -45 -31 -91.5
t-34 -88.5l-422 -1083h-121z" />
    <glyph glyph-name="X" unicode="X" horiz-adv-x="673" 
d="M-120 0l439 774l-85 688h96l66 -600l321 600h102l-389 -705l83 -757h-100l-60 662l-371 -662h-102z" />
    <glyph glyph-name="Y" unicode="Y" horiz-adv-x="644" 
d="M137 0l119 567l-86 895h98l62 -759l384 759h103l-465 -894l-121 -568h-94z" />
    <glyph glyph-name="Z" unicode="Z" horiz-adv-x="648" 
d="M-85 0l16 78l714 1295h-419l19 89h526l-17 -80l-714 -1294h452l-18 -88h-559z" />
    <glyph glyph-name="bracketleft" unicode="[" horiz-adv-x="567" 
d="M-43 -326l383 1793h358l-18 -81h-270l-348 -1631h270l-17 -81h-358z" />
    <glyph glyph-name="backslash" unicode="\" horiz-adv-x="669" 
d="M411 -2l-201 1466h86l205 -1466h-90z" />
    <glyph glyph-name="bracketright" unicode="]" horiz-adv-x="567" 
d="M-129 -326l16 81h271l348 1631h-270l17 81h358l-383 -1793h-357z" />
    <glyph glyph-name="asciicircum" unicode="^" horiz-adv-x="806" 
d="M40 731l402 730h70l284 -730h-96l-239 608l-322 -608h-99z" />
    <glyph glyph-name="underscore" unicode="_" horiz-adv-x="568" 
d="M-163 -260l9 80h561l-8 -80h-562z" />
    <glyph glyph-name="grave" unicode="`" horiz-adv-x="454" 
d="M468 1241q-27 38 -59.5 91.5t-62 110.5t-47.5 106v16h99q19 -53 38 -105t39.5 -101.5t46.5 -99.5l-2 -18h-52z" />
    <glyph glyph-name="a" unicode="a" horiz-adv-x="810" 
d="M260 -20q-65 0 -111 35t-70 103t-24 166q0 95 17 205t51.5 219t87 199t122.5 144.5t157 54.5q53 0 89.5 -23t59 -62.5t31.5 -93.5h7l40 158h78l-230 -1085h-74l25 173h-4q-34 -60 -71 -103.5t-81.5 -66.5t-99.5 -23zM283 64q77 0 131.5 58.5t93 152t63.5 197.5
q25 99 41.5 192.5t16.5 173.5q0 84 -35.5 133t-97.5 49q-66 0 -120.5 -48.5t-95.5 -129t-70 -177.5t-44 -194.5t-15 -179.5q0 -120 36 -173.5t96 -53.5z" />
    <glyph glyph-name="b" unicode="b" horiz-adv-x="796" 
d="M318 -20q-56 0 -96 24t-63 64.5t-30 91.5h-4l-44 -160h-74l328 1556h92l-113 -534q-6 -23 -10 -42t-8 -34t-8 -32h3q30 56 67.5 99.5t84 68t101.5 24.5q65 0 110 -33.5t69.5 -101t24.5 -168.5q0 -86 -17 -195t-49.5 -219t-84 -203t-121 -149.5t-158.5 -56.5zM314 64
q66 0 119.5 51.5t94 135.5t68.5 182.5t41.5 193.5t13.5 169q0 123 -35.5 174t-96.5 51t-110.5 -42.5t-87.5 -112.5t-66 -154.5t-46 -169.5t-26.5 -157t-8.5 -115q0 -99 35.5 -152.5t104.5 -53.5z" />
    <glyph glyph-name="c" unicode="c" horiz-adv-x="588" 
d="M296 -20q-79 0 -132 34t-79.5 105.5t-26.5 185.5q0 96 16 205.5t51 215t88 191t125.5 137.5t164.5 52q43 0 80 -8.5t65 -23.5l-35 -81q-26 14 -54.5 21t-57.5 7q-84 0 -149.5 -68.5t-110 -176.5t-67 -231t-22.5 -232q0 -90 17.5 -145t53.5 -79.5t89 -24.5q35 0 72 11
t73 29v-85q-31 -15 -72 -27t-89 -12z" />
    <glyph glyph-name="d" unicode="d" horiz-adv-x="808" 
d="M259 -20q-65 0 -110.5 34.5t-69.5 102.5t-24 167q0 94 17.5 204.5t52 219.5t86 199t121 144.5t155.5 54.5q52 0 89 -21t60.5 -58t32.5 -87h6q6 34 12 70t14 71.5t14 69.5l86 405h92l-328 -1556h-75l26 176h-5q-33 -61 -70 -105t-82 -67.5t-100 -23.5zM283 64
q63 0 113.5 45t88.5 119t65.5 162.5t44.5 176t25.5 160t8.5 113.5q0 84 -34.5 132t-99.5 48q-67 0 -121 -49t-95.5 -130.5t-70 -179t-43 -195t-14.5 -176.5q0 -119 36 -172.5t96 -53.5z" />
    <glyph glyph-name="e" unicode="e" horiz-adv-x="711" 
d="M305 -20q-80 0 -136 35.5t-86 106.5t-30 178q0 165 34.5 310.5t94.5 257t139.5 175t170.5 63.5q83 0 133.5 -48t50.5 -152q0 -78 -30 -150.5t-91.5 -128t-155.5 -88.5t-222 -33h-12q-9 -44 -13.5 -92t-4.5 -101q0 -131 43.5 -191t135.5 -60q50 0 95 14.5t90 42.5v-87
q-39 -25 -90 -38.5t-116 -13.5zM178 584h9q144 0 231 45.5t127.5 118.5t40.5 153q0 58 -25 90.5t-79 32.5q-64 0 -124 -58t-106.5 -157.5t-73.5 -224.5z" />
    <glyph glyph-name="f" unicode="f" horiz-adv-x="412" 
d="M-174 -492q-28 0 -49.5 4t-38.5 10v84q18 -6 37 -9t44 -3q77 0 108.5 63t53.5 167l253 1178h-121l11 59l127 26l40 180q16 75 36.5 130.5t48 93.5t67 57t94.5 19q30 0 62.5 -7.5t52.5 -18.5l-35 -78q-16 9 -38 14.5t-44 5.5q-67 0 -98.5 -59t-55.5 -168l-37 -171h145
l-18 -83h-144l-254 -1185q-19 -85 -45.5 -155.5t-73.5 -112t-128 -41.5z" />
    <glyph glyph-name="g" unicode="g" horiz-adv-x="709" 
d="M158 -492q-135 -2 -213 59t-76 194q2 106 67.5 194.5t182.5 141.5q-30 16 -45.5 47.5t-15.5 67.5q0 48 34 100.5t115 105.5q-40 24 -65 76t-24 131q0 106 41.5 215.5t117.5 180.5q41 39 90.5 62.5t106.5 23.5q35 0 59.5 -7.5t39.5 -16.5h204l-13 -66l-127 -18
q17 -25 24.5 -62t7.5 -81q-1 -86 -29.5 -177t-78.5 -160q-45 -60 -105.5 -96.5t-131.5 -36.5h-29.5t-26.5 -5q-66 -31 -95 -75.5t-29 -80.5q0 -45 32 -64q11 -6 25.5 -9.5t31.5 -4.5h132q82 0 128 -29t64.5 -79.5t18.5 -114.5q0 -94 -40 -177.5t-106 -137.5
q-55 -49 -126 -74t-146 -27zM162 -414q61 2 118 24.5t101 64.5q45 41 73 103.5t28 128.5q0 36 -7 65.5t-28 50.5q-15 18 -43 27.5t-66 10.5h-120q-55 0 -115 -42.5t-101 -110t-41 -141.5q0 -104 53.5 -143.5t147.5 -37.5zM327 463q68 0 122.5 57.5t88 150.5t35.5 197
q2 39 -4.5 71t-23.5 54q-13 18 -33 28t-50 10q-49 0 -93.5 -38t-79 -98.5t-55.5 -129.5t-22 -132q0 -37 6 -68t19 -53q29 -49 90 -49z" />
    <glyph glyph-name="h" unicode="h" horiz-adv-x="774" 
d="M9 0l330 1556h91l-98 -456q-6 -27 -12.5 -55.5t-14 -56.5t-13.5 -55h3q26 55 62.5 93.5t82 59t98.5 20.5t92.5 -20.5t61.5 -61t22 -100.5q0 -46 -12 -114.5t-25 -128.5l-146 -681h-92l146 685q12 57 23.5 115.5t11.5 108.5q0 54 -29.5 82t-79.5 28q-69 0 -121.5 -46.5
t-91.5 -140.5t-70 -237l-126 -595h-93z" />
    <glyph glyph-name="i" unicode="i" horiz-adv-x="345" 
d="M7 0l230 1085h93l-230 -1085h-93zM337 1304q-26 0 -39.5 15.5t-13.5 44.5q0 27 8.5 52.5t27 43t45.5 17.5q24 0 37.5 -14.5t13.5 -45.5q0 -39 -20.5 -76t-58.5 -37z" />
    <glyph glyph-name="j" unicode="j" horiz-adv-x="354" 
d="M-187 -492q-25 0 -46 3t-36 8v88q16 -6 35 -9t40 -3q52 0 85 26.5t56.5 93.5t46.5 185l252 1185h92l-253 -1192q-27 -128 -58 -213.5t-80 -128.5t-134 -43zM345 1304q-25 0 -39 15.5t-14 44.5q0 27 8.5 52.5t27 43t45.5 17.5q24 0 37.5 -14.5t13.5 -45.5q0 -39 -20.5 -76
t-58.5 -37z" />
    <glyph glyph-name="k" unicode="k" horiz-adv-x="656" 
d="M6 0l332 1556h92l-169 -792q-8 -41 -16.5 -80t-18 -80t-21.5 -85h3l426 566h102l-320 -427l111 -658h-96l-94 575l-157 -188l-81 -387h-93z" />
    <glyph glyph-name="l" unicode="l" horiz-adv-x="335" 
d="M6 0l332 1556h92l-331 -1556h-93z" />
    <glyph glyph-name="m" unicode="m" horiz-adv-x="1169" 
d="M7 0l229 1085h78l-25 -144h5q27 53 61.5 89.5t77 56t90.5 19.5q77 0 120 -37.5t52 -107.5h4q25 46 58.5 78.5t76.5 49.5t95 17q77 0 128.5 -45.5t51.5 -139.5q0 -29 -6 -68.5t-12 -72.5l-166 -780h-93l164 771q9 40 13.5 73.5t4.5 56.5q0 60 -31.5 89.5t-84.5 29.5
q-47 0 -83.5 -22t-63 -59.5t-44.5 -85.5t-29 -101l-163 -752h-93l172 801q8 28 10 55t2 47q0 56 -27.5 86.5t-81.5 30.5q-59 0 -102.5 -33.5t-74.5 -92t-52.5 -135t-40.5 -162.5l-126 -597h-94z" />
    <glyph glyph-name="n" unicode="n" horiz-adv-x="773" 
d="M7 0l229 1085h76l-26 -155h4q27 56 64 95t83 59.5t97 20.5q53 0 93.5 -19.5t63 -59.5t22.5 -102q0 -46 -12 -112.5t-25 -126.5l-145 -685h-93l147 690q11 55 21.5 113.5t10.5 105.5q0 54 -28 82t-79 28q-72 0 -124 -48t-91.5 -144t-69.5 -238l-125 -589h-93z" />
    <glyph glyph-name="o" unicode="o" horiz-adv-x="772" 
d="M284 -20q-71 0 -122.5 33.5t-79 103t-27.5 175.5q0 78 14 183t45.5 215t82.5 204.5t124.5 153t170.5 58.5q72 0 121.5 -35t76.5 -105t27 -176q0 -96 -16 -206.5t-50 -217.5t-85.5 -194t-122 -139.5t-159.5 -52.5zM293 64q66 0 118.5 49.5t92.5 130.5t66 178t39 193.5
t13 175.5q0 76 -15.5 127.5t-46.5 77.5t-77 26q-70 0 -124 -53.5t-93.5 -139t-65 -185t-38 -193t-12.5 -160.5q0 -113 36 -170t107 -57z" />
    <glyph glyph-name="p" unicode="p" horiz-adv-x="797" 
d="M-89 -470l327 1555h77l-29 -178h6q34 63 71.5 107t82 68t98.5 24q67 0 112 -34.5t69 -102.5t24 -167q0 -96 -18 -206.5t-52 -219t-87 -198.5t-122 -144t-156 -54q-51 0 -87.5 21.5t-59.5 59t-33 85.5h-6q-7 -50 -17 -105t-22 -107l-87 -404h-91zM309 64q66 0 119.5 48.5
t95 129.5t70.5 178.5t44 195.5t15 181q0 119 -35.5 172.5t-96.5 53.5t-110.5 -44t-87.5 -117t-66 -160.5t-46 -175t-26.5 -161.5t-8.5 -118q0 -85 35 -134t98 -49z" />
    <glyph glyph-name="q" unicode="q" horiz-adv-x="810" 
d="M372 -482l112 529q5 23 10.5 44t10 39.5t9.5 38.5h-4q-29 -56 -67 -98.5t-84 -66.5t-101 -24q-64 0 -109.5 33t-69.5 100.5t-24 168.5q0 84 16.5 193t49.5 219.5t84 203.5t120.5 150.5t159.5 57.5q58 0 97 -24t61.5 -65t28.5 -95h3l43 163h77l-331 -1567h-92zM284 64
q60 0 109.5 43t87.5 113.5t66 155t46 170.5t27 158t9 116q0 96 -36 148t-104 52q-67 0 -121 -51t-94.5 -135t-67.5 -182t-41 -193.5t-14 -168.5q0 -124 35.5 -175t97.5 -51z" />
    <glyph glyph-name="r" unicode="r" horiz-adv-x="509" 
d="M8 0l228 1085h74l-30 -181h4q28 64 64.5 109t81 69t98.5 24q22 0 40.5 -4t32.5 -9l-25 -94q-12 6 -28 9t-36 3q-63 0 -111 -40t-82.5 -105t-57.5 -141t-39 -149l-121 -576h-93z" />
    <glyph glyph-name="s" unicode="s" horiz-adv-x="593" 
d="M175 -20q-68 0 -122 14.5t-82 32.5v101q32 -25 85.5 -44t111.5 -19q69 0 113 25.5t66.5 74.5t22.5 120q0 46 -12.5 83t-40 76t-71.5 90q-37 43 -67 85.5t-46.5 92t-16.5 110.5q0 80 33.5 144t96.5 102t151 38q74 0 128 -19t90 -44l-46 -78q-31 24 -74 41t-99 17
q-86 0 -136 -52t-50 -138q0 -43 11 -80.5t34.5 -74t61.5 -79.5q49 -57 82.5 -102t50 -92t16.5 -114q0 -98 -34.5 -168t-100 -106.5t-156.5 -36.5z" />
    <glyph glyph-name="t" unicode="t" horiz-adv-x="415" 
d="M172 -20q-66 0 -100 39t-34 111q0 30 6 73t16 90l152 709h-97l14 64l102 20l75 257h70l-54 -258h141l-18 -83h-141l-152 -715q-9 -46 -15.5 -82.5t-6.5 -60.5q0 -39 16 -59t54 -20q22 0 42.5 4t36.5 10v-79q-23 -9 -50.5 -14.5t-56.5 -5.5z" />
    <glyph glyph-name="u" unicode="u" horiz-adv-x="776" 
d="M231 -20q-55 0 -95.5 21t-62 61.5t-21.5 100.5q0 43 11.5 107.5t22.5 121.5l148 693h93l-148 -698q-12 -55 -22.5 -108.5t-10.5 -100.5q0 -56 29 -84t80 -28q71 0 124 48.5t92.5 144.5t68.5 238l125 588h93l-229 -1085h-75l23 152h-5q-26 -54 -63 -92.5t-82 -59
t-96 -20.5z" />
    <glyph glyph-name="v" unicode="v" horiz-adv-x="604" 
d="M128 0l-10 1085h91l1 -690v-79t-1 -86t-4 -81h7q14 37 28 73.5t28.5 72.5t30.5 71l312 719h96l-476 -1085h-103z" />
    <glyph glyph-name="w" unicode="w" horiz-adv-x="1006" 
d="M116 -1l13 1086h88l-11 -707q0 -61 -2 -116.5t-5 -108.5h4q9 31 23.5 70t30.5 79t29 73l287 710h101l-16 -706q-1 -46 -4.5 -110.5t-7.5 -119.5h4q13 37 26.5 74t28 76.5t30.5 80.5l272 705h93l-429 -1086h-103l19 756q0 29 1 60.5t3 65t5 65.5h-4q-9 -29 -19.5 -58
t-21.5 -58t-23 -59l-309 -772h-103z" />
    <glyph glyph-name="x" unicode="x" horiz-adv-x="628" 
d="M-90 0l351 566l-101 519h96l77 -442l264 442h102l-330 -533l111 -552h-97l-85 473l-287 -473h-101z" />
    <glyph glyph-name="y" unicode="y" horiz-adv-x="637" 
d="M-125 -496q-32 0 -55.5 6.5t-39.5 14.5l16 85q16 -9 35.5 -14.5t44.5 -5.5q64 0 106 46t87 148l102 235l-18 1066h92l5 -721q-1 -29 -1 -63t-0.5 -69.5t-3.5 -68.5h5q13 35 27 70t27.5 67.5t24.5 57.5l316 727h97l-586 -1326q-38 -85 -77.5 -142t-87.5 -85t-116 -28z" />
    <glyph glyph-name="z" unicode="z" horiz-adv-x="512" 
d="M-70 0l15 71l513 932h-289l16 82h391l-16 -73l-511 -928h322l-18 -84h-423z" />
    <glyph glyph-name="braceleft" unicode="{" horiz-adv-x="649" 
d="M384 -324q-128 1 -188 54.5t-60 154.5q0 27 4 54t10 57l64 307q7 31 11 56.5t4 48.5q0 66 -38 93.5t-131 27.5l18 81q112 0 166.5 43.5t78.5 160.5l81 380q23 101 66.5 159.5t115.5 83.5t177 25h12l-19 -82q-124 0 -181.5 -48t-82.5 -161l-79 -380q-21 -98 -70 -153.5
t-141 -68.5v-4q58 -13 89 -49.5t31 -103.5q0 -21 -3 -45.5t-9 -51.5l-68 -322q-5 -29 -8.5 -52.5t-3.5 -43.5q0 -76 42 -106.5t138 -31.5l-9 -83h-17z" />
    <glyph glyph-name="bar" unicode="|" horiz-adv-x="720" 
d="M312 -495v2056h87v-2056h-87z" />
    <glyph glyph-name="braceright" unicode="}" horiz-adv-x="646" 
d="M-130 -324l8 82q84 1 137.5 22t84.5 67.5t47 121.5l80 377q21 98 70 154t140 68v4q-58 14 -89 50t-31 104q0 21 3 45.5t9 51.5l68 322q6 28 9 52t3 44q0 77 -42.5 108t-138.5 31l18 82h16q84 0 137.5 -24t78.5 -69.5t25 -113.5q0 -25 -3.5 -53.5t-9.5 -58.5l-65 -309
q-6 -31 -10.5 -56t-4.5 -48q0 -66 38 -93.5t132 -27.5l-18 -82q-74 0 -123 -18.5t-77.5 -63t-44.5 -121.5l-82 -378q-22 -100 -65 -159.5t-113.5 -85t-175.5 -25.5h-11z" />
    <glyph glyph-name="asciitilde" unicode="~" horiz-adv-x="841" 
d="M423 680q-40 26 -80.5 43t-84.5 17q-48 0 -96 -28.5t-94 -85.5v103q38 42 85.5 69t109.5 27q54 0 96 -17.5t88 -43.5q44 -25 78.5 -40.5t75.5 -15.5q49 0 99 28.5t89 79.5v-102q-34 -40 -82.5 -65t-107.5 -25q-54 0 -93 16.5t-83 39.5z" />
    <glyph glyph-name="uni00A0" unicode="&#xa0;" horiz-adv-x="346" 
 />
    <glyph glyph-name="exclamdown" unicode="&#xa1;" horiz-adv-x="441" 
d="M-27 -373l257 1101h74l-226 -1101h-105zM315 919q-24 0 -39 16.5t-15 48.5q0 42 23 79.5t63 37.5q25 0 40 -16.5t15 -46.5q0 -28 -9.5 -56t-29 -45.5t-48.5 -17.5z" />
    <glyph glyph-name="cent" unicode="&#xa2;" horiz-adv-x="738" 
d="M256 -20l46 215q-86 19 -127 95t-41 224q0 91 15.5 194.5t47 205.5t80 187.5t114 141.5t149.5 68l35 172h76l-35 -170q32 -3 59.5 -11.5t48.5 -19.5l-34 -82q-26 14 -54 21.5t-57 7.5q-84 0 -149 -68t-110.5 -176t-69 -231.5t-23.5 -233.5q0 -136 40 -191.5t120 -55.5
q37 0 71.5 9.5t65.5 26.5l15 -80q-36 -19 -78 -28.5t-86 -11.5l-44 -209h-75z" />
    <glyph glyph-name="sterling" unicode="&#xa3;" horiz-adv-x="743" 
d="M-60 0l18 79q49 17 87.5 53.5t67.5 99.5t49 161l63 292h-143l17 82h141l85 398q21 97 55 168.5t91.5 110.5t150.5 39q70 0 120 -23.5t89 -58.5l-51 -74q-31 28 -69 48.5t-93 20.5q-94 0 -135.5 -64t-67.5 -178l-80 -387h223l-16 -82h-224l-62 -292q-31 -141 -74 -208.5
t-91 -96.5h474l-18 -88h-607z" />
    <glyph glyph-name="currency" unicode="&#xa4;" horiz-adv-x="1116" 
d="M968 279l-149 145q-55 -45 -118.5 -67t-128.5 -22q-66 0 -130 22.5t-118 68.5l-146 -145l-47 50l142 143q-45 57 -67 121t-22 129t22 128.5t67 118.5l-145 148l49 48l148 -147q56 45 120 68.5t127 23.5q64 0 127.5 -22.5t119.5 -67.5l147 143l49 -48l-144 -144
q46 -54 68.5 -118.5t22.5 -130.5q0 -65 -23 -129.5t-68 -121.5l145 -146zM570 408q90 0 163 44t115.5 117t42.5 156q3 84 -43 157t-119 117t-155 43q-86 1 -159 -43t-117 -116.5t-43 -158.5q0 -89 43 -160.5t115 -113.5t157 -42z" />
    <glyph glyph-name="yen" unicode="&#xa5;" horiz-adv-x="713" 
d="M167 0l65 297h-195l16 77h195l44 204h-194l18 76h176l-43 808h93l29 -736l335 736h98l-383 -808h180l-15 -76h-201l-44 -204h199l-15 -77h-198l-66 -297h-94z" />
    <glyph glyph-name="brokenbar" unicode="&#xa6;" horiz-adv-x="719" 
d="M311 776v780h88v-780h-88zM311 -492v781h88v-781h-88z" />
    <glyph glyph-name="section" unicode="&#xa7;" horiz-adv-x="635" 
d="M179 100q-71 0 -122.5 14.5t-83.5 33.5v93q35 -27 88 -45.5t117 -18.5q100 0 161 58t61 150q0 44 -17 79t-48 65.5t-73 61.5q-41 31 -78.5 64.5t-61.5 76.5t-24 101q0 60 22 107t65.5 85t108.5 67q-47 45 -67 92.5t-20 100.5q0 75 33 135.5t95 96t148 38.5
q70 1 125.5 -18t96.5 -48l-43 -69q-37 28 -81.5 43.5t-95.5 15.5q-55 0 -97.5 -22.5t-66.5 -64t-24 -98.5q0 -72 36 -115t90 -80q52 -38 89.5 -74.5t57 -76.5t19.5 -90q0 -59 -22.5 -109.5t-62.5 -91.5t-94 -76q33 -32 56.5 -82.5t23.5 -106.5q0 -85 -38.5 -150.5
t-109 -103.5t-163.5 -38zM360 629q65 42 102.5 96t37.5 119q0 43 -17.5 76.5t-51.5 64t-83 61.5q-52 -20 -88.5 -49.5t-54 -67t-17.5 -84.5q0 -44 20 -77.5t58.5 -66t93.5 -72.5z" />
    <glyph glyph-name="dieresis" unicode="&#xa8;" horiz-adv-x="962" 
d="M704 1313q-23 0 -36.5 14t-13.5 44q0 35 20 69t55 34q22 0 34.5 -14.5t12.5 -41.5q0 -38 -19 -71.5t-53 -33.5zM427 1313q-22 0 -35.5 14t-13.5 44q0 35 20 69t54 34q15 0 25.5 -6t16.5 -18.5t6 -31.5q0 -38 -19.5 -71.5t-53.5 -33.5z" />
    <glyph glyph-name="copyright" unicode="&#xa9;" horiz-adv-x="1700" 
d="M846 -18q-172 0 -309.5 57t-235 159.5t-150 238.5t-52.5 294q0 168 57.5 306t160 237.5t239 153t295.5 53.5q169 0 307 -57.5t237 -159.5t152 -239.5t53 -295.5q0 -161 -54.5 -298t-155 -237t-239 -156t-305.5 -56zM890 286q-194 0 -306.5 113t-112.5 330q0 139 48.5 239
t142 154t225.5 54q68 0 132 -13.5t120 -40.5l-34 -71q-49 23 -105 34.5t-113 11.5q-159 0 -242 -96t-83 -269q0 -187 87.5 -278t250.5 -91q51 0 105 10.5t113 34.5v-77q-52 -22 -109.5 -33.5t-118.5 -11.5zM846 55q153 0 277.5 51.5t214 144t137.5 215t48 265.5
q0 144 -49 267t-138.5 214.5t-213 143t-273.5 51.5t-273 -50t-212.5 -141.5t-138.5 -215.5t-49 -269q0 -147 48.5 -270.5t137.5 -214.5t212 -141t272 -50z" />
    <glyph glyph-name="ordfeminine" unicode="&#xaa;" horiz-adv-x="506" 
d="M294 808q-45 0 -82 23t-58.5 74t-21.5 132q0 76 17.5 154t52 143t87 104.5t122.5 39.5q63 0 92 -32t41 -72h6l30 91h58l-134 -644h-60l13 96h-5q-28 -52 -66 -80.5t-92 -28.5zM309 878q45 0 78 30.5t55.5 77t37 99t21 98.5t6.5 71q0 73 -23.5 113t-78.5 40
q-46 0 -82.5 -33.5t-61 -89t-37 -119t-12.5 -122.5q0 -87 25.5 -126t71.5 -39z" />
    <glyph glyph-name="guillemotleft" unicode="&#xab;" horiz-adv-x="760" 
d="M233 150l-173 376l5 28l327 350l58 -41l-286 -330l137 -355zM548 150l-174 376l4 27l328 351l58 -41l-285 -331l137 -354z" />
    <glyph glyph-name="logicalnot" unicode="&#xac;" horiz-adv-x="841" 
d="M766 762v-516h-86v431h-605v85h691z" />
    <glyph glyph-name="uni00AD" unicode="&#xad;" horiz-adv-x="534" 
d="M43 510l11 91h430l-11 -91h-430z" />
    <glyph glyph-name="registered" unicode="&#xae;" horiz-adv-x="1700" 
d="M596 294v875h242q137 0 218.5 -60t81.5 -191q0 -102 -48.5 -158.5t-125.5 -82.5l197 -383h-98l-182 363h-198v-363h-87zM682 729h148q94 0 155.5 44t61.5 144q0 93 -57.5 134.5t-157.5 41.5h-150v-364zM846 -18q-172 0 -309.5 57t-235 159.5t-150 238.5t-52.5 294
q0 168 57.5 306t160 237.5t239 153t295.5 53.5q169 0 307 -57.5t237 -159.5t152 -239.5t53 -295.5q0 -161 -54.5 -298t-155 -237t-239 -156t-305.5 -56zM846 55q153 0 277.5 51.5t214 144t137.5 215t48 265.5q0 144 -49 267t-138.5 214.5t-213 143t-273.5 51.5t-273 -50
t-212.5 -141.5t-138.5 -215.5t-49 -269q0 -147 48.5 -270.5t137.5 -214.5t212 -141t272 -50z" />
    <glyph glyph-name="overscore" unicode="&#xaf;" horiz-adv-x="758" 
d="M203 1556l18 79h769l-18 -79h-769z" />
    <glyph glyph-name="degree" unicode="&#xb0;" horiz-adv-x="738" 
d="M369 962q-74 0 -133.5 31.5t-93.5 90.5t-34 139t34.5 138t94 89t131.5 31q73 0 132 -31t94 -89t35 -139q0 -79 -34.5 -137.5t-93 -90.5t-132.5 -32zM369 1031q81 0 133 53.5t52 138.5t-51.5 137.5t-135.5 52.5q-86 0 -135 -54t-49 -136q0 -88 53.5 -140t132.5 -52z" />
    <glyph glyph-name="plusminus" unicode="&#xb1;" horiz-adv-x="841" 
d="M77 1v85h702v-85h-702zM471 776h315v-83h-315v-430h-85v430h-318v83h318v435h85v-435z" />
    <glyph glyph-name="uni00B2" unicode="&#xb2;" horiz-adv-x="552" 
d="M95 851l11 68l237 272q55 63 104 123t80 120.5t31 124.5q0 58 -30 89t-83 31q-44 0 -80 -18.5t-70 -45.5l-36 61q37 33 87.5 54.5t112.5 21.5q84 0 133 -48.5t49 -133.5q0 -77 -33 -146t-86.5 -135t-114.5 -133l-204 -230h322l-16 -75h-414z" />
    <glyph glyph-name="uni00B3" unicode="&#xb3;" horiz-adv-x="552" 
d="M273 837q-55 0 -95.5 10.5t-66.5 26.5v85q31 -21 72 -34.5t93 -13.5q100 0 150.5 60t50.5 145q0 86 -43 122t-105 36h-53l14 71h52q75 0 123 32t70.5 80.5t22.5 97.5q0 55 -28.5 89t-84.5 34q-45 0 -83 -17.5t-69 -41.5l-37 60q36 29 86.5 51t112.5 22q65 0 105.5 -24.5
t60.5 -67t20 -93.5q0 -96 -53.5 -165t-139.5 -90l-2 -6q46 -17 79.5 -61.5t33.5 -124.5q0 -74 -31 -138.5t-94 -104.5t-161 -40z" />
    <glyph glyph-name="acute" unicode="&#xb4;" horiz-adv-x="451" 
d="M235 1241l-1 17q50 52 95.5 107t83 108t60.5 96h111v-17q-22 -32 -58 -74.5t-78.5 -87.5t-84.5 -84.5t-76 -64.5h-52z" />
    <glyph glyph-name="uni00B5" unicode="&#xb5;" horiz-adv-x="779" 
d="M-100 -492l333 1577h93l-147 -698q-11 -54 -18 -99t-7 -81q0 -65 30 -102.5t89 -37.5q68 0 116 46t83.5 141t65.5 239l126 592h93l-229 -1085h-74l18 131h-4q-24 -49 -56 -82.5t-70 -51t-85 -17.5q-63 0 -97 30.5t-49 73.5h-4q-2 -21 -5.5 -42.5t-7.5 -42.5t-8 -43
l-95 -448h-91z" />
    <glyph glyph-name="paragraph" unicode="&#xb6;" horiz-adv-x="867" 
d="M450 -260l-1 1078q-13 -6 -28 -9.5t-35 -3.5q-47 0 -84 23.5t-63 70t-40 115.5t-14 159q0 99 17 171.5t49 119.5t78.5 69.5t104.5 22.5h330v-1816h-73v1745h-168v-1745h-73z" />
    <glyph glyph-name="periodcentered" unicode="&#xb7;" horiz-adv-x="376" 
d="M209 627q-26 0 -41 16.5t-15 47.5q0 41 21.5 79.5t65.5 38.5q25 0 39.5 -17t14.5 -49q0 -42 -23 -79t-62 -37z" />
    <glyph glyph-name="cedilla" unicode="&#xb8;" horiz-adv-x="419" 
d="M-19 -492q-41 0 -69 5t-53 10v71q16 -7 45 -11.5t73 -4.5q51 0 88.5 19t58.5 50.5t21 71.5q0 55 -42 82.5t-119 35.5l112 163h70l-86 -122q66 -13 106 -50.5t40 -102.5q0 -64 -32 -113t-87 -76.5t-126 -27.5z" />
    <glyph glyph-name="uni00B9" unicode="&#xb9;" horiz-adv-x="552" 
d="M299 852l151 696q5 26 11 47t10 42q-20 -19 -36.5 -32.5t-33.5 -24.5l-129 -90l-34 58l250 181h80l-188 -877h-81z" />
    <glyph glyph-name="ordmasculine" unicode="&#xba;" horiz-adv-x="505" 
d="M318 803q-84 0 -124 55.5t-40 156.5q0 68 15.5 148t48.5 152t86 118t128 46q74 0 117.5 -51t43.5 -160q0 -74 -17 -155t-51.5 -151t-85.5 -114.5t-121 -44.5zM324 875q50 0 86 40t58.5 100.5t33.5 127.5t11 120q0 70 -22 106.5t-68 36.5q-49 0 -85 -39t-59 -99.5
t-34.5 -127.5t-11.5 -122q0 -70 22 -106.5t69 -36.5z" />
    <glyph glyph-name="guillemotright" unicode="&#xbb;" horiz-adv-x="765" 
d="M356 150l-58 41l285 330l-138 354l69 29l173 -376l-4 -29zM41 149l-58 42l284 330l-136 354l68 29l173 -376l-4 -29z" />
    <glyph glyph-name="onequarter" unicode="&#xbc;" horiz-adv-x="1210" 
d="M3 0l1125 1462h94l-1123 -1462h-96zM250 586l151 696q5 26 11 47t10 42q-20 -19 -36.5 -32.5t-33.5 -24.5l-129 -90l-34 58l250 181h80l-188 -877h-81zM857 0l46 216h-295l9 64l430 603h79l-128 -593h93l-17 -74h-90l-48 -216h-79zM701 290h216l68 311q9 42 18 79t16 65
q-18 -30 -36 -58.5t-44 -65.5z" />
    <glyph glyph-name="onehalf" unicode="&#xbd;" horiz-adv-x="1308" 
d="M-3 0l1125 1462h94l-1123 -1462h-96zM250 586l151 696q5 26 11 47t10 42q-20 -19 -36.5 -32.5t-33.5 -24.5l-129 -90l-34 58l250 181h80l-188 -877h-81zM686 -1l11 68l237 272q55 63 104 123t80 120.5t31 124.5q0 58 -30 89t-83 31q-44 0 -80 -18.5t-70 -45.5l-36 61
q37 33 87.5 54.5t112.5 21.5q84 0 133 -48.5t49 -133.5q0 -77 -33 -146t-86.5 -135t-114.5 -133l-204 -230h322l-16 -75h-414z" />
    <glyph glyph-name="threequarters" unicode="&#xbe;" horiz-adv-x="1233" 
d="M224 571q-55 0 -95.5 10.5t-66.5 26.5v85q31 -21 72 -34.5t93 -13.5q100 0 150.5 60t50.5 145q0 86 -43 122t-105 36h-53l14 71h52q75 0 123 32t70.5 80.5t22.5 97.5q0 55 -28.5 89t-84.5 34q-45 0 -83 -17.5t-69 -41.5l-37 60q36 29 86.5 51t112.5 22q65 0 105.5 -24.5
t60.5 -67t20 -93.5q0 -96 -53.5 -165t-139.5 -90l-2 -6q46 -17 79.5 -61.5t33.5 -124.5q0 -74 -31 -138.5t-94 -104.5t-161 -40zM40 0l1125 1462h94l-1123 -1462h-96zM881 0l46 216h-295l9 64l430 603h79l-128 -593h93l-17 -74h-90l-48 -216h-79zM725 290h216l68 311
q9 42 18 79t16 65q-18 -30 -36 -58.5t-44 -65.5z" />
    <glyph glyph-name="questiondown" unicode="&#xbf;" horiz-adv-x="516" 
d="M406 705q-19 -103 -43 -176.5t-61.5 -137.5t-99.5 -141q-65 -81 -113 -144.5t-74 -128.5t-26 -150q0 -73 38.5 -113t103.5 -40q55 0 96 18.5t77 43.5l29 -74q-47 -36 -102.5 -55t-115.5 -19q-104 0 -163 60.5t-59 165.5q0 89 29.5 164.5t81 147.5t116.5 149
q67 80 105.5 140.5t61.5 127t40 162.5h79zM425 1078q27 0 41.5 -16.5t14.5 -47.5q0 -43 -21.5 -81t-65.5 -38q-24 0 -39 17t-15 49q0 42 23 79.5t62 37.5z" />
    <glyph glyph-name="Agrave" unicode="&#xc0;" horiz-adv-x="728" 
d="M-136 0l605 1468h120v-1468h-97l2 539h-307l-221 -539h-102zM219 626h276l7 573q0 45 1.5 85.5t3.5 71.5h-5q-10 -30 -23 -68.5t-34 -90.5zM594 1624q-27 38 -59.5 91.5t-62 110.5t-47.5 106v16h99q19 -53 38 -105t39.5 -101.5t46.5 -99.5l-2 -18h-52z" />
    <glyph glyph-name="Aacute" unicode="&#xc1;" horiz-adv-x="728" 
d="M-136 0l605 1468h120v-1468h-97l2 539h-307l-221 -539h-102zM219 626h276l7 573q0 45 1.5 85.5t3.5 71.5h-5q-10 -30 -23 -68.5t-34 -90.5zM493 1619l-1 17q50 52 95.5 107t83 108t60.5 96h111v-17q-22 -32 -58 -74.5t-78.5 -87.5t-84.5 -84.5t-76 -64.5h-52z" />
    <glyph glyph-name="Acircumflex" unicode="&#xc2;" horiz-adv-x="728" 
d="M-136 0l605 1468h120v-1468h-97l2 539h-307l-221 -539h-102zM219 626h276l7 573q0 45 1.5 85.5t3.5 71.5h-5q-10 -30 -23 -68.5t-34 -90.5zM312 1618l2 17q42 45 86 97.5t85 107.5t70 106h79q10 -40 30 -100t44 -118.5t40 -92.5l-3 -17h-46q-19 29 -41 66t-42 78t-38 83
q-48 -60 -103.5 -119t-115.5 -108h-47z" />
    <glyph glyph-name="Atilde" unicode="&#xc3;" horiz-adv-x="728" 
d="M-136 0l605 1468h120v-1468h-97l2 539h-307l-221 -539h-102zM219 626h276l7 573q0 45 1.5 85.5t3.5 71.5h-5q-10 -30 -23 -68.5t-34 -90.5zM280 1626q13 70 36.5 117.5t58.5 72t83 24.5q41 0 70.5 -19.5t54 -45t47.5 -45t52 -19.5q37 0 60 29t37 101h69
q-12 -74 -35.5 -121.5t-57.5 -69.5t-77 -22q-42 0 -71 19.5t-53 45.5t-47.5 46t-53.5 20q-44 0 -67 -34.5t-36 -98.5h-70z" />
    <glyph glyph-name="Adieresis" unicode="&#xc4;" horiz-adv-x="728" 
d="M-136 0l605 1468h120v-1468h-97l2 539h-307l-221 -539h-102zM219 626h276l7 573q0 45 1.5 85.5t3.5 71.5h-5q-10 -30 -23 -68.5t-34 -90.5zM676 1690q-23 0 -36.5 14t-13.5 44q0 35 20 69t55 34q22 0 34.5 -14.5t12.5 -41.5q0 -38 -19 -71.5t-53 -33.5zM399 1690
q-22 0 -35.5 14t-13.5 44q0 35 20 69t54 34q15 0 25.5 -6t16.5 -18.5t6 -31.5q0 -38 -19.5 -71.5t-53.5 -33.5z" />
    <glyph glyph-name="Aring" unicode="&#xc5;" horiz-adv-x="728" 
d="M-136 0l605 1468h120v-1468h-97l2 539h-307l-221 -539h-102zM219 626h276l7 573q0 45 1.5 85.5t3.5 71.5h-5q-10 -30 -23 -68.5t-34 -90.5zM567 1629q-87 0 -137 50.5t-50 136.5q0 81 50 134t137 53q91 0 139.5 -53.5t48.5 -131.5q0 -81 -50 -135t-138 -54zM568 1694
q56 0 88.5 33.5t32.5 88.5q0 53 -31 87t-90 34q-57 0 -88.5 -34.5t-31.5 -86.5q0 -55 31 -88.5t89 -33.5z" />
    <glyph glyph-name="AE" unicode="&#xc6;" horiz-adv-x="1031" 
d="M-143 0l684 1462h583l-17 -87h-393l-120 -564h368l-20 -88h-367l-135 -635h391l-17 -88h-487l115 541h-233l-251 -541h-101zM250 629h212l159 745h-29z" />
    <glyph glyph-name="Ccedilla" unicode="&#xc7;" horiz-adv-x="728" 
d="M385 -20q-103 0 -171.5 50.5t-103.5 156t-35 269.5q0 112 23 249t71 274.5t121.5 252t174 184t227.5 69.5q64 0 110.5 -15.5t83.5 -43.5l-53 -79q-26 25 -62.5 37.5t-81.5 12.5q-105 0 -187.5 -65t-144.5 -170.5t-102.5 -231.5t-60.5 -249t-20 -220q0 -208 55 -301
t172 -93q37 0 78 10t89 29v-91q-48 -17 -93 -26t-90 -9zM168 -492q-41 0 -69 5t-53 10v71q16 -7 45 -11.5t73 -4.5q51 0 88.5 19t58.5 50.5t21 71.5q0 55 -42 82.5t-119 35.5l112 163h70l-86 -122q66 -13 106 -50.5t40 -102.5q0 -64 -32 -113t-87 -76.5t-126 -27.5z" />
    <glyph glyph-name="Egrave" unicode="&#xc8;" horiz-adv-x="714" 
d="M2 0l311 1462h487l-18 -87h-392l-120 -564h367l-21 -88h-366l-135 -635h392l-17 -88h-488zM588 1624q-27 38 -59.5 91.5t-62 110.5t-47.5 106v16h99q19 -53 38 -105t39.5 -101.5t46.5 -99.5l-2 -18h-52z" />
    <glyph glyph-name="Eacute" unicode="&#xc9;" horiz-adv-x="714" 
d="M2 0l311 1462h487l-18 -87h-392l-120 -564h367l-21 -88h-366l-135 -635h392l-17 -88h-488zM487 1618l-1 17q50 52 95.5 107t83 108t60.5 96h111v-17q-22 -32 -58 -74.5t-78.5 -87.5t-84.5 -84.5t-76 -64.5h-52z" />
    <glyph glyph-name="Ecircumflex" unicode="&#xca;" horiz-adv-x="714" 
d="M2 0l311 1462h487l-18 -87h-392l-120 -564h367l-21 -88h-366l-135 -635h392l-17 -88h-488zM346 1579l2 17q42 45 86 97.5t85 107.5t70 106h79q10 -40 30 -100t44 -118.5t40 -92.5l-3 -17h-46q-19 29 -41 66t-42 78t-38 83q-48 -60 -103.5 -119t-115.5 -108h-47z" />
    <glyph glyph-name="Edieresis" unicode="&#xcb;" horiz-adv-x="714" 
d="M2 0l311 1462h487l-18 -87h-392l-120 -564h367l-21 -88h-366l-135 -635h392l-17 -88h-488zM701 1651q-23 0 -36.5 14t-13.5 44q0 35 20 69t55 34q22 0 34.5 -14.5t12.5 -41.5q0 -38 -19 -71.5t-53 -33.5zM424 1651q-22 0 -35.5 14t-13.5 44q0 35 20 69t54 34
q15 0 25.5 -6t16.5 -18.5t6 -31.5q0 -38 -19.5 -71.5t-53.5 -33.5z" />
    <glyph glyph-name="Igrave" unicode="&#xcc;" horiz-adv-x="373" 
d="M2 0l311 1462h93l-310 -1462h-94zM395 1624q-27 38 -59.5 91.5t-62 110.5t-47.5 106v16h99q19 -53 38 -105t39.5 -101.5t46.5 -99.5l-2 -18h-52z" />
    <glyph glyph-name="Iacute" unicode="&#xcd;" horiz-adv-x="373" 
d="M2 0l311 1462h93l-310 -1462h-94zM323 1624l-1 17q50 52 95.5 107t83 108t60.5 96h111v-17q-22 -32 -58 -74.5t-78.5 -87.5t-84.5 -84.5t-76 -64.5h-52z" />
    <glyph glyph-name="Icircumflex" unicode="&#xce;" horiz-adv-x="373" 
d="M2 0l311 1462h93l-310 -1462h-94zM165 1624l2 17q42 45 86 97.5t85 107.5t70 106h79q10 -40 30 -100t44 -118.5t40 -92.5l-3 -17h-46q-19 29 -41 66t-42 78t-38 83q-48 -60 -103.5 -119t-115.5 -108h-47z" />
    <glyph glyph-name="Idieresis" unicode="&#xcf;" horiz-adv-x="373" 
d="M2 0l311 1462h93l-310 -1462h-94zM548 1696q-23 0 -36.5 14t-13.5 44q0 35 20 69t55 34q22 0 34.5 -14.5t12.5 -41.5q0 -38 -19 -71.5t-53 -33.5zM271 1696q-22 0 -35.5 14t-13.5 44q0 35 20 69t54 34q15 0 25.5 -6t16.5 -18.5t6 -31.5q0 -38 -19.5 -71.5t-53.5 -33.5z
" />
    <glyph glyph-name="Eth" unicode="&#xd0;" horiz-adv-x="890" 
d="M4 0l152 717h-107l18 82h106l140 663h186q168 0 258 -102.5t90 -322.5q0 -123 -21.5 -264.5t-68 -278t-122.5 -248.5t-183.5 -179t-251.5 -67h-196zM116 88h91q121 0 210.5 63t152.5 167.5t101.5 230t56.5 252.5t18 232q0 189 -65.5 265t-194.5 76h-96l-122 -575h192
l-18 -82h-193z" />
    <glyph glyph-name="Ntilde" unicode="&#xd1;" horiz-adv-x="984" 
d="M2 0l311 1462h116l226 -1275h4q10 56 21.5 112t21 105t16.5 82l208 976h94l-312 -1462h-111l-228 1293h-4q-5 -35 -12 -74t-15.5 -79t-17 -80.5t-16.5 -78.5l-208 -981h-94zM406 1587q13 70 36.5 117.5t58.5 72t83 24.5q41 0 70.5 -19.5t54 -45t47.5 -45t52 -19.5
q37 0 60 29t37 101h69q-12 -74 -35.5 -121.5t-57.5 -69.5t-77 -22q-42 0 -71 19.5t-53 45.5t-47.5 46t-53.5 20q-44 0 -67 -34.5t-36 -98.5h-70z" />
    <glyph glyph-name="Ograve" unicode="&#xd2;" horiz-adv-x="949" 
d="M351 -20q-92 0 -154.5 44.5t-94 135.5t-31.5 232q0 101 15 219.5t45 241.5t76 235.5t109 201.5t142.5 141t176.5 52q137 0 207 -93t70 -296q0 -94 -14 -212t-42 -243t-72.5 -242.5t-106.5 -211.5t-143 -149.5t-183 -55.5zM360 67q78 0 142 51.5t114.5 138.5t88 195
t61.5 223.5t36.5 224t12.5 193.5q0 158 -46 230t-142 72q-80 0 -145.5 -52t-116.5 -139.5t-87.5 -195.5t-61 -221t-36 -215.5t-11.5 -178.5q0 -114 21.5 -186t64.5 -106t105 -34zM706 1624q-27 38 -59.5 91.5t-62 110.5t-47.5 106v16h99q19 -53 38 -105t39.5 -101.5
t46.5 -99.5l-2 -18h-52z" />
    <glyph glyph-name="Oacute" unicode="&#xd3;" horiz-adv-x="949" 
d="M351 -20q-92 0 -154.5 44.5t-94 135.5t-31.5 232q0 101 15 219.5t45 241.5t76 235.5t109 201.5t142.5 141t176.5 52q137 0 207 -93t70 -296q0 -94 -14 -212t-42 -243t-72.5 -242.5t-106.5 -211.5t-143 -149.5t-183 -55.5zM360 67q78 0 142 51.5t114.5 138.5t88 195
t61.5 223.5t36.5 224t12.5 193.5q0 158 -46 230t-142 72q-80 0 -145.5 -52t-116.5 -139.5t-87.5 -195.5t-61 -221t-36 -215.5t-11.5 -178.5q0 -114 21.5 -186t64.5 -106t105 -34zM604 1618l-1 17q50 52 95.5 107t83 108t60.5 96h111v-17q-22 -32 -58 -74.5t-78.5 -87.5
t-84.5 -84.5t-76 -64.5h-52z" />
    <glyph glyph-name="Ocircumflex" unicode="&#xd4;" horiz-adv-x="949" 
d="M351 -20q-92 0 -154.5 44.5t-94 135.5t-31.5 232q0 101 15 219.5t45 241.5t76 235.5t109 201.5t142.5 141t176.5 52q137 0 207 -93t70 -296q0 -94 -14 -212t-42 -243t-72.5 -242.5t-106.5 -211.5t-143 -149.5t-183 -55.5zM360 67q78 0 142 51.5t114.5 138.5t88 195
t61.5 223.5t36.5 224t12.5 193.5q0 158 -46 230t-142 72q-80 0 -145.5 -52t-116.5 -139.5t-87.5 -195.5t-61 -221t-36 -215.5t-11.5 -178.5q0 -114 21.5 -186t64.5 -106t105 -34zM426 1579l2 17q42 45 86 97.5t85 107.5t70 106h79q10 -40 30 -100t44 -118.5t40 -92.5l-3 -17
h-46q-19 29 -41 66t-42 78t-38 83q-48 -60 -103.5 -119t-115.5 -108h-47z" />
    <glyph glyph-name="Otilde" unicode="&#xd5;" horiz-adv-x="949" 
d="M351 -20q-92 0 -154.5 44.5t-94 135.5t-31.5 232q0 101 15 219.5t45 241.5t76 235.5t109 201.5t142.5 141t176.5 52q137 0 207 -93t70 -296q0 -94 -14 -212t-42 -243t-72.5 -242.5t-106.5 -211.5t-143 -149.5t-183 -55.5zM360 67q78 0 142 51.5t114.5 138.5t88 195
t61.5 223.5t36.5 224t12.5 193.5q0 158 -46 230t-142 72q-80 0 -145.5 -52t-116.5 -139.5t-87.5 -195.5t-61 -221t-36 -215.5t-11.5 -178.5q0 -114 21.5 -186t64.5 -106t105 -34zM387 1587q13 70 36.5 117.5t58.5 72t83 24.5q41 0 70.5 -19.5t54 -45t47.5 -45t52 -19.5
q37 0 60 29t37 101h69q-12 -74 -35.5 -121.5t-57.5 -69.5t-77 -22q-42 0 -71 19.5t-53 45.5t-47.5 46t-53.5 20q-44 0 -67 -34.5t-36 -98.5h-70z" />
    <glyph glyph-name="Odieresis" unicode="&#xd6;" horiz-adv-x="949" 
d="M351 -20q-92 0 -154.5 44.5t-94 135.5t-31.5 232q0 101 15 219.5t45 241.5t76 235.5t109 201.5t142.5 141t176.5 52q137 0 207 -93t70 -296q0 -94 -14 -212t-42 -243t-72.5 -242.5t-106.5 -211.5t-143 -149.5t-183 -55.5zM360 67q78 0 142 51.5t114.5 138.5t88 195
t61.5 223.5t36.5 224t12.5 193.5q0 158 -46 230t-142 72q-80 0 -145.5 -52t-116.5 -139.5t-87.5 -195.5t-61 -221t-36 -215.5t-11.5 -178.5q0 -114 21.5 -186t64.5 -106t105 -34zM796 1651q-23 0 -36.5 14t-13.5 44q0 35 20 69t55 34q22 0 34.5 -14.5t12.5 -41.5
q0 -38 -19 -71.5t-53 -33.5zM519 1651q-22 0 -35.5 14t-13.5 44q0 35 20 69t54 34q15 0 25.5 -6t16.5 -18.5t6 -31.5q0 -38 -19.5 -71.5t-53.5 -33.5z" />
    <glyph glyph-name="multiply" unicode="&#xd7;" horiz-adv-x="841" 
d="M716 1070l58 -54l-290 -292l285 -289l-57 -55l-285 288l-289 -290l-55 56l289 290l-286 288l56 57l287 -289z" />
    <glyph glyph-name="Oslash" unicode="&#xd8;" horiz-adv-x="954" 
d="M22 -89l-60 36l139 223q-15 43 -22.5 99.5t-7.5 122.5q0 101 15 219.5t45 241.5t76 235.5t109 201.5t143 141t177 52q73 0 126.5 -28t87.5 -87l112 180l61 -37l-136 -219q14 -39 19.5 -89t5.5 -109q0 -94 -14 -212t-42 -243t-72.5 -242.5t-106.5 -211.5t-143 -149.5
t-183 -55.5q-71 0 -124.5 28.5t-87.5 86.5zM360 67q76 0 139.5 50t113.5 134.5t87 189.5t61.5 218.5t37.5 220.5t14 192q0 28 -1 53.5t-3 46.5l-612 -982q22 -64 63.5 -93.5t99.5 -29.5zM176 289l617 985q-23 63 -63.5 92.5t-102.5 29.5q-79 0 -143.5 -50.5t-115 -136.5
t-87.5 -191t-61 -215.5t-36 -211.5t-13 -177q0 -36 1.5 -67t3.5 -58z" />
    <glyph glyph-name="Ugrave" unicode="&#xd9;" horiz-adv-x="904" 
d="M332 -20q-80 0 -140 32t-94 94.5t-34 152.5q0 37 6.5 83.5t16.5 96.5l218 1023h94l-218 -1025q-9 -48 -14 -91t-5 -78q0 -100 49 -150.5t130 -50.5q88 0 142.5 45.5t90 134.5t64.5 220l217 995h94l-218 -1003q-31 -146 -77.5 -254t-123 -166.5t-198.5 -58.5zM683 1624
q-27 38 -59.5 91.5t-62 110.5t-47.5 106v16h99q19 -53 38 -105t39.5 -101.5t46.5 -99.5l-2 -18h-52z" />
    <glyph glyph-name="Uacute" unicode="&#xda;" horiz-adv-x="904" 
d="M332 -20q-80 0 -140 32t-94 94.5t-34 152.5q0 37 6.5 83.5t16.5 96.5l218 1023h94l-218 -1025q-9 -48 -14 -91t-5 -78q0 -100 49 -150.5t130 -50.5q88 0 142.5 45.5t90 134.5t64.5 220l217 995h94l-218 -1003q-31 -146 -77.5 -254t-123 -166.5t-198.5 -58.5zM582 1618
l-1 17q50 52 95.5 107t83 108t60.5 96h111v-17q-22 -32 -58 -74.5t-78.5 -87.5t-84.5 -84.5t-76 -64.5h-52z" />
    <glyph glyph-name="Ucircumflex" unicode="&#xdb;" horiz-adv-x="904" 
d="M332 -20q-80 0 -140 32t-94 94.5t-34 152.5q0 37 6.5 83.5t16.5 96.5l218 1023h94l-218 -1025q-9 -48 -14 -91t-5 -78q0 -100 49 -150.5t130 -50.5q88 0 142.5 45.5t90 134.5t64.5 220l217 995h94l-218 -1003q-31 -146 -77.5 -254t-123 -166.5t-198.5 -58.5zM421 1579
l2 17q42 45 86 97.5t85 107.5t70 106h79q10 -40 30 -100t44 -118.5t40 -92.5l-3 -17h-46q-19 29 -41 66t-42 78t-38 83q-48 -60 -103.5 -119t-115.5 -108h-47z" />
    <glyph glyph-name="Udieresis" unicode="&#xdc;" horiz-adv-x="904" 
d="M332 -20q-80 0 -140 32t-94 94.5t-34 152.5q0 37 6.5 83.5t16.5 96.5l218 1023h94l-218 -1025q-9 -48 -14 -91t-5 -78q0 -100 49 -150.5t130 -50.5q88 0 142.5 45.5t90 134.5t64.5 220l217 995h94l-218 -1003q-31 -146 -77.5 -254t-123 -166.5t-198.5 -58.5zM776 1651
q-23 0 -36.5 14t-13.5 44q0 35 20 69t55 34q22 0 34.5 -14.5t12.5 -41.5q0 -38 -19 -71.5t-53 -33.5zM499 1651q-22 0 -35.5 14t-13.5 44q0 35 20 69t54 34q15 0 25.5 -6t16.5 -18.5t6 -31.5q0 -38 -19.5 -71.5t-53.5 -33.5z" />
    <glyph glyph-name="Yacute" unicode="&#xdd;" horiz-adv-x="644" 
d="M137 0l119 567l-86 895h98l62 -759l384 759h103l-465 -894l-121 -568h-94zM453 1618l-1 17q50 52 95.5 107t83 108t60.5 96h111v-17q-22 -32 -58 -74.5t-78.5 -87.5t-84.5 -84.5t-76 -64.5h-52z" />
    <glyph glyph-name="Thorn" unicode="&#xde;" horiz-adv-x="758" 
d="M2 0l311 1462h95l-57 -266h71q105 0 174.5 -36.5t104.5 -105t35 -164.5q0 -119 -31.5 -219.5t-91.5 -175t-147.5 -115t-199.5 -40.5h-98l-71 -340h-95zM187 426h77q128 0 210.5 59.5t123 162.5t40.5 232q0 108 -53 168t-175 60h-77z" />
    <glyph glyph-name="germandbls" unicode="&#xdf;" horiz-adv-x="737" 
d="M-194 -492q-29 0 -51.5 5t-38.5 11v87q17 -7 37 -12t44 -5q70 0 101.5 60.5t55.5 178.5l299 1398q25 116 62.5 190t94 110t137.5 36q99 0 153 -58.5t54 -149.5q0 -65 -19 -118t-54.5 -101.5t-85.5 -102.5q-61 -65 -89 -117.5t-28 -117.5q0 -33 8.5 -68t24.5 -72.5
t35 -79.5q27 -53 52 -119.5t25 -146.5q0 -98 -34.5 -173.5t-102 -119t-163.5 -43.5q-50 0 -94.5 12t-72.5 30l8 94q39 -26 79.5 -38.5t84.5 -12.5q91 0 145.5 66t54.5 179q0 41 -9.5 80t-24.5 77t-36 78q-31 62 -54 126t-23 124q0 47 14 91t41 87t68 85q49 53 83.5 97
t52.5 91t18 107q0 63 -33.5 96t-86.5 33q-51 0 -87 -27.5t-61 -84t-46 -143.5l-300 -1402q-18 -88 -43 -160t-70 -114.5t-125 -42.5z" />
    <glyph glyph-name="agrave" unicode="&#xe0;" horiz-adv-x="810" 
d="M260 -20q-65 0 -111 35t-70 103t-24 166q0 95 17 205t51.5 219t87 199t122.5 144.5t157 54.5q53 0 89.5 -23t59 -62.5t31.5 -93.5h7l40 158h78l-230 -1085h-74l25 173h-4q-34 -60 -71 -103.5t-81.5 -66.5t-99.5 -23zM283 64q77 0 131.5 58.5t93 152t63.5 197.5
q25 99 41.5 192.5t16.5 173.5q0 84 -35.5 133t-97.5 49q-66 0 -120.5 -48.5t-95.5 -129t-70 -177.5t-44 -194.5t-15 -179.5q0 -120 36 -173.5t96 -53.5zM556 1246q-27 38 -59.5 91.5t-62 110.5t-47.5 106v16h99q19 -53 38 -105t39.5 -101.5t46.5 -99.5l-2 -18h-52z" />
    <glyph glyph-name="aacute" unicode="&#xe1;" horiz-adv-x="810" 
d="M260 -20q-65 0 -111 35t-70 103t-24 166q0 95 17 205t51.5 219t87 199t122.5 144.5t157 54.5q53 0 89.5 -23t59 -62.5t31.5 -93.5h7l40 158h78l-230 -1085h-74l25 173h-4q-34 -60 -71 -103.5t-81.5 -66.5t-99.5 -23zM283 64q77 0 131.5 58.5t93 152t63.5 197.5
q25 99 41.5 192.5t16.5 173.5q0 84 -35.5 133t-97.5 49q-66 0 -120.5 -48.5t-95.5 -129t-70 -177.5t-44 -194.5t-15 -179.5q0 -120 36 -173.5t96 -53.5zM454 1241l-1 17q50 52 95.5 107t83 108t60.5 96h111v-17q-22 -32 -58 -74.5t-78.5 -87.5t-84.5 -84.5t-76 -64.5h-52z
" />
    <glyph glyph-name="acircumflex" unicode="&#xe2;" horiz-adv-x="810" 
d="M260 -20q-65 0 -111 35t-70 103t-24 166q0 95 17 205t51.5 219t87 199t122.5 144.5t157 54.5q53 0 89.5 -23t59 -62.5t31.5 -93.5h7l40 158h78l-230 -1085h-74l25 173h-4q-34 -60 -71 -103.5t-81.5 -66.5t-99.5 -23zM283 64q77 0 131.5 58.5t93 152t63.5 197.5
q25 99 41.5 192.5t16.5 173.5q0 84 -35.5 133t-97.5 49q-66 0 -120.5 -48.5t-95.5 -129t-70 -177.5t-44 -194.5t-15 -179.5q0 -120 36 -173.5t96 -53.5zM318 1241l2 17q42 45 86 97.5t85 107.5t70 106h79q10 -40 30 -100t44 -118.5t40 -92.5l-3 -17h-46q-19 29 -41 66
t-42 78t-38 83q-48 -60 -103.5 -119t-115.5 -108h-47z" />
    <glyph glyph-name="atilde" unicode="&#xe3;" horiz-adv-x="810" 
d="M260 -20q-65 0 -111 35t-70 103t-24 166q0 95 17 205t51.5 219t87 199t122.5 144.5t157 54.5q53 0 89.5 -23t59 -62.5t31.5 -93.5h7l40 158h78l-230 -1085h-74l25 173h-4q-34 -60 -71 -103.5t-81.5 -66.5t-99.5 -23zM283 64q77 0 131.5 58.5t93 152t63.5 197.5
q25 99 41.5 192.5t16.5 173.5q0 84 -35.5 133t-97.5 49q-66 0 -120.5 -48.5t-95.5 -129t-70 -177.5t-44 -194.5t-15 -179.5q0 -120 36 -173.5t96 -53.5zM286 1249q13 70 36.5 117.5t58.5 72t83 24.5q41 0 70.5 -19.5t54 -45t47.5 -45t52 -19.5q37 0 60 29t37 101h69
q-12 -74 -35.5 -121.5t-57.5 -69.5t-77 -22q-42 0 -71 19.5t-53 45.5t-47.5 46t-53.5 20q-44 0 -67 -34.5t-36 -98.5h-70z" />
    <glyph glyph-name="adieresis" unicode="&#xe4;" horiz-adv-x="810" 
d="M260 -20q-65 0 -111 35t-70 103t-24 166q0 95 17 205t51.5 219t87 199t122.5 144.5t157 54.5q53 0 89.5 -23t59 -62.5t31.5 -93.5h7l40 158h78l-230 -1085h-74l25 173h-4q-34 -60 -71 -103.5t-81.5 -66.5t-99.5 -23zM283 64q77 0 131.5 58.5t93 152t63.5 197.5
q25 99 41.5 192.5t16.5 173.5q0 84 -35.5 133t-97.5 49q-66 0 -120.5 -48.5t-95.5 -129t-70 -177.5t-44 -194.5t-15 -179.5q0 -120 36 -173.5t96 -53.5zM681 1313q-23 0 -36.5 14t-13.5 44q0 35 20 69t55 34q22 0 34.5 -14.5t12.5 -41.5q0 -38 -19 -71.5t-53 -33.5z
M404 1313q-22 0 -35.5 14t-13.5 44q0 35 20 69t54 34q15 0 25.5 -6t16.5 -18.5t6 -31.5q0 -38 -19.5 -71.5t-53.5 -33.5z" />
    <glyph glyph-name="aring" unicode="&#xe5;" horiz-adv-x="810" 
d="M260 -20q-65 0 -111 35t-70 103t-24 166q0 95 17 205t51.5 219t87 199t122.5 144.5t157 54.5q53 0 89.5 -23t59 -62.5t31.5 -93.5h7l40 158h78l-230 -1085h-74l25 173h-4q-34 -60 -71 -103.5t-81.5 -66.5t-99.5 -23zM283 64q77 0 131.5 58.5t93 152t63.5 197.5
q25 99 41.5 192.5t16.5 173.5q0 84 -35.5 133t-97.5 49q-66 0 -120.5 -48.5t-95.5 -129t-70 -177.5t-44 -194.5t-15 -179.5q0 -120 36 -173.5t96 -53.5zM574 1251q-87 0 -137 50.5t-50 136.5q0 81 50 134t137 53q91 0 139.5 -53.5t48.5 -131.5q0 -81 -50 -135t-138 -54z
M575 1316q56 0 88.5 33.5t32.5 88.5q0 53 -31 87t-90 34q-57 0 -88.5 -34.5t-31.5 -86.5q0 -55 31 -88.5t89 -33.5z" />
    <glyph glyph-name="ae" unicode="&#xe6;" horiz-adv-x="1189" 
d="M256 -20q-63 0 -108 35t-69 103t-24 166q0 104 18.5 217.5t55 221t89.5 194t121 138t152 51.5q50 0 86 -21.5t58 -60.5t31 -92h5l38 153h70l-35 -168q49 83 113.5 136t140.5 53q81 0 130.5 -49t49.5 -151q0 -79 -30 -151t-91.5 -128t-155.5 -88.5t-221 -32.5h-13
q-9 -44 -13.5 -92t-4.5 -101q0 -126 42 -188.5t139 -62.5q49 0 96.5 15.5t92.5 43.5l-6 -89q-41 -24 -89.5 -38t-111.5 -14q-93 0 -148.5 51t-71.5 152l-38 -183h-71l30 171h-4q-32 -60 -69.5 -103t-82 -65.5t-101.5 -22.5zM283 64q56 0 100 33t78 89.5t60 129t46 153.5
q24 99 39.5 194.5t15.5 176.5q0 84 -33 132t-93 48q-65 0 -118 -47t-95 -125.5t-71.5 -175.5t-45 -196.5t-15.5 -186.5q0 -119 35.5 -172t96.5 -53zM680 584h9q143 0 230.5 46t127.5 119t40 152q0 59 -25 91t-79 32q-65 0 -124 -58t-105.5 -157.5t-73.5 -224.5z" />
    <glyph glyph-name="ccedilla" unicode="&#xe7;" horiz-adv-x="589" 
d="M296 -20q-79 0 -132 34t-79.5 105.5t-26.5 185.5q0 96 16 205.5t51 215t88 191t125.5 137.5t164.5 52q43 0 80 -8.5t65 -23.5l-35 -81q-26 14 -54.5 21t-57.5 7q-84 0 -149.5 -68.5t-110 -176.5t-67 -231t-22.5 -232q0 -90 17.5 -145t53.5 -79.5t89 -24.5q35 0 72 11
t73 29v-85q-31 -15 -72 -27t-89 -12zM75 -492q-41 0 -69 5t-53 10v71q16 -7 45 -11.5t73 -4.5q51 0 88.5 19t58.5 50.5t21 71.5q0 55 -42 82.5t-119 35.5l112 163h70l-86 -122q66 -13 106 -50.5t40 -102.5q0 -64 -32 -113t-87 -76.5t-126 -27.5z" />
    <glyph glyph-name="egrave" unicode="&#xe8;" horiz-adv-x="711" 
d="M305 -20q-80 0 -136 35.5t-86 106.5t-30 178q0 165 34.5 310.5t94.5 257t139.5 175t170.5 63.5q83 0 133.5 -48t50.5 -152q0 -78 -30 -150.5t-91.5 -128t-155.5 -88.5t-222 -33h-12q-9 -44 -13.5 -92t-4.5 -101q0 -131 43.5 -191t135.5 -60q50 0 95 14.5t90 42.5v-87
q-39 -25 -90 -38.5t-116 -13.5zM178 584h9q144 0 231 45.5t127.5 118.5t40.5 153q0 58 -25 90.5t-79 32.5q-64 0 -124 -58t-106.5 -157.5t-73.5 -224.5zM505 1241q-27 38 -59.5 91.5t-62 110.5t-47.5 106v16h99q19 -53 38 -105t39.5 -101.5t46.5 -99.5l-2 -18h-52z" />
    <glyph glyph-name="eacute" unicode="&#xe9;" horiz-adv-x="711" 
d="M305 -20q-80 0 -136 35.5t-86 106.5t-30 178q0 165 34.5 310.5t94.5 257t139.5 175t170.5 63.5q83 0 133.5 -48t50.5 -152q0 -78 -30 -150.5t-91.5 -128t-155.5 -88.5t-222 -33h-12q-9 -44 -13.5 -92t-4.5 -101q0 -131 43.5 -191t135.5 -60q50 0 95 14.5t90 42.5v-87
q-39 -25 -90 -38.5t-116 -13.5zM178 584h9q144 0 231 45.5t127.5 118.5t40.5 153q0 58 -25 90.5t-79 32.5q-64 0 -124 -58t-106.5 -157.5t-73.5 -224.5zM404 1235l-1 17q50 52 95.5 107t83 108t60.5 96h111v-17q-22 -32 -58 -74.5t-78.5 -87.5t-84.5 -84.5t-76 -64.5h-52z
" />
    <glyph glyph-name="ecircumflex" unicode="&#xea;" horiz-adv-x="711" 
d="M305 -20q-80 0 -136 35.5t-86 106.5t-30 178q0 165 34.5 310.5t94.5 257t139.5 175t170.5 63.5q83 0 133.5 -48t50.5 -152q0 -78 -30 -150.5t-91.5 -128t-155.5 -88.5t-222 -33h-12q-9 -44 -13.5 -92t-4.5 -101q0 -131 43.5 -191t135.5 -60q50 0 95 14.5t90 42.5v-87
q-39 -25 -90 -38.5t-116 -13.5zM178 584h9q144 0 231 45.5t127.5 118.5t40.5 153q0 58 -25 90.5t-79 32.5q-64 0 -124 -58t-106.5 -157.5t-73.5 -224.5zM295 1241l2 17q42 45 86 97.5t85 107.5t70 106h79q10 -40 30 -100t44 -118.5t40 -92.5l-3 -17h-46q-19 29 -41 66
t-42 78t-38 83q-48 -60 -103.5 -119t-115.5 -108h-47z" />
    <glyph glyph-name="edieresis" unicode="&#xeb;" horiz-adv-x="711" 
d="M305 -20q-80 0 -136 35.5t-86 106.5t-30 178q0 165 34.5 310.5t94.5 257t139.5 175t170.5 63.5q83 0 133.5 -48t50.5 -152q0 -78 -30 -150.5t-91.5 -128t-155.5 -88.5t-222 -33h-12q-9 -44 -13.5 -92t-4.5 -101q0 -131 43.5 -191t135.5 -60q50 0 95 14.5t90 42.5v-87
q-39 -25 -90 -38.5t-116 -13.5zM178 584h9q144 0 231 45.5t127.5 118.5t40.5 153q0 58 -25 90.5t-79 32.5q-64 0 -124 -58t-106.5 -157.5t-73.5 -224.5zM662 1313q-23 0 -36.5 14t-13.5 44q0 35 20 69t55 34q22 0 34.5 -14.5t12.5 -41.5q0 -38 -19 -71.5t-53 -33.5z
M385 1313q-22 0 -35.5 14t-13.5 44q0 35 20 69t54 34q15 0 25.5 -6t16.5 -18.5t6 -31.5q0 -38 -19.5 -71.5t-53.5 -33.5z" />
    <glyph glyph-name="igrave" unicode="&#xec;" horiz-adv-x="345" 
d="M7 0l230 1085h92l-231 -1085h-91zM324 1246q-27 38 -59.5 91.5t-62 110.5t-47.5 106v16h99q19 -53 38 -105t39.5 -101.5t46.5 -99.5l-2 -18h-52z" />
    <glyph glyph-name="iacute" unicode="&#xed;" horiz-adv-x="345" 
d="M7 0l230 1085h92l-231 -1085h-91zM223 1241l-1 17q50 52 95.5 107t83 108t60.5 96h111v-17q-22 -32 -58 -74.5t-78.5 -87.5t-84.5 -84.5t-76 -64.5h-52z" />
    <glyph glyph-name="icircumflex" unicode="&#xee;" horiz-adv-x="345" 
d="M7 0l230 1085h92l-231 -1085h-91zM84 1241l2 17q42 45 86 97.5t85 107.5t70 106h79q10 -40 30 -100t44 -118.5t40 -92.5l-3 -17h-46q-19 29 -41 66t-42 78t-38 83q-48 -60 -103.5 -119t-115.5 -108h-47z" />
    <glyph glyph-name="idieresis" unicode="&#xef;" horiz-adv-x="345" 
d="M7 0l230 1085h92l-231 -1085h-91zM445 1313q-23 0 -36.5 14t-13.5 44q0 35 20 69t55 34q22 0 34.5 -14.5t12.5 -41.5q0 -38 -19 -71.5t-53 -33.5zM168 1313q-22 0 -35.5 14t-13.5 44q0 35 20 69t54 34q15 0 25.5 -6t16.5 -18.5t6 -31.5q0 -38 -19.5 -71.5t-53.5 -33.5z
" />
    <glyph glyph-name="eth" unicode="&#xf0;" horiz-adv-x="767" 
d="M257 -20q-76 0 -130 36t-81.5 106t-27.5 170q0 105 24.5 220.5t76 216t128 163t179.5 62.5q85 0 123.5 -55t51.5 -126l3 -1q1 169 -32 310.5t-109 243.5l-232 -133l-32 60l227 128q-22 30 -69 67t-99 66l47 59q52 -26 100.5 -63t94.5 -86l228 128l34 -57l-222 -125
q49 -72 82 -160t50.5 -186t17.5 -204q0 -88 -12 -199t-40.5 -223.5t-78 -207t-124 -152.5t-178.5 -58zM265 64q65 0 116 39t87 103.5t59.5 140t34.5 150t11 132.5q0 56 -10 100t-28.5 75.5t-46.5 48.5t-64 17q-77 0 -135.5 -54t-98 -140.5t-59.5 -187t-20 -192.5
q0 -121 41 -176.5t113 -55.5z" />
    <glyph glyph-name="ntilde" unicode="&#xf1;" horiz-adv-x="773" 
d="M7 0l229 1085h76l-26 -155h4q27 56 64 95t83 59.5t97 20.5q53 0 93.5 -19.5t63 -59.5t22.5 -102q0 -46 -12 -112.5t-25 -126.5l-145 -685h-93l147 690q11 55 21.5 113.5t10.5 105.5q0 54 -28 82t-79 28q-72 0 -124 -48t-91.5 -144t-69.5 -238l-125 -589h-93zM254 1249
q13 70 36.5 117.5t58.5 72t83 24.5q41 0 70.5 -19.5t54 -45t47.5 -45t52 -19.5q37 0 60 29t37 101h69q-12 -74 -35.5 -121.5t-57.5 -69.5t-77 -22q-42 0 -71 19.5t-53 45.5t-47.5 46t-53.5 20q-44 0 -67 -34.5t-36 -98.5h-70z" />
    <glyph glyph-name="ograve" unicode="&#xf2;" horiz-adv-x="772" 
d="M284 -20q-71 0 -122.5 33.5t-79 103t-27.5 175.5q0 78 14 183t45.5 215t82.5 204.5t124.5 153t170.5 58.5q72 0 121.5 -35t76.5 -105t27 -176q0 -96 -16 -206.5t-50 -217.5t-85.5 -194t-122 -139.5t-159.5 -52.5zM293 64q66 0 118.5 49.5t92.5 130.5t66 178t39 193.5
t13 175.5q0 76 -15.5 127.5t-46.5 77.5t-77 26q-70 0 -124 -53.5t-93.5 -139t-65 -185t-38 -193t-12.5 -160.5q0 -113 36 -170t107 -57zM537 1241q-27 38 -59.5 91.5t-62 110.5t-47.5 106v16h99q19 -53 38 -105t39.5 -101.5t46.5 -99.5l-2 -18h-52z" />
    <glyph glyph-name="oacute" unicode="&#xf3;" horiz-adv-x="772" 
d="M284 -20q-71 0 -122.5 33.5t-79 103t-27.5 175.5q0 78 14 183t45.5 215t82.5 204.5t124.5 153t170.5 58.5q72 0 121.5 -35t76.5 -105t27 -176q0 -96 -16 -206.5t-50 -217.5t-85.5 -194t-122 -139.5t-159.5 -52.5zM293 64q66 0 118.5 49.5t92.5 130.5t66 178t39 193.5
t13 175.5q0 76 -15.5 127.5t-46.5 77.5t-77 26q-70 0 -124 -53.5t-93.5 -139t-65 -185t-38 -193t-12.5 -160.5q0 -113 36 -170t107 -57zM436 1235l-1 17q50 52 95.5 107t83 108t60.5 96h111v-17q-22 -32 -58 -74.5t-78.5 -87.5t-84.5 -84.5t-76 -64.5h-52z" />
    <glyph glyph-name="ocircumflex" unicode="&#xf4;" horiz-adv-x="772" 
d="M284 -20q-71 0 -122.5 33.5t-79 103t-27.5 175.5q0 78 14 183t45.5 215t82.5 204.5t124.5 153t170.5 58.5q72 0 121.5 -35t76.5 -105t27 -176q0 -96 -16 -206.5t-50 -217.5t-85.5 -194t-122 -139.5t-159.5 -52.5zM293 64q66 0 118.5 49.5t92.5 130.5t66 178t39 193.5
t13 175.5q0 76 -15.5 127.5t-46.5 77.5t-77 26q-70 0 -124 -53.5t-93.5 -139t-65 -185t-38 -193t-12.5 -160.5q0 -113 36 -170t107 -57zM295 1241l2 17q42 45 86 97.5t85 107.5t70 106h79q10 -40 30 -100t44 -118.5t40 -92.5l-3 -17h-46q-19 29 -41 66t-42 78t-38 83
q-48 -60 -103.5 -119t-115.5 -108h-47z" />
    <glyph glyph-name="otilde" unicode="&#xf5;" horiz-adv-x="772" 
d="M284 -20q-71 0 -122.5 33.5t-79 103t-27.5 175.5q0 78 14 183t45.5 215t82.5 204.5t124.5 153t170.5 58.5q72 0 121.5 -35t76.5 -105t27 -176q0 -96 -16 -206.5t-50 -217.5t-85.5 -194t-122 -139.5t-159.5 -52.5zM293 64q66 0 118.5 49.5t92.5 130.5t66 178t39 193.5
t13 175.5q0 76 -15.5 127.5t-46.5 77.5t-77 26q-70 0 -124 -53.5t-93.5 -139t-65 -185t-38 -193t-12.5 -160.5q0 -113 36 -170t107 -57zM241 1249q13 70 36.5 117.5t58.5 72t83 24.5q41 0 70.5 -19.5t54 -45t47.5 -45t52 -19.5q37 0 60 29t37 101h69q-12 -74 -35.5 -121.5
t-57.5 -69.5t-77 -22q-42 0 -71 19.5t-53 45.5t-47.5 46t-53.5 20q-44 0 -67 -34.5t-36 -98.5h-70z" />
    <glyph glyph-name="odieresis" unicode="&#xf6;" horiz-adv-x="772" 
d="M284 -20q-71 0 -122.5 33.5t-79 103t-27.5 175.5q0 78 14 183t45.5 215t82.5 204.5t124.5 153t170.5 58.5q72 0 121.5 -35t76.5 -105t27 -176q0 -96 -16 -206.5t-50 -217.5t-85.5 -194t-122 -139.5t-159.5 -52.5zM293 64q66 0 118.5 49.5t92.5 130.5t66 178t39 193.5
t13 175.5q0 76 -15.5 127.5t-46.5 77.5t-77 26q-70 0 -124 -53.5t-93.5 -139t-65 -185t-38 -193t-12.5 -160.5q0 -113 36 -170t107 -57zM660 1313q-23 0 -36.5 14t-13.5 44q0 35 20 69t55 34q22 0 34.5 -14.5t12.5 -41.5q0 -38 -19 -71.5t-53 -33.5zM383 1313
q-22 0 -35.5 14t-13.5 44q0 35 20 69t54 34q15 0 25.5 -6t16.5 -18.5t6 -31.5q0 -38 -19.5 -71.5t-53.5 -33.5z" />
    <glyph glyph-name="divide" unicode="&#xf7;" horiz-adv-x="841" 
d="M68 680v85h718v-85h-718zM429 265q-39 0 -55.5 25.5t-16.5 65.5q0 45 17.5 70t54.5 25q38 0 53.5 -25.5t15.5 -67.5q0 -44 -16.5 -68.5t-52.5 -24.5zM429 993q-38 0 -55 25t-17 68q0 42 16.5 67t55.5 25q38 0 53.5 -25t15.5 -68q0 -44 -16.5 -68t-52.5 -24z" />
    <glyph glyph-name="oslash" unicode="&#xf8;" horiz-adv-x="777" 
d="M49 -125l-60 35l105 182q-18 38 -28.5 87.5t-10.5 112.5q0 76 14 180.5t45 215t82 205t124.5 154t171.5 59.5q46 0 82.5 -15.5t63.5 -44.5l86 153l61 -35l-102 -181q17 -36 25.5 -84t8.5 -109q0 -90 -16 -198.5t-48.5 -216t-84 -197t-122 -144t-161.5 -54.5q-43 0 -80 13
t-65 41zM293 62q65 0 117.5 47t91 125t65.5 171.5t41 188.5t15 174q1 30 -1.5 57t-7.5 49l-427 -758q18 -28 45 -41t61 -13zM160 198l431 765q-17 30 -44 45.5t-64 15.5q-67 0 -120.5 -51t-92.5 -133.5t-65.5 -179t-40.5 -189.5t-14 -165q0 -31 2.5 -59t7.5 -49z" />
    <glyph glyph-name="ugrave" unicode="&#xf9;" horiz-adv-x="776" 
d="M231 -20q-55 0 -95.5 21t-62 61.5t-21.5 100.5q0 43 11.5 107.5t22.5 121.5l148 693h93l-148 -698q-12 -55 -22.5 -108.5t-10.5 -100.5q0 -56 29 -84t80 -28q71 0 124 48.5t92.5 144.5t68.5 238l125 588h93l-229 -1085h-75l23 152h-5q-26 -54 -63 -92.5t-82 -59
t-96 -20.5zM537 1241q-27 38 -59.5 91.5t-62 110.5t-47.5 106v16h99q19 -53 38 -105t39.5 -101.5t46.5 -99.5l-2 -18h-52z" />
    <glyph glyph-name="uacute" unicode="&#xfa;" horiz-adv-x="776" 
d="M231 -20q-55 0 -95.5 21t-62 61.5t-21.5 100.5q0 43 11.5 107.5t22.5 121.5l148 693h93l-148 -698q-12 -55 -22.5 -108.5t-10.5 -100.5q0 -56 29 -84t80 -28q71 0 124 48.5t92.5 144.5t68.5 238l125 588h93l-229 -1085h-75l23 152h-5q-26 -54 -63 -92.5t-82 -59
t-96 -20.5zM436 1235l-1 17q50 52 95.5 107t83 108t60.5 96h111v-17q-22 -32 -58 -74.5t-78.5 -87.5t-84.5 -84.5t-76 -64.5h-52z" />
    <glyph glyph-name="ucircumflex" unicode="&#xfb;" horiz-adv-x="776" 
d="M231 -20q-55 0 -95.5 21t-62 61.5t-21.5 100.5q0 43 11.5 107.5t22.5 121.5l148 693h93l-148 -698q-12 -55 -22.5 -108.5t-10.5 -100.5q0 -56 29 -84t80 -28q71 0 124 48.5t92.5 144.5t68.5 238l125 588h93l-229 -1085h-75l23 152h-5q-26 -54 -63 -92.5t-82 -59
t-96 -20.5zM302 1241l2 17q42 45 86 97.5t85 107.5t70 106h79q10 -40 30 -100t44 -118.5t40 -92.5l-3 -17h-46q-19 29 -41 66t-42 78t-38 83q-48 -60 -103.5 -119t-115.5 -108h-47z" />
    <glyph glyph-name="udieresis" unicode="&#xfc;" horiz-adv-x="776" 
d="M231 -20q-55 0 -95.5 21t-62 61.5t-21.5 100.5q0 43 11.5 107.5t22.5 121.5l148 693h93l-148 -698q-12 -55 -22.5 -108.5t-10.5 -100.5q0 -56 29 -84t80 -28q71 0 124 48.5t92.5 144.5t68.5 238l125 588h93l-229 -1085h-75l23 152h-5q-26 -54 -63 -92.5t-82 -59
t-96 -20.5zM649 1313q-23 0 -36.5 14t-13.5 44q0 35 20 69t55 34q22 0 34.5 -14.5t12.5 -41.5q0 -38 -19 -71.5t-53 -33.5zM372 1313q-22 0 -35.5 14t-13.5 44q0 35 20 69t54 34q15 0 25.5 -6t16.5 -18.5t6 -31.5q0 -38 -19.5 -71.5t-53.5 -33.5z" />
    <glyph glyph-name="yacute" unicode="&#xfd;" horiz-adv-x="637" 
d="M-125 -496q-32 0 -55.5 6.5t-39.5 14.5l16 85q16 -9 35.5 -14.5t44.5 -5.5q64 0 106 46t87 148l102 235l-18 1066h92l5 -721q-1 -29 -1 -63t-0.5 -69.5t-3.5 -68.5h5q13 35 27 70t27.5 67.5t24.5 57.5l316 727h97l-586 -1326q-38 -85 -77.5 -142t-87.5 -85t-116 -28z
M367 1235l-1 17q50 52 95.5 107t83 108t60.5 96h111v-17q-22 -32 -58 -74.5t-78.5 -87.5t-84.5 -84.5t-76 -64.5h-52z" />
    <glyph glyph-name="thorn" unicode="&#xfe;" horiz-adv-x="798" 
d="M-89 -470l427 2026h91l-115 -546q-8 -33 -13 -54t-10 -40h5q31 58 68.5 100.5t82.5 66t98 23.5q97 0 150.5 -77.5t53.5 -226.5q0 -95 -17.5 -206.5t-52 -220t-87 -198.5t-122 -143.5t-156.5 -53.5q-52 0 -89 21.5t-59.5 59.5t-31.5 86h-5q-6 -43 -16 -93t-19 -96
l-92 -428h-91zM309 64q68 0 122 50t95.5 132.5t70 180.5t42.5 194.5t14 175.5q0 119 -35.5 172.5t-96.5 53.5q-71 0 -125 -57.5t-94.5 -148t-66.5 -189.5q-30 -113 -44.5 -218.5t-14.5 -162.5q0 -85 34.5 -134t98.5 -49z" />
    <glyph glyph-name="ydieresis" unicode="&#xff;" horiz-adv-x="637" 
d="M-125 -496q-32 0 -55.5 6.5t-39.5 14.5l16 85q16 -9 35.5 -14.5t44.5 -5.5q64 0 106 46t87 148l102 235l-18 1066h92l5 -721q-1 -29 -1 -63t-0.5 -69.5t-3.5 -68.5h5q13 35 27 70t27.5 67.5t24.5 57.5l316 727h97l-586 -1326q-38 -85 -77.5 -142t-87.5 -85t-116 -28z
M549 1313q-23 0 -36.5 14t-13.5 44q0 35 20 69t55 34q22 0 34.5 -14.5t12.5 -41.5q0 -38 -19 -71.5t-53 -33.5zM272 1313q-22 0 -35.5 14t-13.5 44q0 35 20 69t54 34q15 0 25.5 -6t16.5 -18.5t6 -31.5q0 -38 -19.5 -71.5t-53.5 -33.5z" />
    <glyph glyph-name="Amacron" unicode="&#x100;" horiz-adv-x="728" 
d="M-136 0l605 1468h120v-1468h-97l2 539h-307l-221 -539h-102zM219 626h276l7 573q0 45 1.5 85.5t3.5 71.5h-5q-10 -30 -23 -68.5t-34 -90.5zM305 1628l17 79h458l-18 -79h-457z" />
    <glyph glyph-name="amacron" unicode="&#x101;" horiz-adv-x="810" 
d="M260 -20q-65 0 -111 35t-70 103t-24 166q0 95 17 205t51.5 219t87 199t122.5 144.5t157 54.5q53 0 89.5 -23t59 -62.5t31.5 -93.5h7l40 158h78l-230 -1085h-74l25 173h-4q-34 -60 -71 -103.5t-81.5 -66.5t-99.5 -23zM283 64q77 0 131.5 58.5t93 152t63.5 197.5
q25 99 41.5 192.5t16.5 173.5q0 84 -35.5 133t-97.5 49q-66 0 -120.5 -48.5t-95.5 -129t-70 -177.5t-44 -194.5t-15 -179.5q0 -120 36 -173.5t96 -53.5zM311 1251l17 79h458l-18 -79h-457z" />
    <glyph glyph-name="Abreve" unicode="&#x102;" horiz-adv-x="728" 
d="M-136 0l605 1468h120v-1468h-97l2 539h-307l-221 -539h-102zM219 626h276l7 573q0 45 1.5 85.5t3.5 71.5h-5q-10 -30 -23 -68.5t-34 -90.5zM553 1620q-72 0 -114 25t-60.5 68t-18.5 95q0 15 1 26t2 19h64q0 -49 11.5 -84.5t39.5 -53t78 -17.5q74 0 113 35t55 120h67
q-19 -113 -75 -173t-163 -60z" />
    <glyph glyph-name="abreve" unicode="&#x103;" horiz-adv-x="810" 
d="M260 -20q-65 0 -111 35t-70 103t-24 166q0 95 17 205t51.5 219t87 199t122.5 144.5t157 54.5q53 0 89.5 -23t59 -62.5t31.5 -93.5h7l40 158h78l-230 -1085h-74l25 173h-4q-34 -60 -71 -103.5t-81.5 -66.5t-99.5 -23zM283 64q77 0 131.5 58.5t93 152t63.5 197.5
q25 99 41.5 192.5t16.5 173.5q0 84 -35.5 133t-97.5 49q-66 0 -120.5 -48.5t-95.5 -129t-70 -177.5t-44 -194.5t-15 -179.5q0 -120 36 -173.5t96 -53.5zM558 1243q-72 0 -114 25t-60.5 68t-18.5 95q0 15 1 26t2 19h64q0 -49 11.5 -84.5t39.5 -53t78 -17.5q74 0 113 35
t55 120h67q-19 -113 -75 -173t-163 -60z" />
    <glyph glyph-name="Aogonek" unicode="&#x104;" horiz-adv-x="728" 
d="M-136 0l605 1468h120v-1468h-97l2 539h-307l-221 -539h-102zM219 626h276l7 573q0 45 1.5 85.5t3.5 71.5h-5q-10 -30 -23 -68.5t-34 -90.5zM434 -447q-70 0 -107.5 39t-37.5 99q0 53 19.5 101.5t65.5 99t124 108.5h74q-72 -60 -115 -108t-61.5 -91.5t-17.5 -89.5
q0 -40 21 -61.5t62 -21.5q18 0 38 4.5t37 8.5l-14 -72q-18 -6 -39 -11t-49 -5z" />
    <glyph glyph-name="aogonek" unicode="&#x105;" horiz-adv-x="810" 
d="M260 -20q-65 0 -111 35t-70 103t-24 166q0 95 17 205t51.5 219t87 199t122.5 144.5t157 54.5q53 0 89.5 -23t59 -62.5t31.5 -93.5h7l40 158h78l-230 -1085h-74l25 173h-4q-34 -60 -71 -103.5t-81.5 -66.5t-99.5 -23zM283 64q77 0 131.5 58.5t93 152t63.5 197.5
q25 99 41.5 192.5t16.5 173.5q0 84 -35.5 133t-97.5 49q-66 0 -120.5 -48.5t-95.5 -129t-70 -177.5t-44 -194.5t-15 -179.5q0 -120 36 -173.5t96 -53.5zM424 -447q-70 0 -107.5 39t-37.5 99q0 53 19.5 101.5t65.5 99t124 108.5h74q-72 -60 -115 -108t-61.5 -91.5
t-17.5 -89.5q0 -40 21 -61.5t62 -21.5q18 0 38 4.5t37 8.5l-14 -72q-18 -6 -39 -11t-49 -5z" />
    <glyph glyph-name="Cacute" unicode="&#x106;" horiz-adv-x="728" 
d="M385 -20q-103 0 -171.5 50.5t-103.5 156t-35 269.5q0 112 23 249t71 274.5t121.5 252t174 184t227.5 69.5q64 0 110.5 -15.5t83.5 -43.5l-53 -79q-26 25 -62.5 37.5t-81.5 12.5q-105 0 -187.5 -65t-144.5 -170.5t-102.5 -231.5t-60.5 -249t-20 -220q0 -208 55 -301
t172 -93q37 0 78 10t89 29v-91q-48 -17 -93 -26t-90 -9zM503 1618l-1 17q50 52 95.5 107t83 108t60.5 96h111v-17q-22 -32 -58 -74.5t-78.5 -87.5t-84.5 -84.5t-76 -64.5h-52z" />
    <glyph glyph-name="cacute" unicode="&#x107;" horiz-adv-x="589" 
d="M296 -20q-79 0 -132 34t-79.5 105.5t-26.5 185.5q0 96 16 205.5t51 215t88 191t125.5 137.5t164.5 52q43 0 80 -8.5t65 -23.5l-35 -81q-26 14 -54.5 21t-57.5 7q-84 0 -149.5 -68.5t-110 -176.5t-67 -231t-22.5 -232q0 -90 17.5 -145t53.5 -79.5t89 -24.5q35 0 72 11
t73 29v-85q-31 -15 -72 -27t-89 -12zM344 1241l-1 17q50 52 95.5 107t83 108t60.5 96h111v-17q-22 -32 -58 -74.5t-78.5 -87.5t-84.5 -84.5t-76 -64.5h-52z" />
    <glyph glyph-name="Ccircumflex" unicode="&#x108;" horiz-adv-x="728" 
d="M385 -20q-103 0 -171.5 50.5t-103.5 156t-35 269.5q0 112 23 249t71 274.5t121.5 252t174 184t227.5 69.5q64 0 110.5 -15.5t83.5 -43.5l-53 -79q-26 25 -62.5 37.5t-81.5 12.5q-105 0 -187.5 -65t-144.5 -170.5t-102.5 -231.5t-60.5 -249t-20 -220q0 -208 55 -301
t172 -93q37 0 78 10t89 29v-91q-48 -17 -93 -26t-90 -9zM444 1579l2 17q42 45 86 97.5t85 107.5t70 106h79q10 -40 30 -100t44 -118.5t40 -92.5l-3 -17h-46q-19 29 -41 66t-42 78t-38 83q-48 -60 -103.5 -119t-115.5 -108h-47z" />
    <glyph glyph-name="ccircumflex" unicode="&#x109;" horiz-adv-x="589" 
d="M296 -20q-79 0 -132 34t-79.5 105.5t-26.5 185.5q0 96 16 205.5t51 215t88 191t125.5 137.5t164.5 52q43 0 80 -8.5t65 -23.5l-35 -81q-26 14 -54.5 21t-57.5 7q-84 0 -149.5 -68.5t-110 -176.5t-67 -231t-22.5 -232q0 -90 17.5 -145t53.5 -79.5t89 -24.5q35 0 72 11
t73 29v-85q-31 -15 -72 -27t-89 -12zM258 1241l2 17q42 45 86 97.5t85 107.5t70 106h79q10 -40 30 -100t44 -118.5t40 -92.5l-3 -17h-46q-19 29 -41 66t-42 78t-38 83q-48 -60 -103.5 -119t-115.5 -108h-47z" />
    <glyph glyph-name="Cdot" unicode="&#x10a;" horiz-adv-x="728" 
d="M385 -20q-103 0 -171.5 50.5t-103.5 156t-35 269.5q0 112 23 249t71 274.5t121.5 252t174 184t227.5 69.5q64 0 110.5 -15.5t83.5 -43.5l-53 -79q-26 25 -62.5 37.5t-81.5 12.5q-105 0 -187.5 -65t-144.5 -170.5t-102.5 -231.5t-60.5 -249t-20 -220q0 -208 55 -301
t172 -93q37 0 78 10t89 29v-91q-48 -17 -93 -26t-90 -9zM749 1652q-26 0 -39.5 16.5t-13.5 45.5q0 39 20.5 75t59.5 36q18 0 29.5 -6.5t17.5 -20.5t6 -35q0 -38 -20 -74.5t-60 -36.5z" />
    <glyph glyph-name="cdot" unicode="&#x10b;" horiz-adv-x="589" 
d="M296 -20q-79 0 -132 34t-79.5 105.5t-26.5 185.5q0 96 16 205.5t51 215t88 191t125.5 137.5t164.5 52q43 0 80 -8.5t65 -23.5l-35 -81q-26 14 -54.5 21t-57.5 7q-84 0 -149.5 -68.5t-110 -176.5t-67 -231t-22.5 -232q0 -90 17.5 -145t53.5 -79.5t89 -24.5q35 0 72 11
t73 29v-85q-31 -15 -72 -27t-89 -12zM560 1304q-26 0 -39.5 16.5t-13.5 45.5q0 39 20.5 75t59.5 36q18 0 29.5 -6.5t17.5 -20.5t6 -35q0 -38 -20 -74.5t-60 -36.5z" />
    <glyph glyph-name="Ccaron" unicode="&#x10c;" horiz-adv-x="728" 
d="M385 -20q-103 0 -171.5 50.5t-103.5 156t-35 269.5q0 112 23 249t71 274.5t121.5 252t174 184t227.5 69.5q64 0 110.5 -15.5t83.5 -43.5l-53 -79q-26 25 -62.5 37.5t-81.5 12.5q-105 0 -187.5 -65t-144.5 -170.5t-102.5 -231.5t-60.5 -249t-20 -220q0 -208 55 -301
t172 -93q37 0 78 10t89 29v-91q-48 -17 -93 -26t-90 -9zM666 1579q-8 39 -29.5 99.5t-44 119t-41.5 90.5l3 19h47q17 -28 38.5 -63.5t43 -77.5t39.5 -86q48 60 103.5 119.5t115.5 107.5h47l-2 -19q-36 -36 -82 -91t-89 -113t-70 -105h-79z" />
    <glyph glyph-name="ccaron" unicode="&#x10d;" horiz-adv-x="589" 
d="M296 -20q-79 0 -132 34t-79.5 105.5t-26.5 185.5q0 96 16 205.5t51 215t88 191t125.5 137.5t164.5 52q43 0 80 -8.5t65 -23.5l-35 -81q-26 14 -54.5 21t-57.5 7q-84 0 -149.5 -68.5t-110 -176.5t-67 -231t-22.5 -232q0 -90 17.5 -145t53.5 -79.5t89 -24.5q35 0 72 11
t73 29v-85q-31 -15 -72 -27t-89 -12zM469 1241q-8 39 -29.5 99.5t-44 119t-41.5 90.5l3 19h47q17 -28 38.5 -63.5t43 -77.5t39.5 -86q48 60 103.5 119.5t115.5 107.5h47l-2 -19q-36 -36 -82 -91t-89 -113t-70 -105h-79z" />
    <glyph glyph-name="Dcaron" unicode="&#x10e;" horiz-adv-x="883" 
d="M4 0l309 1462h186q168 0 258 -102.5t90 -322.5q0 -122 -21 -263t-68 -278t-122.5 -249t-183.5 -179.5t-252 -67.5h-196zM116 88h91q118 0 207 61.5t152.5 163.5t102.5 226.5t58 253.5t19 240q0 189 -65.5 265t-194.5 76h-96zM541 1579q-8 39 -29.5 99.5t-44 119
t-41.5 90.5l3 19h47q17 -28 38.5 -63.5t43 -77.5t39.5 -86q48 60 103.5 119.5t115.5 107.5h47l-2 -19q-36 -36 -82 -91t-89 -113t-70 -105h-79z" />
    <glyph glyph-name="dcaron" unicode="&#x10f;" horiz-adv-x="857" 
d="M258 -20q-65 0 -110.5 34.5t-69.5 102.5t-24 167q0 94 17.5 204.5t52 219.5t86 199t121 144.5t155.5 54.5q52 0 89 -21t60.5 -58t32.5 -87h6q6 34 12 70t14 71.5t14 69.5l86 405h92l-328 -1556h-75l26 176h-5q-33 -61 -70 -105t-82 -67.5t-100 -23.5zM282 64
q63 0 113.5 45t88.5 119t65.5 162.5t44.5 176t25.5 160t8.5 113.5q0 84 -34.5 132t-99.5 48q-67 0 -121 -49t-95.5 -130.5t-70 -179t-43 -195t-14.5 -176.5q0 -119 36 -172.5t96 -53.5zM891 1229v16q27 51 51.5 106t44 108t30.5 97h94l-2 -20q-13 -40 -41 -96t-60.5 -113
t-63.5 -98h-53z" />
    <glyph glyph-name="Dcroat" unicode="&#x110;" horiz-adv-x="890" 
d="M4 0l152 717h-107l18 82h106l140 663h186q168 0 258 -102.5t90 -322.5q0 -123 -21.5 -264.5t-68 -278t-122.5 -248.5t-183.5 -179t-251.5 -67h-196zM116 88h91q121 0 210.5 63t152.5 167.5t101.5 230t56.5 252.5t18 232q0 189 -65.5 265t-194.5 76h-96l-122 -575h192
l-18 -82h-193z" />
    <glyph glyph-name="dcroat" unicode="&#x111;" horiz-adv-x="808" 
d="M259 -20q-65 0 -110.5 34.5t-69.5 103t-24 166.5q0 94 17.5 204.5t52 219.5t86 199t121 144.5t156.5 54.5q51 0 88.5 -21t60.5 -58t32 -86h6q6 33 12.5 67.5t13.5 69.5l14 70l30 135h-211l17 79h210l40 194h92l-40 -194h124l-16 -79h-125l-271 -1283h-75l26 175h-5
q-32 -60 -69.5 -104t-82 -67.5t-100.5 -23.5zM283 64q63 0 113.5 45t88.5 119t65.5 162t45 175.5t25 160.5t7.5 114q0 83 -34 132t-98 49q-67 0 -121.5 -49.5t-96 -131t-70 -179t-43 -195t-14.5 -176.5q0 -120 35.5 -173t96.5 -53z" />
    <glyph glyph-name="Emacron" unicode="&#x112;" horiz-adv-x="714" 
d="M2 0l311 1462h487l-18 -87h-392l-120 -564h367l-21 -88h-366l-135 -635h392l-17 -88h-488zM341 1589l17 79h458l-18 -79h-457z" />
    <glyph glyph-name="emacron" unicode="&#x113;" horiz-adv-x="711" 
d="M305 -20q-80 0 -136 35.5t-86 106.5t-30 178q0 165 34.5 310.5t94.5 257t139.5 175t170.5 63.5q83 0 133.5 -48t50.5 -152q0 -78 -30 -150.5t-91.5 -128t-155.5 -88.5t-222 -33h-12q-9 -44 -13.5 -92t-4.5 -101q0 -131 43.5 -191t135.5 -60q50 0 95 14.5t90 42.5v-87
q-39 -25 -90 -38.5t-116 -13.5zM178 584h9q144 0 231 45.5t127.5 118.5t40.5 153q0 58 -25 90.5t-79 32.5q-64 0 -124 -58t-106.5 -157.5t-73.5 -224.5zM297 1251l17 79h458l-18 -79h-457z" />
    <glyph glyph-name="Ebreve" unicode="&#x114;" horiz-adv-x="714" 
d="M2 0l311 1462h487l-18 -87h-392l-120 -564h367l-21 -88h-366l-135 -635h392l-17 -88h-488zM579 1581q-72 0 -114 25t-60.5 68t-18.5 95q0 15 1 26t2 19h64q0 -49 11.5 -84.5t39.5 -53t78 -17.5q74 0 113 35t55 120h67q-19 -113 -75 -173t-163 -60z" />
    <glyph glyph-name="ebreve" unicode="&#x115;" horiz-adv-x="711" 
d="M305 -20q-80 0 -136 35.5t-86 106.5t-30 178q0 165 34.5 310.5t94.5 257t139.5 175t170.5 63.5q83 0 133.5 -48t50.5 -152q0 -78 -30 -150.5t-91.5 -128t-155.5 -88.5t-222 -33h-12q-9 -44 -13.5 -92t-4.5 -101q0 -131 43.5 -191t135.5 -60q50 0 95 14.5t90 42.5v-87
q-39 -25 -90 -38.5t-116 -13.5zM178 584h9q144 0 231 45.5t127.5 118.5t40.5 153q0 58 -25 90.5t-79 32.5q-64 0 -124 -58t-106.5 -157.5t-73.5 -224.5zM557 1243q-72 0 -114 25t-60.5 68t-18.5 95q0 15 1 26t2 19h64q0 -49 11.5 -84.5t39.5 -53t78 -17.5q74 0 113 35
t55 120h67q-19 -113 -75 -173t-163 -60z" />
    <glyph glyph-name="Edotaccent" unicode="&#x116;" horiz-adv-x="714" 
d="M2 0l311 1462h487l-18 -87h-392l-120 -564h367l-21 -88h-366l-135 -635h392l-17 -88h-488zM626 1613q-26 0 -39.5 16.5t-13.5 45.5q0 39 20.5 75t59.5 36q18 0 29.5 -6.5t17.5 -20.5t6 -35q0 -38 -20 -74.5t-60 -36.5z" />
    <glyph glyph-name="edotaccent" unicode="&#x117;" horiz-adv-x="711" 
d="M305 -20q-80 0 -136 35.5t-86 106.5t-30 178q0 165 34.5 310.5t94.5 257t139.5 175t170.5 63.5q83 0 133.5 -48t50.5 -152q0 -78 -30 -150.5t-91.5 -128t-155.5 -88.5t-222 -33h-12q-9 -44 -13.5 -92t-4.5 -101q0 -131 43.5 -191t135.5 -60q50 0 95 14.5t90 42.5v-87
q-39 -25 -90 -38.5t-116 -13.5zM178 584h9q144 0 231 45.5t127.5 118.5t40.5 153q0 58 -25 90.5t-79 32.5q-64 0 -124 -58t-106.5 -157.5t-73.5 -224.5zM599 1304q-26 0 -39.5 16.5t-13.5 45.5q0 39 20.5 75t59.5 36q18 0 29.5 -6.5t17.5 -20.5t6 -35q0 -38 -20 -74.5
t-60 -36.5z" />
    <glyph glyph-name="Eogonek" unicode="&#x118;" horiz-adv-x="714" 
d="M2 0l311 1462h487l-18 -87h-392l-120 -564h367l-21 -88h-366l-135 -635h392l-17 -88h-488zM272 -447q-70 0 -107.5 39t-37.5 99q0 53 19.5 101.5t65.5 99t124 108.5h74q-72 -60 -115 -108t-61.5 -91.5t-17.5 -89.5q0 -40 21 -61.5t62 -21.5q18 0 38 4.5t37 8.5l-14 -72
q-18 -6 -39 -11t-49 -5z" />
    <glyph glyph-name="eogonek" unicode="&#x119;" horiz-adv-x="711" 
d="M364 -411q-62 0 -94.5 40t-32.5 102q0 51 18 99.5t60.5 98.5t117.5 106h71q-58 -50 -96 -99.5t-57 -96.5t-19 -94q0 -39 18.5 -59t55.5 -20q14 0 31.5 2.5t34.5 6.5l-16 -69q-18 -8 -41 -12.5t-51 -4.5zM305 -20q-80 0 -136 35.5t-86 106.5t-30 178q0 165 34.5 310.5
t94.5 257t139.5 175t170.5 63.5q83 0 133 -48t50 -152q0 -78 -29.5 -150.5t-91 -128t-155.5 -88.5t-222 -33h-12q-9 -44 -13.5 -92t-4.5 -101q0 -131 43.5 -191t135.5 -60q50 0 95 14.5t91 42.5v-87q-40 -25 -91 -38.5t-116 -13.5zM178 584h9q144 0 231 45.5t127.5 118.5
t40.5 153q0 58 -25 90.5t-79 32.5q-64 0 -124 -58t-106.5 -157.5t-73.5 -224.5z" />
    <glyph glyph-name="Ecaron" unicode="&#x11a;" horiz-adv-x="714" 
d="M2 0l311 1462h487l-18 -87h-392l-120 -564h367l-21 -88h-366l-135 -635h392l-17 -88h-488zM525 1579q-8 39 -29.5 99.5t-44 119t-41.5 90.5l3 19h47q17 -28 38.5 -63.5t43 -77.5t39.5 -86q48 60 103.5 119.5t115.5 107.5h47l-2 -19q-36 -36 -82 -91t-89 -113t-70 -105
h-79z" />
    <glyph glyph-name="ecaron" unicode="&#x11b;" horiz-adv-x="711" 
d="M305 -20q-80 0 -136 35.5t-86 106.5t-30 178q0 165 34.5 310.5t94.5 257t139.5 175t170.5 63.5q83 0 133.5 -48t50.5 -152q0 -78 -30 -150.5t-91.5 -128t-155.5 -88.5t-222 -33h-12q-9 -44 -13.5 -92t-4.5 -101q0 -131 43.5 -191t135.5 -60q50 0 95 14.5t90 42.5v-87
q-39 -25 -90 -38.5t-116 -13.5zM178 584h9q144 0 231 45.5t127.5 118.5t40.5 153q0 58 -25 90.5t-79 32.5q-64 0 -124 -58t-106.5 -157.5t-73.5 -224.5zM484 1241q-8 39 -29.5 99.5t-44 119t-41.5 90.5l3 19h47q17 -28 38.5 -63.5t43 -77.5t39.5 -86q48 60 103.5 119.5
t115.5 107.5h47l-2 -19q-36 -36 -82 -91t-89 -113t-70 -105h-79z" />
    <glyph glyph-name="Gcircumflex" unicode="&#x11c;" horiz-adv-x="957" 
d="M447 -20q-186 0 -279.5 115.5t-93.5 346.5q0 160 28.5 313.5t84 285.5t135 231.5t181.5 156t223 56.5q90 0 157.5 -25.5t118.5 -62.5l-52 -81q-49 39 -105 60t-124 21q-129 0 -231 -83t-173 -220.5t-108 -305.5t-37 -340q0 -133 32 -217t96 -124t157 -40q51 0 96.5 8
t87.5 24l117 555h-194l19 86h290l-152 -708q-63 -24 -130.5 -38t-143.5 -14zM494 1579l2 17q42 45 86 97.5t85 107.5t70 106h79q10 -40 30 -100t44 -118.5t40 -92.5l-3 -17h-46q-19 29 -41 66t-42 78t-38 83q-48 -60 -103.5 -119t-115.5 -108h-47z" />
    <glyph glyph-name="gcircumflex" unicode="&#x11d;" horiz-adv-x="711" 
d="M158 -492q-135 -2 -213 59t-76 194q2 106 67.5 194.5t182.5 141.5q-30 16 -45.5 47.5t-15.5 67.5q0 48 34 100.5t115 105.5q-40 24 -65 76t-24 131q0 106 41.5 215.5t117.5 180.5q41 39 90.5 62.5t106.5 23.5q35 0 59.5 -7.5t39.5 -16.5h204l-13 -66l-127 -18
q17 -25 24.5 -62t7.5 -81q-1 -86 -29.5 -177t-78.5 -160q-45 -60 -105.5 -96.5t-131.5 -36.5h-29.5t-26.5 -5q-66 -31 -95 -75.5t-29 -80.5q0 -45 32 -64q11 -6 25.5 -9.5t31.5 -4.5h132q82 0 128 -29t64.5 -79.5t18.5 -114.5q0 -94 -40 -177.5t-106 -137.5
q-55 -49 -126 -74t-146 -27zM162 -414q61 2 118 24.5t101 64.5q45 41 73 103.5t28 128.5q0 36 -7 65.5t-28 50.5q-15 18 -43 27.5t-66 10.5h-120q-55 0 -115 -42.5t-101 -110t-41 -141.5q0 -104 53.5 -143.5t147.5 -37.5zM327 463q68 0 122.5 57.5t88 150.5t35.5 197
q2 39 -4.5 71t-23.5 54q-13 18 -33 28t-50 10q-49 0 -93.5 -38t-79 -98.5t-55.5 -129.5t-22 -132q0 -37 6 -68t19 -53q29 -49 90 -49zM314 1243l2 17q42 45 86 97.5t85 107.5t70 106h79q10 -40 30 -100t44 -118.5t40 -92.5l-3 -17h-46q-19 29 -41 66t-42 78t-38 83
q-48 -60 -103.5 -119t-115.5 -108h-47z" />
    <glyph glyph-name="Gbreve" unicode="&#x11e;" horiz-adv-x="957" 
d="M447 -20q-186 0 -279.5 115.5t-93.5 346.5q0 160 28.5 313.5t84 285.5t135 231.5t181.5 156t223 56.5q90 0 157.5 -25.5t118.5 -62.5l-52 -81q-49 39 -105 60t-124 21q-129 0 -231 -83t-173 -220.5t-108 -305.5t-37 -340q0 -133 32 -217t96 -124t157 -40q51 0 96.5 8
t87.5 24l117 555h-194l19 86h290l-152 -708q-63 -24 -130.5 -38t-143.5 -14zM736 1581q-72 0 -114 25t-60.5 68t-18.5 95q0 15 1 26t2 19h64q0 -49 11.5 -84.5t39.5 -53t78 -17.5q74 0 113 35t55 120h67q-19 -113 -75 -173t-163 -60z" />
    <glyph glyph-name="gbreve" unicode="&#x11f;" horiz-adv-x="711" 
d="M158 -492q-135 -2 -213 59t-76 194q2 106 67.5 194.5t182.5 141.5q-30 16 -45.5 47.5t-15.5 67.5q0 48 34 100.5t115 105.5q-40 24 -65 76t-24 131q0 106 41.5 215.5t117.5 180.5q41 39 90.5 62.5t106.5 23.5q35 0 59.5 -7.5t39.5 -16.5h204l-13 -66l-127 -18
q17 -25 24.5 -62t7.5 -81q-1 -86 -29.5 -177t-78.5 -160q-45 -60 -105.5 -96.5t-131.5 -36.5h-29.5t-26.5 -5q-66 -31 -95 -75.5t-29 -80.5q0 -45 32 -64q11 -6 25.5 -9.5t31.5 -4.5h132q82 0 128 -29t64.5 -79.5t18.5 -114.5q0 -94 -40 -177.5t-106 -137.5
q-55 -49 -126 -74t-146 -27zM162 -414q61 2 118 24.5t101 64.5q45 41 73 103.5t28 128.5q0 36 -7 65.5t-28 50.5q-15 18 -43 27.5t-66 10.5h-120q-55 0 -115 -42.5t-101 -110t-41 -141.5q0 -104 53.5 -143.5t147.5 -37.5zM327 463q68 0 122.5 57.5t88 150.5t35.5 197
q2 39 -4.5 71t-23.5 54q-13 18 -33 28t-50 10q-49 0 -93.5 -38t-79 -98.5t-55.5 -129.5t-22 -132q0 -37 6 -68t19 -53q29 -49 90 -49zM496 1245q-72 0 -114 25t-60.5 68t-18.5 95q0 15 1 26t2 19h64q0 -49 11.5 -84.5t39.5 -53t78 -17.5q74 0 113 35t55 120h67
q-19 -113 -75 -173t-163 -60z" />
    <glyph glyph-name="Gdot" unicode="&#x120;" horiz-adv-x="957" 
d="M447 -20q-186 0 -279.5 115.5t-93.5 346.5q0 160 28.5 313.5t84 285.5t135 231.5t181.5 156t223 56.5q90 0 157.5 -25.5t118.5 -62.5l-52 -81q-49 39 -105 60t-124 21q-129 0 -231 -83t-173 -220.5t-108 -305.5t-37 -340q0 -133 32 -217t96 -124t157 -40q51 0 96.5 8
t87.5 24l117 555h-194l19 86h290l-152 -708q-63 -24 -130.5 -38t-143.5 -14zM791 1642q-26 0 -39.5 16.5t-13.5 45.5q0 39 20.5 75t59.5 36q18 0 29.5 -6.5t17.5 -20.5t6 -35q0 -38 -20 -74.5t-60 -36.5z" />
    <glyph glyph-name="gdot" unicode="&#x121;" horiz-adv-x="711" 
d="M158 -492q-135 -2 -213 59t-76 194q2 106 67.5 194.5t182.5 141.5q-30 16 -45.5 47.5t-15.5 67.5q0 48 34 100.5t115 105.5q-40 24 -65 76t-24 131q0 106 41.5 215.5t117.5 180.5q41 39 90.5 62.5t106.5 23.5q35 0 59.5 -7.5t39.5 -16.5h204l-13 -66l-127 -18
q17 -25 24.5 -62t7.5 -81q-1 -86 -29.5 -177t-78.5 -160q-45 -60 -105.5 -96.5t-131.5 -36.5h-29.5t-26.5 -5q-66 -31 -95 -75.5t-29 -80.5q0 -45 32 -64q11 -6 25.5 -9.5t31.5 -4.5h132q82 0 128 -29t64.5 -79.5t18.5 -114.5q0 -94 -40 -177.5t-106 -137.5
q-55 -49 -126 -74t-146 -27zM162 -414q61 2 118 24.5t101 64.5q45 41 73 103.5t28 128.5q0 36 -7 65.5t-28 50.5q-15 18 -43 27.5t-66 10.5h-120q-55 0 -115 -42.5t-101 -110t-41 -141.5q0 -104 53.5 -143.5t147.5 -37.5zM327 463q68 0 122.5 57.5t88 150.5t35.5 197
q2 39 -4.5 71t-23.5 54q-13 18 -33 28t-50 10q-49 0 -93.5 -38t-79 -98.5t-55.5 -129.5t-22 -132q0 -37 6 -68t19 -53q29 -49 90 -49zM514 1306q-26 0 -39.5 16.5t-13.5 45.5q0 39 20.5 75t59.5 36q18 0 29.5 -6.5t17.5 -20.5t6 -35q0 -38 -20 -74.5t-60 -36.5z" />
    <glyph glyph-name="uni0122" unicode="&#x122;" horiz-adv-x="957" 
d="M447 -20q-186 0 -279.5 115.5t-93.5 346.5q0 160 28.5 313.5t84 285.5t135 231.5t181.5 156t223 56.5q90 0 157.5 -25.5t118.5 -62.5l-52 -81q-49 39 -105 60t-124 21q-129 0 -231 -83t-173 -220.5t-108 -305.5t-37 -340q0 -133 32 -217t96 -124t157 -40q51 0 96.5 8
t87.5 24l117 555h-194l19 86h290l-152 -708q-63 -24 -130.5 -38t-143.5 -14zM176 -453v31q27 30 60 83t62.5 111t44.5 103h91v-21q-16 -43 -52 -101.5t-78.5 -114t-78.5 -91.5h-49z" />
    <glyph glyph-name="uni0123" unicode="&#x123;" horiz-adv-x="711" 
d="M435 1241v22q18 45 53.5 102t77 112.5t78.5 91.5h48l1 -28q-26 -28 -59.5 -83t-63 -114.5t-43.5 -102.5h-92zM158 -492q-135 -2 -213 59t-76 194q2 106 67.5 194.5t182.5 141.5q-30 16 -45.5 47.5t-15.5 67.5q0 48 34 100.5t115 105.5q-40 24 -65 76t-24 131
q0 106 41.5 215.5t117.5 180.5q41 39 90.5 62.5t106.5 23.5q35 0 59.5 -7.5t39.5 -16.5h204l-13 -66l-127 -18q17 -25 24.5 -62t7.5 -81q-1 -86 -29.5 -177t-78.5 -160q-45 -60 -105.5 -96.5t-131.5 -36.5h-29.5t-26.5 -5q-66 -31 -95 -75.5t-29 -80.5q0 -45 32 -64
q11 -6 25.5 -9.5t31.5 -4.5h132q82 0 128 -29t64.5 -79.5t18.5 -114.5q0 -94 -40 -177.5t-106 -137.5q-55 -49 -126 -74t-146 -27zM162 -414q61 2 118 24.5t101 64.5q45 41 73 103.5t28 128.5q0 36 -7 65.5t-28 50.5q-15 18 -43 27.5t-66 10.5h-120q-55 0 -115 -42.5
t-101 -110t-41 -141.5q0 -104 53.5 -143.5t147.5 -37.5zM327 463q68 0 122.5 57.5t88 150.5t35.5 197q2 39 -4.5 71t-23.5 54q-13 18 -33 28t-50 10q-49 0 -93.5 -38t-79 -98.5t-55.5 -129.5t-22 -132q0 -37 6 -68t19 -53q29 -49 90 -49z" />
    <glyph glyph-name="Hcircumflex" unicode="&#x124;" horiz-adv-x="933" 
d="M2 0l311 1462h95l-138 -650h465l140 650h94l-312 -1462h-94l154 723h-467l-153 -723h-95zM427 1579l2 17q42 45 86 97.5t85 107.5t70 106h79q10 -40 30 -100t44 -118.5t40 -92.5l-3 -17h-46q-19 29 -41 66t-42 78t-38 83q-48 -60 -103.5 -119t-115.5 -108h-47z" />
    <glyph glyph-name="hcircumflex" unicode="&#x125;" horiz-adv-x="774" 
d="M9 0l330 1556h91l-98 -456q-6 -27 -12.5 -55.5t-14 -56.5t-13.5 -55h3q26 55 62.5 93.5t82 59t98.5 20.5t92.5 -20.5t61.5 -61t22 -100.5q0 -46 -12 -114.5t-25 -128.5l-146 -681h-92l146 685q12 57 23.5 115.5t11.5 108.5q0 54 -29.5 82t-79.5 28q-69 0 -121.5 -46.5
t-91.5 -140.5t-70 -237l-126 -595h-93zM184 1700l2 17q42 45 86 97.5t85 107.5t70 106h79q10 -40 30 -100t44 -118.5t40 -92.5l-3 -17h-46q-19 29 -41 66t-42 78t-38 83q-48 -60 -103.5 -119t-115.5 -108h-47z" />
    <glyph glyph-name="Hbar" unicode="&#x126;" horiz-adv-x="920" 
d="M2 0l234 1101h-142l15 80h144l60 281h95l-60 -281h465l61 281h95l-60 -281h121l-17 -80h-122l-234 -1101h-94l153 723h-465l-154 -723h-95zM269 810h466l62 290h-466z" />
    <glyph glyph-name="hbar" unicode="&#x127;" horiz-adv-x="781" 
d="M9 0l272 1283h-128l16 79h128l42 194h91l-42 -194h206l-16 -79h-206q-21 -99 -37 -167t-26.5 -112t-19.5 -76h4q27 54 63.5 93t82 59t98.5 20q54 0 93.5 -20.5t60.5 -61t21 -100.5q0 -46 -11.5 -114t-24.5 -128l-145 -676h-92l145 679q12 58 23 116.5t11 107.5
q0 55 -29 83t-80 28q-70 0 -122.5 -47t-91 -140.5t-68.5 -236.5l-125 -590h-93z" />
    <glyph glyph-name="Itilde" unicode="&#x128;" horiz-adv-x="373" 
d="M2 0l311 1462h93l-310 -1462h-94zM139 1632q13 70 36.5 117.5t58.5 72t83 24.5q41 0 70.5 -19.5t54 -45t47.5 -45t52 -19.5q37 0 60 29t37 101h69q-12 -74 -35.5 -121.5t-57.5 -69.5t-77 -22q-42 0 -71 19.5t-53 45.5t-47.5 46t-53.5 20q-44 0 -67 -34.5t-36 -98.5h-70z
" />
    <glyph glyph-name="itilde" unicode="&#x129;" horiz-adv-x="345" 
d="M7 0l230 1085h92l-231 -1085h-91zM51 1249q13 70 36.5 117.5t58.5 72t83 24.5q41 0 70.5 -19.5t54 -45t47.5 -45t52 -19.5q37 0 60 29t37 101h69q-12 -74 -35.5 -121.5t-57.5 -69.5t-77 -22q-42 0 -71 19.5t-53 45.5t-47.5 46t-53.5 20q-44 0 -67 -34.5t-36 -98.5h-70z
" />
    <glyph glyph-name="Imacron" unicode="&#x12a;" horiz-adv-x="373" 
d="M2 0l311 1462h93l-310 -1462h-94zM163 1634l17 79h458l-18 -79h-457z" />
    <glyph glyph-name="imacron" unicode="&#x12b;" horiz-adv-x="345" 
d="M7 0l230 1085h92l-231 -1085h-91zM76 1251l17 79h458l-18 -79h-457z" />
    <glyph glyph-name="Ibreve" unicode="&#x12c;" horiz-adv-x="373" 
d="M2 0l311 1462h93l-310 -1462h-94zM399 1626q-72 0 -114 25t-60.5 68t-18.5 95q0 15 1 26t2 19h64q0 -49 11.5 -84.5t39.5 -53t78 -17.5q74 0 113 35t55 120h67q-19 -113 -75 -173t-163 -60z" />
    <glyph glyph-name="ibreve" unicode="&#x12d;" horiz-adv-x="345" 
d="M7 0l230 1085h92l-231 -1085h-91zM323 1243q-72 0 -114 25t-60.5 68t-18.5 95q0 15 1 26t2 19h64q0 -49 11.5 -84.5t39.5 -53t78 -17.5q74 0 113 35t55 120h67q-19 -113 -75 -173t-163 -60z" />
    <glyph glyph-name="Iogonek" unicode="&#x12e;" horiz-adv-x="373" 
d="M2 0l311 1462h93l-310 -1462h-94zM-43 -447q-70 0 -107.5 39t-37.5 99q0 53 19.5 101.5t65.5 99t124 108.5h74q-72 -60 -115 -108t-61.5 -91.5t-17.5 -89.5q0 -40 21 -61.5t62 -21.5q18 0 38 4.5t37 8.5l-14 -72q-18 -6 -39 -11t-49 -5z" />
    <glyph glyph-name="iogonek" unicode="&#x12f;" horiz-adv-x="345" 
d="M7 0l230 1085h93l-230 -1085h-93zM337 1304q-26 0 -39.5 15.5t-13.5 44.5q0 27 8.5 52.5t27 43t45.5 17.5q24 0 37.5 -14.5t13.5 -45.5q0 -39 -20.5 -76t-58.5 -37zM-48 -447q-70 0 -107.5 39t-37.5 99q0 53 19.5 101.5t65.5 99t124 108.5h74q-72 -60 -115 -108
t-61.5 -91.5t-17.5 -89.5q0 -40 21 -61.5t62 -21.5q18 0 38 4.5t37 8.5l-14 -72q-18 -6 -39 -11t-49 -5z" />
    <glyph glyph-name="Idotaccent" unicode="&#x130;" horiz-adv-x="373" 
d="M2 0l311 1462h93l-310 -1462h-94zM410 1687q-26 0 -39.5 16.5t-13.5 45.5q0 39 20.5 75t59.5 36q18 0 29.5 -6.5t17.5 -20.5t6 -35q0 -38 -20 -74.5t-60 -36.5z" />
    <glyph glyph-name="dotlessi" unicode="&#x131;" horiz-adv-x="345" 
d="M7 0l230 1085h92l-231 -1085h-91z" />
    <glyph glyph-name="IJ" unicode="&#x132;" horiz-adv-x="725" 
d="M2 0l311 1462h93l-310 -1462h-94zM194 -367q-36 0 -65 6.5t-51 16.5l25 85q20 -9 43.5 -15t48.5 -6q47 0 78.5 25t54.5 79t42 139l317 1499h95l-322 -1521q-22 -106 -56.5 -174.5t-86 -101t-123.5 -32.5z" />
    <glyph glyph-name="ij" unicode="&#x133;" horiz-adv-x="692" 
d="M7 0l230 1085h93l-230 -1085h-93zM337 1304q-26 0 -39.5 15.5t-13.5 44.5q0 27 8.5 52.5t27 43t45.5 17.5q24 0 37.5 -14.5t13.5 -45.5q0 -39 -20.5 -76t-58.5 -37zM159 -492q-25 0 -46 3t-36 8v88q16 -6 35 -9t40 -3q52 0 85 26.5t56.5 93.5t46.5 185l252 1185h92
l-253 -1192q-27 -128 -58 -213.5t-80 -128.5t-134 -43zM691 1304q-25 0 -39 15.5t-14 44.5q0 27 8.5 52.5t27 43t45.5 17.5q24 0 37.5 -14.5t13.5 -45.5q0 -39 -20.5 -76t-58.5 -37z" />
    <glyph glyph-name="Jcircumflex" unicode="&#x134;" horiz-adv-x="352" 
d="M-179 -367q-36 0 -65 6.5t-51 16.5l25 85q20 -9 43.5 -15t48.5 -6q47 0 78.5 25t54.5 79t42 139l317 1499h95l-322 -1521q-22 -106 -56.5 -174.5t-86 -101t-123.5 -32.5zM152 1579l2 17q42 45 86 97.5t85 107.5t70 106h79q10 -40 30 -100t44 -118.5t40 -92.5l-3 -17h-46
q-19 29 -41 66t-42 78t-38 83q-48 -60 -103.5 -119t-115.5 -108h-47z" />
    <glyph glyph-name="jcircumflex" unicode="&#x135;" horiz-adv-x="345" 
d="M-187 -492q-25 0 -46 3t-36 8v88q16 -6 35 -9t40 -3q52 0 85 26.5t56.5 93.5t46.5 185l252 1185h92l-253 -1192q-27 -128 -58 -213.5t-80 -128.5t-134 -43zM82 1241l2 17q42 45 86 97.5t85 107.5t70 106h79q10 -40 30 -100t44 -118.5t40 -92.5l-3 -17h-46q-19 29 -41 66
t-42 78t-38 83q-48 -60 -103.5 -119t-115.5 -108h-47z" />
    <glyph glyph-name="uni0136" unicode="&#x136;" horiz-adv-x="754" 
d="M2 0l311 1462h95l-165 -779l130 188l428 591h107l-470 -653l181 -809h-104l-157 733l-140 -165l-121 -568h-95zM75 -453v31q27 30 60 83t62.5 111t44.5 103h91v-21q-16 -43 -52 -101.5t-78.5 -114t-78.5 -91.5h-49z" />
    <glyph glyph-name="uni0137" unicode="&#x137;" horiz-adv-x="656" 
d="M6 0l332 1556h92l-169 -792q-8 -41 -16.5 -80t-18 -80t-21.5 -85h3l426 566h102l-320 -427l111 -658h-96l-94 575l-157 -188l-81 -387h-93zM27 -453v31q27 30 60 83t62.5 111t44.5 103h91v-21q-16 -43 -52 -101.5t-78.5 -114t-78.5 -91.5h-49z" />
    <glyph glyph-name="kgreenlandic" unicode="&#x138;" horiz-adv-x="644" 
d="M6 0l236 1085h92l-72 -322q-13 -57 -27.5 -122t-29.5 -122h3l426 567h102l-320 -428l111 -658h-96l-94 575l-157 -188l-81 -387h-93z" />
    <glyph glyph-name="Lacute" unicode="&#x139;" horiz-adv-x="645" 
d="M2 0l311 1462h95l-293 -1374h376l-18 -88h-471zM452 1618l-1 17q50 52 95.5 107t83 108t60.5 96h111v-17q-22 -32 -58 -74.5t-78.5 -87.5t-84.5 -84.5t-76 -64.5h-52z" />
    <glyph glyph-name="lacute" unicode="&#x13a;" horiz-adv-x="335" 
d="M6 0l332 1556h92l-331 -1556h-93zM318 1712l-1 17q50 52 95.5 107t83 108t60.5 96h111v-17q-22 -32 -58 -74.5t-78.5 -87.5t-84.5 -84.5t-76 -64.5h-52z" />
    <glyph glyph-name="uni013B" unicode="&#x13b;" horiz-adv-x="645" 
d="M2 0l311 1462h95l-293 -1374h376l-18 -88h-471zM20 -453v31q27 30 60 83t62.5 111t44.5 103h91v-21q-16 -43 -52 -101.5t-78.5 -114t-78.5 -91.5h-49z" />
    <glyph glyph-name="uni013C" unicode="&#x13c;" horiz-adv-x="335" 
d="M6 0l332 1556h92l-331 -1556h-93zM-135 -453v31q27 30 60 83t62.5 111t44.5 103h91v-21q-16 -43 -52 -101.5t-78.5 -114t-78.5 -91.5h-49z" />
    <glyph glyph-name="Lcaron" unicode="&#x13d;" horiz-adv-x="645" 
d="M2 0l311 1462h95l-293 -1374h376l-18 -88h-471zM500 1133v16q27 51 51.5 106t44 108t30.5 97h94l-2 -20q-13 -40 -41 -96t-60.5 -113t-63.5 -98h-53z" />
    <glyph glyph-name="lcaron" unicode="&#x13e;" horiz-adv-x="397" 
d="M6 0l332 1556h92l-331 -1556h-93zM432 1229v16q27 51 51.5 106t44 108t30.5 97h94l-2 -20q-13 -40 -41 -96t-60.5 -113t-63.5 -98h-53z" />
    <glyph glyph-name="Ldot" unicode="&#x13f;" horiz-adv-x="645" 
d="M2 0l311 1462h95l-293 -1374h376l-18 -88h-471zM502 665q-26 0 -39.5 16.5t-13.5 45.5q0 39 20.5 75t59.5 36q18 0 29.5 -6.5t17.5 -20.5t6 -35q0 -38 -20 -74.5t-60 -36.5z" />
    <glyph glyph-name="ldot" unicode="&#x140;" horiz-adv-x="540" 
d="M6 0l332 1556h92l-331 -1556h-93zM456 591q-26 0 -39.5 16.5t-13.5 45.5q0 39 20.5 75t59.5 36q18 0 29.5 -6.5t17.5 -20.5t6 -35q0 -38 -20 -74.5t-60 -36.5z" />
    <glyph glyph-name="Lslash" unicode="&#x141;" horiz-adv-x="636" 
d="M7 0l134 628l-150 -82l-34 70l208 117l153 729h95l-141 -662l207 115l36 -69l-266 -151l-128 -607h375l-18 -88h-471z" />
    <glyph glyph-name="lslash" unicode="&#x142;" horiz-adv-x="356" 
d="M12 0l150 701l-146 -83l-29 71l195 113l162 754h92l-150 -702l157 91l31 -71l-208 -118l-162 -756h-92z" />
    <glyph glyph-name="Nacute" unicode="&#x143;" horiz-adv-x="984" 
d="M2 0l311 1462h116l226 -1275h4q10 56 21.5 112t21 105t16.5 82l208 976h94l-312 -1462h-111l-228 1293h-4q-5 -35 -12 -74t-15.5 -79t-17 -80.5t-16.5 -78.5l-208 -981h-94zM623 1618l-1 17q50 52 95.5 107t83 108t60.5 96h111v-17q-22 -32 -58 -74.5t-78.5 -87.5
t-84.5 -84.5t-76 -64.5h-52z" />
    <glyph glyph-name="nacute" unicode="&#x144;" horiz-adv-x="773" 
d="M7 0l229 1085h76l-26 -155h4q27 56 64 95t83 59.5t97 20.5q53 0 93.5 -19.5t63 -59.5t22.5 -102q0 -46 -12 -112.5t-25 -126.5l-145 -685h-93l147 690q11 55 21.5 113.5t10.5 105.5q0 54 -28 82t-79 28q-72 0 -124 -48t-91.5 -144t-69.5 -238l-125 -589h-93zM438 1237
l-1 17q50 52 95.5 107t83 108t60.5 96h111v-17q-22 -32 -58 -74.5t-78.5 -87.5t-84.5 -84.5t-76 -64.5h-52z" />
    <glyph glyph-name="uni0145" unicode="&#x145;" horiz-adv-x="984" 
d="M2 0l311 1462h116l226 -1275h4q10 56 21.5 112t21 105t16.5 82l208 976h94l-312 -1462h-111l-228 1293h-4q-5 -35 -12 -74t-15.5 -79t-17 -80.5t-16.5 -78.5l-208 -981h-94zM190 -453v31q27 30 60 83t62.5 111t44.5 103h91v-21q-16 -43 -52 -101.5t-78.5 -114
t-78.5 -91.5h-49z" />
    <glyph glyph-name="uni0146" unicode="&#x146;" horiz-adv-x="773" 
d="M7 0l229 1085h76l-26 -155h4q27 56 64 95t83 59.5t97 20.5q53 0 93.5 -19.5t63 -59.5t22.5 -102q0 -46 -12 -112.5t-25 -126.5l-145 -685h-93l147 690q11 55 21.5 113.5t10.5 105.5q0 54 -28 82t-79 28q-72 0 -124 -48t-91.5 -144t-69.5 -238l-125 -589h-93zM86 -453v31
q27 30 60 83t62.5 111t44.5 103h91v-21q-16 -43 -52 -101.5t-78.5 -114t-78.5 -91.5h-49z" />
    <glyph glyph-name="Ncaron" unicode="&#x147;" horiz-adv-x="984" 
d="M2 0l311 1462h116l226 -1275h4q10 56 21.5 112t21 105t16.5 82l208 976h94l-312 -1462h-111l-228 1293h-4q-5 -35 -12 -74t-15.5 -79t-17 -80.5t-16.5 -78.5l-208 -981h-94zM622 1579q-8 39 -29.5 99.5t-44 119t-41.5 90.5l3 19h47q17 -28 38.5 -63.5t43 -77.5t39.5 -86
q48 60 103.5 119.5t115.5 107.5h47l-2 -19q-36 -36 -82 -91t-89 -113t-70 -105h-79z" />
    <glyph glyph-name="ncaron" unicode="&#x148;" horiz-adv-x="773" 
d="M7 0l229 1085h76l-26 -155h4q27 56 64 95t83 59.5t97 20.5q53 0 93.5 -19.5t63 -59.5t22.5 -102q0 -46 -12 -112.5t-25 -126.5l-145 -685h-93l147 690q11 55 21.5 113.5t10.5 105.5q0 54 -28 82t-79 28q-72 0 -124 -48t-91.5 -144t-69.5 -238l-125 -589h-93zM464 1241
q-8 39 -29.5 99.5t-44 119t-41.5 90.5l3 19h47q17 -28 38.5 -63.5t43 -77.5t39.5 -86q48 60 103.5 119.5t115.5 107.5h47l-2 -19q-36 -36 -82 -91t-89 -113t-70 -105h-79z" />
    <glyph glyph-name="napostrophe" unicode="&#x149;" horiz-adv-x="806" 
d="M40 0l229 1085h76l-26 -155h4q27 56 64 95t83 59.5t97 20.5q53 0 93.5 -19.5t63 -59.5t22.5 -102q0 -46 -12 -112.5t-25 -126.5l-145 -685h-93l147 690q11 55 21.5 113.5t10.5 105.5q0 54 -28 82t-79 28q-72 0 -124 -48t-91.5 -144t-69.5 -238l-125 -589h-93zM56 995
q39 70 76 150t66.5 161.5t48.5 155.5h91l10 -23q-25 -68 -59.5 -146.5t-75.5 -155t-85 -142.5h-72z" />
    <glyph glyph-name="Eng" unicode="&#x14a;" horiz-adv-x="978" 
d="M429 -367q-31 0 -61.5 7.5t-51.5 17.5l23 86q20 -10 44.5 -16t50.5 -6q49 0 81 27t53.5 84t37.5 145l-234 1321h-5q-5 -24 -9.5 -51.5t-10.5 -58t-13.5 -65.5t-15.5 -76l-222 -1048h-94l311 1462h117l226 -1266h5q7 41 15 82t16.5 83t17.5 84l216 1017h94l-316 -1486
q-24 -114 -56.5 -190t-83 -114.5t-135.5 -38.5z" />
    <glyph glyph-name="eng" unicode="&#x14b;" horiz-adv-x="772" 
d="M236 -492q-27 0 -48 3.5t-35 7.5v88q16 -6 35 -9t42 -3q50 0 82 26t56 92.5t49 186.5l168 790q11 55 22 113.5t11 105.5q0 55 -29 82.5t-79 27.5q-71 0 -124 -48.5t-91.5 -143t-69.5 -233.5l-124 -594h-94l229 1085h76l-25 -154h4q26 55 63 94t83 60t97 21q52 0 92.5 -20
t63.5 -60t23 -102q0 -46 -12 -112.5t-24 -125.5l-169 -793q-30 -140 -62 -224.5t-80.5 -122.5t-129.5 -38z" />
    <glyph glyph-name="Omacron" unicode="&#x14c;" horiz-adv-x="949" 
d="M351 -20q-92 0 -154.5 44.5t-94 135.5t-31.5 232q0 101 15 219.5t45 241.5t76 235.5t109 201.5t142.5 141t176.5 52q137 0 207 -93t70 -296q0 -94 -14 -212t-42 -243t-72.5 -242.5t-106.5 -211.5t-143 -149.5t-183 -55.5zM360 67q78 0 142 51.5t114.5 138.5t88 195
t61.5 223.5t36.5 224t12.5 193.5q0 158 -46 230t-142 72q-80 0 -145.5 -52t-116.5 -139.5t-87.5 -195.5t-61 -221t-36 -215.5t-11.5 -178.5q0 -114 21.5 -186t64.5 -106t105 -34zM428 1589l17 79h458l-18 -79h-457z" />
    <glyph glyph-name="omacron" unicode="&#x14d;" horiz-adv-x="772" 
d="M284 -20q-71 0 -122.5 33.5t-79 103t-27.5 175.5q0 78 14 183t45.5 215t82.5 204.5t124.5 153t170.5 58.5q72 0 121.5 -35t76.5 -105t27 -176q0 -96 -16 -206.5t-50 -217.5t-85.5 -194t-122 -139.5t-159.5 -52.5zM293 64q66 0 118.5 49.5t92.5 130.5t66 178t39 193.5
t13 175.5q0 76 -15.5 127.5t-46.5 77.5t-77 26q-70 0 -124 -53.5t-93.5 -139t-65 -185t-38 -193t-12.5 -160.5q0 -113 36 -170t107 -57zM283 1251l17 79h458l-18 -79h-457z" />
    <glyph glyph-name="Obreve" unicode="&#x14e;" horiz-adv-x="949" 
d="M351 -20q-92 0 -154.5 44.5t-94 135.5t-31.5 232q0 101 15 219.5t45 241.5t76 235.5t109 201.5t142.5 141t176.5 52q137 0 207 -93t70 -296q0 -94 -14 -212t-42 -243t-72.5 -242.5t-106.5 -211.5t-143 -149.5t-183 -55.5zM360 67q78 0 142 51.5t114.5 138.5t88 195
t61.5 223.5t36.5 224t12.5 193.5q0 158 -46 230t-142 72q-80 0 -145.5 -52t-116.5 -139.5t-87.5 -195.5t-61 -221t-36 -215.5t-11.5 -178.5q0 -114 21.5 -186t64.5 -106t105 -34zM672 1581q-72 0 -114 25t-60.5 68t-18.5 95q0 15 1 26t2 19h64q0 -49 11.5 -84.5t39.5 -53
t78 -17.5q74 0 113 35t55 120h67q-19 -113 -75 -173t-163 -60z" />
    <glyph glyph-name="obreve" unicode="&#x14f;" horiz-adv-x="772" 
d="M284 -20q-71 0 -122.5 33.5t-79 103t-27.5 175.5q0 78 14 183t45.5 215t82.5 204.5t124.5 153t170.5 58.5q72 0 121.5 -35t76.5 -105t27 -176q0 -96 -16 -206.5t-50 -217.5t-85.5 -194t-122 -139.5t-159.5 -52.5zM293 64q66 0 118.5 49.5t92.5 130.5t66 178t39 193.5
t13 175.5q0 76 -15.5 127.5t-46.5 77.5t-77 26q-70 0 -124 -53.5t-93.5 -139t-65 -185t-38 -193t-12.5 -160.5q0 -113 36 -170t107 -57zM540 1243q-72 0 -114 25t-60.5 68t-18.5 95q0 15 1 26t2 19h64q0 -49 11.5 -84.5t39.5 -53t78 -17.5q74 0 113 35t55 120h67
q-19 -113 -75 -173t-163 -60z" />
    <glyph glyph-name="Ohungarumlaut" unicode="&#x150;" horiz-adv-x="949" 
d="M351 -20q-92 0 -154.5 44.5t-94 135.5t-31.5 232q0 101 15 219.5t45 241.5t76 235.5t109 201.5t142.5 141t176.5 52q137 0 207 -93t70 -296q0 -94 -14 -212t-42 -243t-72.5 -242.5t-106.5 -211.5t-143 -149.5t-183 -55.5zM360 67q78 0 142 51.5t114.5 138.5t88 195
t61.5 223.5t36.5 224t12.5 193.5q0 158 -46 230t-142 72q-80 0 -145.5 -52t-116.5 -139.5t-87.5 -195.5t-61 -221t-36 -215.5t-11.5 -178.5q0 -114 21.5 -186t64.5 -106t105 -34zM736 1579l1 17q50 55 96 111t82.5 108t57.5 92h105l-1 -17q-21 -33 -56 -75t-77 -86.5
t-85 -83.5t-79 -66h-44zM452 1579v17q51 55 96.5 111t82 108t58.5 92h106l-1 -17q-21 -33 -56 -75.5t-77.5 -86t-85.5 -82.5t-80 -67h-43z" />
    <glyph glyph-name="ohungarumlaut" unicode="&#x151;" horiz-adv-x="772" 
d="M284 -20q-71 0 -122.5 33.5t-79 103t-27.5 175.5q0 78 14 183t45.5 215t82.5 204.5t124.5 153t170.5 58.5q72 0 121.5 -35t76.5 -105t27 -176q0 -96 -16 -206.5t-50 -217.5t-85.5 -194t-122 -139.5t-159.5 -52.5zM293 64q66 0 118.5 49.5t92.5 130.5t66 178t39 193.5
t13 175.5q0 76 -15.5 127.5t-46.5 77.5t-77 26q-70 0 -124 -53.5t-93.5 -139t-65 -185t-38 -193t-12.5 -160.5q0 -113 36 -170t107 -57zM632 1241l1 17q50 55 96 111t82.5 108t57.5 92h105l-1 -17q-21 -33 -56 -75t-77 -86.5t-85 -83.5t-79 -66h-44zM348 1241v17
q51 55 96.5 111t82 108t58.5 92h106l-1 -17q-21 -33 -56 -75.5t-77.5 -86t-85.5 -82.5t-80 -67h-43z" />
    <glyph glyph-name="OE" unicode="&#x152;" horiz-adv-x="1098" 
d="M367 -6q-101 0 -166.5 46t-97 134.5t-31.5 216.5q0 119 18.5 262.5t59 286.5t106.5 263t160 193t219 73q33 0 65.5 -3t49.5 -4h453l-17 -87h-392l-120 -564h366l-19 -88h-367l-135 -635h392l-18 -88h-436q-12 -1 -34 -3.5t-56 -2.5zM381 81q15 0 26 1.5t18 3.5l274 1290
q-11 1 -28.5 3t-41.5 2q-94 0 -169 -65.5t-129.5 -174t-90 -239t-53 -262.5t-17.5 -243q0 -106 22.5 -176.5t69.5 -105t119 -34.5z" />
    <glyph glyph-name="oe" unicode="&#x153;" horiz-adv-x="1223" 
d="M281 -20q-105 0 -165.5 77.5t-60.5 248.5q0 71 14 172.5t45 210.5t81.5 204t123.5 154t172 59q101 0 149.5 -71.5t51.5 -211.5q58 130 141 206t176 76q83 0 134 -47.5t51 -151.5q0 -78 -30.5 -150t-92 -128.5t-155.5 -89t-221 -32.5h-14q-8 -44 -12.5 -92.5t-4.5 -100.5
q0 -131 43.5 -191t135.5 -60q52 0 98 15.5t89 41.5v-86q-41 -24 -92.5 -38.5t-115.5 -14.5q-72 0 -122 30.5t-77.5 91.5t-31.5 156q-50 -122 -127 -200t-183 -78zM294 63q66 0 118.5 50t92 131.5t65.5 178.5t39 194.5t13 176.5q0 114 -34.5 170.5t-104.5 56.5t-124 -51.5
t-94 -135t-65.5 -181t-37.5 -189.5t-12 -162q0 -126 37 -182.5t107 -56.5zM695 584h10q144 0 231.5 46t127 118.5t39.5 153.5q0 57 -25 89.5t-79 32.5q-67 0 -128 -61.5t-107 -161.5t-69 -217z" />
    <glyph glyph-name="Racute" unicode="&#x154;" horiz-adv-x="777" 
d="M4 0l309 1462h179q137 0 217.5 -77.5t80.5 -227.5q0 -119 -36 -225t-105 -179t-170 -95l122 -658h-103l-112 640h-152l-136 -640h-94zM254 725h124q85 0 144 37.5t97 99.5t55.5 136.5t17.5 147.5q0 118 -56 174t-165 56h-81zM519 1618l-1 17q50 52 95.5 107t83 108
t60.5 96h111v-17q-22 -32 -58 -74.5t-78.5 -87.5t-84.5 -84.5t-76 -64.5h-52z" />
    <glyph glyph-name="racute" unicode="&#x155;" horiz-adv-x="509" 
d="M8 0l228 1085h74l-30 -181h4q28 64 64.5 109t81 69t98.5 24q22 0 40.5 -4t32.5 -9l-25 -94q-12 6 -28 9t-36 3q-63 0 -111 -40t-82.5 -105t-57.5 -141t-39 -149l-121 -576h-93zM305 1235l-1 17q50 52 95.5 107t83 108t60.5 96h111v-17q-22 -32 -58 -74.5t-78.5 -87.5
t-84.5 -84.5t-76 -64.5h-52z" />
    <glyph glyph-name="uni0156" unicode="&#x156;" horiz-adv-x="777" 
d="M4 0l309 1462h179q137 0 217.5 -77.5t80.5 -227.5q0 -119 -36 -225t-105 -179t-170 -95l122 -658h-103l-112 640h-152l-136 -640h-94zM254 725h124q85 0 144 37.5t97 99.5t55.5 136.5t17.5 147.5q0 118 -56 174t-165 56h-81zM88 -453v31q27 30 60 83t62.5 111t44.5 103
h91v-21q-16 -43 -52 -101.5t-78.5 -114t-78.5 -91.5h-49z" />
    <glyph glyph-name="uni0157" unicode="&#x157;" horiz-adv-x="509" 
d="M8 0l228 1085h74l-30 -181h4q28 64 64.5 109t81 69t98.5 24q22 0 40.5 -4t32.5 -9l-25 -94q-12 6 -28 9t-36 3q-63 0 -111 -40t-82.5 -105t-57.5 -141t-39 -149l-121 -576h-93zM-46 -453v31q27 30 60 83t62.5 111t44.5 103h91v-21q-16 -43 -52 -101.5t-78.5 -114
t-78.5 -91.5h-49z" />
    <glyph glyph-name="Rcaron" unicode="&#x158;" horiz-adv-x="777" 
d="M4 0l309 1462h179q137 0 217.5 -77.5t80.5 -227.5q0 -119 -36 -225t-105 -179t-170 -95l122 -658h-103l-112 640h-152l-136 -640h-94zM254 725h124q85 0 144 37.5t97 99.5t55.5 136.5t17.5 147.5q0 118 -56 174t-165 56h-81zM527 1579q-8 39 -29.5 99.5t-44 119
t-41.5 90.5l3 19h47q17 -28 38.5 -63.5t43 -77.5t39.5 -86q48 60 103.5 119.5t115.5 107.5h47l-2 -19q-36 -36 -82 -91t-89 -113t-70 -105h-79z" />
    <glyph glyph-name="rcaron" unicode="&#x159;" horiz-adv-x="509" 
d="M8 0l228 1085h74l-30 -181h4q28 64 64.5 109t81 69t98.5 24q22 0 40.5 -4t32.5 -9l-25 -94q-12 6 -28 9t-36 3q-63 0 -111 -40t-82.5 -105t-57.5 -141t-39 -149l-121 -576h-93zM393 1241q-8 39 -29.5 99.5t-44 119t-41.5 90.5l3 19h47q17 -28 38.5 -63.5t43 -77.5
t39.5 -86q48 60 103.5 119.5t115.5 107.5h47l-2 -19q-36 -36 -82 -91t-89 -113t-70 -105h-79z" />
    <glyph glyph-name="Sacute" unicode="&#x15a;" horiz-adv-x="725" 
d="M203 -20q-83 0 -148.5 16.5t-108.5 41.5l8 101q48 -29 112 -49t141 -20q67 0 121 20.5t92 61t58.5 99t20.5 133.5q0 61 -16 110t-52 100.5t-97 117.5q-53 60 -93 114.5t-62 117.5t-22 146q0 95 28 168t79 123t120 76t153 26q76 0 143 -21t107 -48l-48 -87
q-39 26 -91.5 46t-118.5 20q-59 0 -109 -19t-87 -56.5t-57 -92t-20 -125.5q0 -67 19 -120.5t58 -106t99 -118.5q52 -55 89 -110.5t57.5 -117.5t20.5 -136q0 -95 -27.5 -170.5t-78.5 -129.5t-124 -82.5t-166 -28.5zM493 1618l-1 17q50 52 95.5 107t83 108t60.5 96h111v-17
q-22 -32 -58 -74.5t-78.5 -87.5t-84.5 -84.5t-76 -64.5h-52z" />
    <glyph glyph-name="sacute" unicode="&#x15b;" horiz-adv-x="593" 
d="M175 -20q-68 0 -122 14.5t-82 32.5v101q32 -25 85.5 -44t111.5 -19q69 0 113 25.5t66.5 74.5t22.5 120q0 46 -12.5 83t-40 76t-71.5 90q-37 43 -67 85.5t-46.5 92t-16.5 110.5q0 80 33.5 144t96.5 102t151 38q74 0 128 -19t90 -44l-46 -78q-31 24 -74 41t-99 17
q-86 0 -136 -52t-50 -138q0 -43 11 -80.5t34.5 -74t61.5 -79.5q49 -57 82.5 -102t50 -92t16.5 -114q0 -98 -34.5 -168t-100 -106.5t-156.5 -36.5zM345 1235l-1 17q50 52 95.5 107t83 108t60.5 96h111v-17q-22 -32 -58 -74.5t-78.5 -87.5t-84.5 -84.5t-76 -64.5h-52z" />
    <glyph glyph-name="Scircumflex" unicode="&#x15c;" horiz-adv-x="725" 
d="M203 -20q-83 0 -148.5 16.5t-108.5 41.5l8 101q48 -29 112 -49t141 -20q67 0 121 20.5t92 61t58.5 99t20.5 133.5q0 61 -16 110t-52 100.5t-97 117.5q-53 60 -93 114.5t-62 117.5t-22 146q0 95 28 168t79 123t120 76t153 26q76 0 143 -21t107 -48l-48 -87
q-39 26 -91.5 46t-118.5 20q-59 0 -109 -19t-87 -56.5t-57 -92t-20 -125.5q0 -67 19 -120.5t58 -106t99 -118.5q52 -55 89 -110.5t57.5 -117.5t20.5 -136q0 -95 -27.5 -170.5t-78.5 -129.5t-124 -82.5t-166 -28.5zM321 1579l2 17q42 45 86 97.5t85 107.5t70 106h79
q10 -40 30 -100t44 -118.5t40 -92.5l-3 -17h-46q-19 29 -41 66t-42 78t-38 83q-48 -60 -103.5 -119t-115.5 -108h-47z" />
    <glyph glyph-name="scircumflex" unicode="&#x15d;" horiz-adv-x="593" 
d="M175 -20q-68 0 -122 14.5t-82 32.5v101q32 -25 85.5 -44t111.5 -19q69 0 113 25.5t66.5 74.5t22.5 120q0 46 -12.5 83t-40 76t-71.5 90q-37 43 -67 85.5t-46.5 92t-16.5 110.5q0 80 33.5 144t96.5 102t151 38q74 0 128 -19t90 -44l-46 -78q-31 24 -74 41t-99 17
q-86 0 -136 -52t-50 -138q0 -43 11 -80.5t34.5 -74t61.5 -79.5q49 -57 82.5 -102t50 -92t16.5 -114q0 -98 -34.5 -168t-100 -106.5t-156.5 -36.5zM201 1241l2 17q42 45 86 97.5t85 107.5t70 106h79q10 -40 30 -100t44 -118.5t40 -92.5l-3 -17h-46q-19 29 -41 66t-42 78
t-38 83q-48 -60 -103.5 -119t-115.5 -108h-47z" />
    <glyph glyph-name="Scedilla" unicode="&#x15e;" horiz-adv-x="725" 
d="M203 -20q-83 0 -148.5 16.5t-108.5 41.5l8 101q48 -29 112 -49t141 -20q67 0 121 20.5t92 61t58.5 99t20.5 133.5q0 61 -16 110t-52 100.5t-97 117.5q-53 60 -93 114.5t-62 117.5t-22 146q0 95 28 168t79 123t120 76t153 26q76 0 143 -21t107 -48l-48 -87
q-39 26 -91.5 46t-118.5 20q-59 0 -109 -19t-87 -56.5t-57 -92t-20 -125.5q0 -67 19 -120.5t58 -106t99 -118.5q52 -55 89 -110.5t57.5 -117.5t20.5 -136q0 -95 -27.5 -170.5t-78.5 -129.5t-124 -82.5t-166 -28.5zM56 -492q-41 0 -69 5t-53 10v71q16 -7 45 -11.5t73 -4.5
q51 0 88.5 19t58.5 50.5t21 71.5q0 55 -42 82.5t-119 35.5l112 163h70l-86 -122q66 -13 106 -50.5t40 -102.5q0 -64 -32 -113t-87 -76.5t-126 -27.5z" />
    <glyph glyph-name="scedilla" unicode="&#x15f;" horiz-adv-x="593" 
d="M175 -20q-68 0 -122 14.5t-82 32.5v101q32 -25 85.5 -44t111.5 -19q69 0 113 25.5t66.5 74.5t22.5 120q0 46 -12.5 83t-40 76t-71.5 90q-37 43 -67 85.5t-46.5 92t-16.5 110.5q0 80 33.5 144t96.5 102t151 38q74 0 128 -19t90 -44l-46 -78q-31 24 -74 41t-99 17
q-86 0 -136 -52t-50 -138q0 -43 11 -80.5t34.5 -74t61.5 -79.5q49 -57 82.5 -102t50 -92t16.5 -114q0 -98 -34.5 -168t-100 -106.5t-156.5 -36.5zM2 -492q-41 0 -69 5t-53 10v71q16 -7 45 -11.5t73 -4.5q51 0 88.5 19t58.5 50.5t21 71.5q0 55 -42 82.5t-119 35.5l112 163h70
l-86 -122q66 -13 106 -50.5t40 -102.5q0 -64 -32 -113t-87 -76.5t-126 -27.5z" />
    <glyph glyph-name="Scaron" unicode="&#x160;" horiz-adv-x="725" 
d="M203 -20q-83 0 -148.5 16.5t-108.5 41.5l8 101q48 -29 112 -49t141 -20q67 0 121 20.5t92 61t58.5 99t20.5 133.5q0 61 -16 110t-52 100.5t-97 117.5q-53 60 -93 114.5t-62 117.5t-22 146q0 95 28 168t79 123t120 76t153 26q76 0 143 -21t107 -48l-48 -87
q-39 26 -91.5 46t-118.5 20q-59 0 -109 -19t-87 -56.5t-57 -92t-20 -125.5q0 -67 19 -120.5t58 -106t99 -118.5q52 -55 89 -110.5t57.5 -117.5t20.5 -136q0 -95 -27.5 -170.5t-78.5 -129.5t-124 -82.5t-166 -28.5zM523 1579q-8 39 -29.5 99.5t-44 119t-41.5 90.5l3 19h47
q17 -28 38.5 -63.5t43 -77.5t39.5 -86q48 60 103.5 119.5t115.5 107.5h47l-2 -19q-36 -36 -82 -91t-89 -113t-70 -105h-79z" />
    <glyph glyph-name="scaron" unicode="&#x161;" horiz-adv-x="593" 
d="M175 -20q-68 0 -122 14.5t-82 32.5v101q32 -25 85.5 -44t111.5 -19q69 0 113 25.5t66.5 74.5t22.5 120q0 46 -12.5 83t-40 76t-71.5 90q-37 43 -67 85.5t-46.5 92t-16.5 110.5q0 80 33.5 144t96.5 102t151 38q74 0 128 -19t90 -44l-46 -78q-31 24 -74 41t-99 17
q-86 0 -136 -52t-50 -138q0 -43 11 -80.5t34.5 -74t61.5 -79.5q49 -57 82.5 -102t50 -92t16.5 -114q0 -98 -34.5 -168t-100 -106.5t-156.5 -36.5zM392 1241q-8 39 -29.5 99.5t-44 119t-41.5 90.5l3 19h47q17 -28 38.5 -63.5t43 -77.5t39.5 -86q48 60 103.5 119.5
t115.5 107.5h47l-2 -19q-36 -36 -82 -91t-89 -113t-70 -105h-79z" />
    <glyph glyph-name="uni0162" unicode="&#x162;" horiz-adv-x="641" 
d="M133 0l294 1374h-258l19 88h611l-19 -88h-259l-292 -1374h-96zM19 -492q-41 0 -69 5t-53 10v71q16 -7 45 -11.5t73 -4.5q51 0 88.5 19t58.5 50.5t21 71.5q0 55 -42 82.5t-119 35.5l112 163h70l-86 -122q66 -13 106 -50.5t40 -102.5q0 -64 -32 -113t-87 -76.5t-126 -27.5z
" />
    <glyph glyph-name="uni0163" unicode="&#x163;" horiz-adv-x="415" 
d="M172 -20q-66 0 -100 39t-34 111q0 30 6 73t16 90l152 709h-97l14 64l102 20l75 257h70l-54 -258h141l-18 -83h-141l-152 -715q-9 -46 -15.5 -82.5t-6.5 -60.5q0 -39 16 -59t54 -20q22 0 42.5 4t36.5 10v-79q-23 -9 -50.5 -14.5t-56.5 -5.5zM22 -492q-41 0 -69 5t-53 10
v71q16 -7 45 -11.5t73 -4.5q51 0 88.5 19t58.5 50.5t21 71.5q0 55 -42 82.5t-119 35.5l112 163h70l-86 -122q66 -13 106 -50.5t40 -102.5q0 -64 -32 -113t-87 -76.5t-126 -27.5z" />
    <glyph glyph-name="Tcaron" unicode="&#x164;" horiz-adv-x="641" 
d="M133 0l294 1374h-258l19 88h611l-19 -88h-259l-292 -1374h-96zM458 1579q-8 39 -29.5 99.5t-44 119t-41.5 90.5l3 19h47q17 -28 38.5 -63.5t43 -77.5t39.5 -86q48 60 103.5 119.5t115.5 107.5h47l-2 -19q-36 -36 -82 -91t-89 -113t-70 -105h-79z" />
    <glyph glyph-name="tcaron" unicode="&#x165;" horiz-adv-x="399" 
d="M172 -20q-66 0 -100 39t-34 111q0 30 6 73t16 90l152 709h-97l14 64l102 20l75 257h70l-54 -258h141l-18 -83h-141l-152 -715q-9 -46 -15.5 -82.5t-6.5 -60.5q0 -39 16 -59t54 -20q22 0 42.5 4t36.5 10v-79q-23 -9 -50.5 -14.5t-56.5 -5.5zM436 1211v16q27 51 51.5 106
t44 108t30.5 97h94l-2 -20q-13 -40 -41 -96t-60.5 -113t-63.5 -98h-53z" />
    <glyph glyph-name="Tbar" unicode="&#x166;" horiz-adv-x="634" 
d="M133 0l154 721h-196l15 80h199l122 573h-257l18 88h611l-19 -88h-259l-122 -573h203l-15 -80h-205l-153 -721h-96z" />
    <glyph glyph-name="tbar" unicode="&#x167;" horiz-adv-x="399" 
d="M172 -20q-66 0 -100.5 39t-34.5 110q0 30 6 72t16 89l63 289h-108l16 79h108l74 344h-97l14 64l102 20l75 257h70l-54 -258h141l-18 -83h-142l-74 -344h166l-16 -79h-165l-63 -292q-9 -46 -15 -81.5t-6 -59.5q0 -40 17 -60.5t55 -20.5q21 0 40.5 4t36.5 10v-79
q-23 -9 -50.5 -14.5t-56.5 -5.5z" />
    <glyph glyph-name="Utilde" unicode="&#x168;" horiz-adv-x="904" 
d="M332 -20q-80 0 -140 32t-94 94.5t-34 152.5q0 37 6.5 83.5t16.5 96.5l218 1023h94l-218 -1025q-9 -48 -14 -91t-5 -78q0 -100 49 -150.5t130 -50.5q88 0 142.5 45.5t90 134.5t64.5 220l217 995h94l-218 -1003q-31 -146 -77.5 -254t-123 -166.5t-198.5 -58.5zM382 1587
q13 70 36.5 117.5t58.5 72t83 24.5q41 0 70.5 -19.5t54 -45t47.5 -45t52 -19.5q37 0 60 29t37 101h69q-12 -74 -35.5 -121.5t-57.5 -69.5t-77 -22q-42 0 -71 19.5t-53 45.5t-47.5 46t-53.5 20q-44 0 -67 -34.5t-36 -98.5h-70z" />
    <glyph glyph-name="utilde" unicode="&#x169;" horiz-adv-x="776" 
d="M231 -20q-55 0 -95.5 21t-62 61.5t-21.5 100.5q0 43 11.5 107.5t22.5 121.5l148 693h93l-148 -698q-12 -55 -22.5 -108.5t-10.5 -100.5q0 -56 29 -84t80 -28q71 0 124 48.5t92.5 144.5t68.5 238l125 588h93l-229 -1085h-75l23 152h-5q-26 -54 -63 -92.5t-82 -59
t-96 -20.5zM273 1249q13 70 36.5 117.5t58.5 72t83 24.5q41 0 70.5 -19.5t54 -45t47.5 -45t52 -19.5q37 0 60 29t37 101h69q-12 -74 -35.5 -121.5t-57.5 -69.5t-77 -22q-42 0 -71 19.5t-53 45.5t-47.5 46t-53.5 20q-44 0 -67 -34.5t-36 -98.5h-70z" />
    <glyph glyph-name="Umacron" unicode="&#x16a;" horiz-adv-x="904" 
d="M332 -20q-80 0 -140 32t-94 94.5t-34 152.5q0 37 6.5 83.5t16.5 96.5l218 1023h94l-218 -1025q-9 -48 -14 -91t-5 -78q0 -100 49 -150.5t130 -50.5q88 0 142.5 45.5t90 134.5t64.5 220l217 995h94l-218 -1003q-31 -146 -77.5 -254t-123 -166.5t-198.5 -58.5zM413 1589
l17 79h458l-18 -79h-457z" />
    <glyph glyph-name="umacron" unicode="&#x16b;" horiz-adv-x="776" 
d="M231 -20q-55 0 -95.5 21t-62 61.5t-21.5 100.5q0 43 11.5 107.5t22.5 121.5l148 693h93l-148 -698q-12 -55 -22.5 -108.5t-10.5 -100.5q0 -56 29 -84t80 -28q71 0 124 48.5t92.5 144.5t68.5 238l125 588h93l-229 -1085h-75l23 152h-5q-26 -54 -63 -92.5t-82 -59
t-96 -20.5zM292 1251l17 79h458l-18 -79h-457z" />
    <glyph glyph-name="Ubreve" unicode="&#x16c;" horiz-adv-x="904" 
d="M332 -20q-80 0 -140 32t-94 94.5t-34 152.5q0 37 6.5 83.5t16.5 96.5l218 1023h94l-218 -1025q-9 -48 -14 -91t-5 -78q0 -100 49 -150.5t130 -50.5q88 0 142.5 45.5t90 134.5t64.5 220l217 995h94l-218 -1003q-31 -146 -77.5 -254t-123 -166.5t-198.5 -58.5zM642 1581
q-72 0 -114 25t-60.5 68t-18.5 95q0 15 1 26t2 19h64q0 -49 11.5 -84.5t39.5 -53t78 -17.5q74 0 113 35t55 120h67q-19 -113 -75 -173t-163 -60z" />
    <glyph glyph-name="ubreve" unicode="&#x16d;" horiz-adv-x="776" 
d="M231 -20q-55 0 -95.5 21t-62 61.5t-21.5 100.5q0 43 11.5 107.5t22.5 121.5l148 693h93l-148 -698q-12 -55 -22.5 -108.5t-10.5 -100.5q0 -56 29 -84t80 -28q71 0 124 48.5t92.5 144.5t68.5 238l125 588h93l-229 -1085h-75l23 152h-5q-26 -54 -63 -92.5t-82 -59
t-96 -20.5zM528 1243q-72 0 -114 25t-60.5 68t-18.5 95q0 15 1 26t2 19h64q0 -49 11.5 -84.5t39.5 -53t78 -17.5q74 0 113 35t55 120h67q-19 -113 -75 -173t-163 -60z" />
    <glyph glyph-name="Uring" unicode="&#x16e;" horiz-adv-x="904" 
d="M332 -20q-80 0 -140 32t-94 94.5t-34 152.5q0 37 6.5 83.5t16.5 96.5l218 1023h94l-218 -1025q-9 -48 -14 -91t-5 -78q0 -100 49 -150.5t130 -50.5q88 0 142.5 45.5t90 134.5t64.5 220l217 995h94l-218 -1003q-31 -146 -77.5 -254t-123 -166.5t-198.5 -58.5zM670 1589
q-87 0 -137 50.5t-50 136.5q0 81 50 134t137 53q91 0 139.5 -53.5t48.5 -131.5q0 -81 -50 -135t-138 -54zM671 1654q56 0 88.5 33.5t32.5 88.5q0 53 -31 87t-90 34q-57 0 -88.5 -34.5t-31.5 -86.5q0 -55 31 -88.5t89 -33.5z" />
    <glyph glyph-name="uring" unicode="&#x16f;" horiz-adv-x="776" 
d="M231 -20q-55 0 -95.5 21t-62 61.5t-21.5 100.5q0 43 11.5 107.5t22.5 121.5l148 693h93l-148 -698q-12 -55 -22.5 -108.5t-10.5 -100.5q0 -56 29 -84t80 -28q71 0 124 48.5t92.5 144.5t68.5 238l125 588h93l-229 -1085h-75l23 152h-5q-26 -54 -63 -92.5t-82 -59
t-96 -20.5zM544 1251q-87 0 -137 50.5t-50 136.5q0 81 50 134t137 53q91 0 139.5 -53.5t48.5 -131.5q0 -81 -50 -135t-138 -54zM545 1316q56 0 88.5 33.5t32.5 88.5q0 53 -31 87t-90 34q-57 0 -88.5 -34.5t-31.5 -86.5q0 -55 31 -88.5t89 -33.5z" />
    <glyph glyph-name="Uhungarumlaut" unicode="&#x170;" horiz-adv-x="904" 
d="M332 -20q-80 0 -140 32t-94 94.5t-34 152.5q0 37 6.5 83.5t16.5 96.5l218 1023h94l-218 -1025q-9 -48 -14 -91t-5 -78q0 -100 49 -150.5t130 -50.5q88 0 142.5 45.5t90 134.5t64.5 220l217 995h94l-218 -1003q-31 -146 -77.5 -254t-123 -166.5t-198.5 -58.5zM739 1579
l1 17q50 55 96 111t82.5 108t57.5 92h105l-1 -17q-21 -33 -56 -75t-77 -86.5t-85 -83.5t-79 -66h-44zM455 1579v17q51 55 96.5 111t82 108t58.5 92h106l-1 -17q-21 -33 -56 -75.5t-77.5 -86t-85.5 -82.5t-80 -67h-43z" />
    <glyph glyph-name="uhungarumlaut" unicode="&#x171;" horiz-adv-x="776" 
d="M231 -20q-55 0 -95.5 21t-62 61.5t-21.5 100.5q0 43 11.5 107.5t22.5 121.5l148 693h93l-148 -698q-12 -55 -22.5 -108.5t-10.5 -100.5q0 -56 29 -84t80 -28q71 0 124 48.5t92.5 144.5t68.5 238l125 588h93l-229 -1085h-75l23 152h-5q-26 -54 -63 -92.5t-82 -59
t-96 -20.5zM618 1241l1 17q50 55 96 111t82.5 108t57.5 92h105l-1 -17q-21 -33 -56 -75t-77 -86.5t-85 -83.5t-79 -66h-44zM334 1241v17q51 55 96.5 111t82 108t58.5 92h106l-1 -17q-21 -33 -56 -75.5t-77.5 -86t-85.5 -82.5t-80 -67h-43z" />
    <glyph glyph-name="Uogonek" unicode="&#x172;" horiz-adv-x="904" 
d="M332 -20q-80 0 -140 32t-94 94.5t-34 152.5q0 37 6.5 83.5t16.5 96.5l218 1023h94l-218 -1025q-9 -48 -14 -91t-5 -78q0 -100 49 -150.5t130 -50.5q88 0 142.5 45.5t90 134.5t64.5 220l217 995h94l-218 -1003q-31 -146 -77.5 -254t-123 -166.5t-198.5 -58.5zM294 -447
q-70 0 -107.5 39t-37.5 99q0 53 19.5 101.5t65.5 99t124 108.5h74q-72 -60 -115 -108t-61.5 -91.5t-17.5 -89.5q0 -40 21 -61.5t62 -21.5q18 0 38 4.5t37 8.5l-14 -72q-18 -6 -39 -11t-49 -5z" />
    <glyph glyph-name="uogonek" unicode="&#x173;" horiz-adv-x="776" 
d="M231 -20q-55 0 -95.5 21t-62 61.5t-21.5 100.5q0 43 11.5 107.5t22.5 121.5l148 693h93l-148 -698q-12 -55 -22.5 -108.5t-10.5 -100.5q0 -56 29 -84t80 -28q71 0 124 48.5t92.5 144.5t68.5 238l125 588h93l-229 -1085h-75l23 152h-5q-26 -54 -63 -92.5t-82 -59
t-96 -20.5zM393 -447q-70 0 -107.5 39t-37.5 99q0 53 19.5 101.5t65.5 99t124 108.5h74q-72 -60 -115 -108t-61.5 -91.5t-17.5 -89.5q0 -40 21 -61.5t62 -21.5q18 0 38 4.5t37 8.5l-14 -72q-18 -6 -39 -11t-49 -5z" />
    <glyph glyph-name="Wcircumflex" unicode="&#x174;" horiz-adv-x="1267" 
d="M148 0l26 1462h93l-21 -1077q-2 -81 -4.5 -141t-4.5 -103h4q23 66 48 133.5t48 124.5l418 1063h90l-36 -1028q-2 -86 -5.5 -156.5t-7.5 -143.5h4q18 50 35 97t37 97.5t43 111.5l405 1022h100l-586 -1462h-122l37 1066q2 32 3.5 64t3.5 65t4 68h-4q-15 -45 -31 -91.5
t-34 -88.5l-422 -1083h-121zM572 1579l2 17q42 45 86 97.5t85 107.5t70 106h79q10 -40 30 -100t44 -118.5t40 -92.5l-3 -17h-46q-19 29 -41 66t-42 78t-38 83q-48 -60 -103.5 -119t-115.5 -108h-47z" />
    <glyph glyph-name="wcircumflex" unicode="&#x175;" horiz-adv-x="1006" 
d="M116 -1l13 1086h88l-11 -707q0 -61 -2 -116.5t-5 -108.5h4q9 31 23.5 70t30.5 79t29 73l287 710h101l-16 -706q-1 -46 -4.5 -110.5t-7.5 -119.5h4q13 37 26.5 74t28 76.5t30.5 80.5l272 705h93l-429 -1086h-103l19 756q0 29 1 60.5t3 65t5 65.5h-4q-9 -29 -19.5 -58
t-21.5 -58t-23 -59l-309 -772h-103zM407 1241l2 17q42 45 86 97.5t85 107.5t70 106h79q10 -40 30 -100t44 -118.5t40 -92.5l-3 -17h-46q-19 29 -41 66t-42 78t-38 83q-48 -60 -103.5 -119t-115.5 -108h-47z" />
    <glyph glyph-name="Ycircumflex" unicode="&#x176;" horiz-adv-x="644" 
d="M137 0l119 567l-86 895h98l62 -759l384 759h103l-465 -894l-121 -568h-94zM286 1579l2 17q42 45 86 97.5t85 107.5t70 106h79q10 -40 30 -100t44 -118.5t40 -92.5l-3 -17h-46q-19 29 -41 66t-42 78t-38 83q-48 -60 -103.5 -119t-115.5 -108h-47z" />
    <glyph glyph-name="ycircumflex" unicode="&#x177;" horiz-adv-x="637" 
d="M-125 -496q-32 0 -55.5 6.5t-39.5 14.5l16 85q16 -9 35.5 -14.5t44.5 -5.5q64 0 106 46t87 148l102 235l-18 1066h92l5 -721q-1 -29 -1 -63t-0.5 -69.5t-3.5 -68.5h5q13 35 27 70t27.5 67.5t24.5 57.5l316 727h97l-586 -1326q-38 -85 -77.5 -142t-87.5 -85t-116 -28z
M233 1241l2 17q42 45 86 97.5t85 107.5t70 106h79q10 -40 30 -100t44 -118.5t40 -92.5l-3 -17h-46q-19 29 -41 66t-42 78t-38 83q-48 -60 -103.5 -119t-115.5 -108h-47z" />
    <glyph glyph-name="Ydieresis" unicode="&#x178;" horiz-adv-x="644" 
d="M137 0l119 567l-86 895h98l62 -759l384 759h103l-465 -894l-121 -568h-94zM646 1651q-23 0 -36.5 14t-13.5 44q0 35 20 69t55 34q22 0 34.5 -14.5t12.5 -41.5q0 -38 -19 -71.5t-53 -33.5zM369 1651q-22 0 -35.5 14t-13.5 44q0 35 20 69t54 34q15 0 25.5 -6t16.5 -18.5
t6 -31.5q0 -38 -19.5 -71.5t-53.5 -33.5z" />
    <glyph glyph-name="Zacute" unicode="&#x179;" horiz-adv-x="648" 
d="M-85 0l16 78l714 1295h-419l19 89h526l-17 -80l-714 -1294h452l-18 -88h-559zM454 1618l-1 17q50 52 95.5 107t83 108t60.5 96h111v-17q-22 -32 -58 -74.5t-78.5 -87.5t-84.5 -84.5t-76 -64.5h-52z" />
    <glyph glyph-name="zacute" unicode="&#x17a;" horiz-adv-x="512" 
d="M-70 0l15 71l513 932h-289l16 82h391l-16 -73l-511 -928h322l-18 -84h-423zM304 1235l-1 17q50 52 95.5 107t83 108t60.5 96h111v-17q-22 -32 -58 -74.5t-78.5 -87.5t-84.5 -84.5t-76 -64.5h-52z" />
    <glyph glyph-name="Zdotaccent" unicode="&#x17b;" horiz-adv-x="648" 
d="M-85 0l16 78l714 1295h-419l19 89h526l-17 -80l-714 -1294h452l-18 -88h-559zM522 1642q-26 0 -39.5 16.5t-13.5 45.5q0 39 20.5 75t59.5 36q18 0 29.5 -6.5t17.5 -20.5t6 -35q0 -38 -20 -74.5t-60 -36.5z" />
    <glyph glyph-name="zdotaccent" unicode="&#x17c;" horiz-adv-x="512" 
d="M-70 0l15 71l513 932h-289l16 82h391l-16 -73l-511 -928h322l-18 -84h-423zM423 1304q-26 0 -39.5 16.5t-13.5 45.5q0 39 20.5 75t59.5 36q18 0 29.5 -6.5t17.5 -20.5t6 -35q0 -38 -20 -74.5t-60 -36.5z" />
    <glyph glyph-name="Zcaron" unicode="&#x17d;" horiz-adv-x="648" 
d="M-85 0l16 78l714 1295h-419l19 89h526l-17 -80l-714 -1294h452l-18 -88h-559zM483 1579q-8 39 -29.5 99.5t-44 119t-41.5 90.5l3 19h47q17 -28 38.5 -63.5t43 -77.5t39.5 -86q48 60 103.5 119.5t115.5 107.5h47l-2 -19q-36 -36 -82 -91t-89 -113t-70 -105h-79z" />
    <glyph glyph-name="zcaron" unicode="&#x17e;" horiz-adv-x="512" 
d="M-70 0l15 71l513 932h-289l16 82h391l-16 -73l-511 -928h322l-18 -84h-423zM364 1241q-8 39 -29.5 99.5t-44 119t-41.5 90.5l3 19h47q17 -28 38.5 -63.5t43 -77.5t39.5 -86q48 60 103.5 119.5t115.5 107.5h47l-2 -19q-36 -36 -82 -91t-89 -113t-70 -105h-79z" />
    <glyph glyph-name="longs" unicode="&#x17f;" horiz-adv-x="339" 
d="M-198 -492q-29 0 -50.5 4t-37.5 10v85q17 -6 36 -9t46 -3q76 0 107.5 62t53.5 167l309 1444q22 93 50 160.5t75.5 103t122.5 35.5q29 0 61 -7.5t54 -18.5l-36 -79q-17 10 -38.5 15t-43.5 5q-48 0 -76.5 -29.5t-46.5 -83t-33 -122.5l-306 -1430q-20 -86 -46.5 -156.5
t-73.5 -111.5t-127 -41z" />
    <glyph glyph-name="florin" unicode="&#x192;" horiz-adv-x="734" 
d="M-2 -490q-32 0 -54 5t-39 11v84q21 -7 43 -11.5t46 -4.5q73 0 104.5 59t55.5 169l220 1024h-153l12 57l158 27l56 252q23 106 53.5 172t77.5 96.5t117 30.5q31 0 62.5 -9t56.5 -20l-37 -79q-21 11 -43 16.5t-45 5.5q-66 0 -98.5 -58.5t-56.5 -169.5l-49 -239h174l-18 -82
h-174l-222 -1028q-20 -95 -48.5 -164.5t-75.5 -106.5t-123 -37z" />
    <glyph glyph-name="Ohorn" unicode="&#x1a0;" horiz-adv-x="954" 
d="M351 -20q-92 0 -154.5 44.5t-94 135.5t-31.5 232q0 101 15 220t45 242t76.5 235.5t109.5 201.5t142 140.5t176 51.5q102 0 167.5 -54t91.5 -170q75 23 120 93t68 204h79l8 -17q-28 -151 -89.5 -237t-171.5 -116q2 -21 3 -44t1 -48q0 -101 -15 -222.5t-44.5 -246.5
t-75 -240.5t-107.5 -206.5t-141.5 -144.5t-177.5 -53.5zM360 67q78 0 142 52t114.5 139t87.5 195t61.5 223.5t37 223.5t12.5 193q0 158 -46 230t-142 72q-78 0 -142 -50.5t-115 -135.5t-88.5 -191.5t-62.5 -219t-37.5 -217.5t-12.5 -188q0 -114 21.5 -186t64.5 -106t105 -34
z" />
    <glyph glyph-name="ohorn" unicode="&#x1a1;" horiz-adv-x="785" 
d="M281 -20q-72 0 -123 34t-78.5 103.5t-27.5 174.5q0 86 15 193.5t48 216t84.5 200t124 148t165.5 56.5q75 0 126.5 -39.5t75.5 -120.5q48 15 81.5 51.5t57 97.5t39.5 149h77l8 -18q-18 -99 -49.5 -170t-79.5 -115.5t-118 -62.5q3 -23 4.5 -45t1.5 -43q0 -98 -16.5 -208.5
t-51 -217.5t-86.5 -193.5t-121.5 -138.5t-156.5 -52zM289 63q67 0 119.5 50.5t92 132t65.5 179.5t39 195t13 174q0 76 -15.5 127t-46.5 75.5t-77 24.5q-69 0 -122.5 -53.5t-93 -139t-65.5 -185t-39 -193.5t-13 -162q0 -113 36.5 -169t106.5 -56z" />
    <glyph glyph-name="Uhorn" unicode="&#x1af;" horiz-adv-x="936" 
d="M332 -20q-80 0 -140 32t-94 94.5t-34 152.5q0 37 6.5 83.5t16.5 96.5l218 1023h94l-218 -1026q-9 -47 -14 -90.5t-5 -77.5q0 -100 49 -150.5t130 -50.5q88 0 142.5 45.5t90 134.5t64.5 219l217 996h94l-46 -213q54 13 93 48t65.5 99.5t43.5 159.5h78l8 -17
q-15 -83 -40 -147.5t-62 -109t-87 -71t-115 -35.5l-156 -717q-31 -146 -77.5 -254t-123 -166.5t-198.5 -58.5z" />
    <glyph glyph-name="uhorn" unicode="&#x1b0;" horiz-adv-x="810" 
d="M227 -20q-54 0 -94 21t-61 61.5t-21 100.5q0 45 11.5 109t22.5 122l148 691h92l-149 -698q-11 -55 -21.5 -108.5t-10.5 -97.5q0 -57 29.5 -85.5t79.5 -28.5q70 0 123 48t93 144t68 238l126 588h93l-32 -146q53 10 91 46t63.5 100t42.5 159h78l8 -18q-14 -82 -38.5 -145
t-60.5 -108.5t-85 -72.5t-113 -35l-184 -865h-74l22 152h-4q-26 -54 -63.5 -92.5t-82 -59t-97.5 -20.5z" />
    <glyph glyph-name="uni01EA" unicode="&#x1ea;" horiz-adv-x="949" 
d="M351 -20q-92 0 -154.5 44.5t-94 135.5t-31.5 232q0 101 15 219.5t45 241.5t76 235.5t109 201.5t142.5 141t176.5 52q137 0 207 -93t70 -296q0 -94 -14 -212t-42 -243t-72.5 -242.5t-106.5 -211.5t-143 -149.5t-183 -55.5zM360 67q78 0 142 51.5t114.5 138.5t88 195
t61.5 223.5t36.5 224t12.5 193.5q0 158 -46 230t-142 72q-80 0 -145.5 -52t-116.5 -139.5t-87.5 -195.5t-61 -221t-36 -215.5t-11.5 -178.5q0 -114 21.5 -186t64.5 -106t105 -34zM303 -447q-70 0 -107.5 39t-37.5 99q0 53 19.5 101.5t65.5 99t124 108.5h74
q-72 -60 -115 -108t-61.5 -91.5t-17.5 -89.5q0 -40 21 -61.5t62 -21.5q18 0 38 4.5t37 8.5l-14 -72q-18 -6 -39 -11t-49 -5z" />
    <glyph glyph-name="uni01EB" unicode="&#x1eb;" horiz-adv-x="772" 
d="M284 -20q-71 0 -122.5 33.5t-79 103t-27.5 175.5q0 78 14 183t45.5 215t82.5 204.5t124.5 153t170.5 58.5q72 0 121.5 -35t76.5 -105t27 -176q0 -96 -16 -206.5t-50 -217.5t-85.5 -194t-122 -139.5t-159.5 -52.5zM293 64q66 0 118.5 49.5t92.5 130.5t66 178t39 193.5
t13 175.5q0 76 -15.5 127.5t-46.5 77.5t-77 26q-70 0 -124 -53.5t-93.5 -139t-65 -185t-38 -193t-12.5 -160.5q0 -113 36 -170t107 -57zM220 -447q-70 0 -107.5 39t-37.5 99q0 53 19.5 101.5t65.5 99t124 108.5h74q-72 -60 -115 -108t-61.5 -91.5t-17.5 -89.5
q0 -40 21 -61.5t62 -21.5q18 0 38 4.5t37 8.5l-14 -72q-18 -6 -39 -11t-49 -5z" />
    <glyph glyph-name="uni01EC" unicode="&#x1ec;" horiz-adv-x="949" 
d="M351 -20q-92 0 -154.5 44.5t-94 135.5t-31.5 232q0 101 15 219.5t45 241.5t76 235.5t109 201.5t142.5 141t176.5 52q137 0 207 -93t70 -296q0 -94 -14 -212t-42 -243t-72.5 -242.5t-106.5 -211.5t-143 -149.5t-183 -55.5zM360 67q78 0 142 51.5t114.5 138.5t88 195
t61.5 223.5t36.5 224t12.5 193.5q0 158 -46 230t-142 72q-80 0 -145.5 -52t-116.5 -139.5t-87.5 -195.5t-61 -221t-36 -215.5t-11.5 -178.5q0 -114 21.5 -186t64.5 -106t105 -34zM438 1616l17 79h458l-18 -79h-457zM303 -447q-70 0 -107.5 39t-37.5 99q0 53 19.5 101.5
t65.5 99t124 108.5h74q-72 -60 -115 -108t-61.5 -91.5t-17.5 -89.5q0 -40 21 -61.5t62 -21.5q18 0 38 4.5t37 8.5l-14 -72q-18 -6 -39 -11t-49 -5z" />
    <glyph glyph-name="uni01ED" unicode="&#x1ed;" horiz-adv-x="772" 
d="M284 -20q-71 0 -122.5 33.5t-79 103t-27.5 175.5q0 78 14 183t45.5 215t82.5 204.5t124.5 153t170.5 58.5q72 0 121.5 -35t76.5 -105t27 -176q0 -96 -16 -206.5t-50 -217.5t-85.5 -194t-122 -139.5t-159.5 -52.5zM293 64q66 0 118.5 49.5t92.5 130.5t66 178t39 193.5
t13 175.5q0 76 -15.5 127.5t-46.5 77.5t-77 26q-70 0 -124 -53.5t-93.5 -139t-65 -185t-38 -193t-12.5 -160.5q0 -113 36 -170t107 -57zM295 1251l17 79h458l-18 -79h-457zM220 -447q-70 0 -107.5 39t-37.5 99q0 53 19.5 101.5t65.5 99t124 108.5h74q-72 -60 -115 -108
t-61.5 -91.5t-17.5 -89.5q0 -40 21 -61.5t62 -21.5q18 0 38 4.5t37 8.5l-14 -72q-18 -6 -39 -11t-49 -5z" />
    <glyph glyph-name="uni01F0" unicode="&#x1f0;" horiz-adv-x="345" 
d="M-187 -492q-25 0 -46 3t-36 8v88q16 -6 35 -9t40 -3q52 0 85 26.5t56.5 93.5t46.5 185l252 1185h92l-253 -1192q-27 -128 -58 -213.5t-80 -128.5t-134 -43zM269 1241q-8 39 -29.5 99.5t-44 119t-41.5 90.5l3 19h47q17 -28 38.5 -63.5t43 -77.5t39.5 -86
q48 60 103.5 119.5t115.5 107.5h47l-2 -19q-36 -36 -82 -91t-89 -113t-70 -105h-79z" />
    <glyph glyph-name="Aringacute" unicode="&#x1fa;" horiz-adv-x="726" 
d="M-135 0l539 1240q-45 18 -69.5 58t-24.5 97q0 84 49.5 135t139.5 51q87 0 137 -52.5t52 -130.5q0 -69 -35 -114t-95 -58l33 -1226h-97l-12 487h-305l-210 -487h-102zM212 575h272l-9 490q0 35 -1 71t1 65h-5q-7 -28 -19.5 -63.5t-30.5 -73.5zM498 1276q53 0 86.5 32.5
t33.5 85.5t-32 87t-88 34t-86.5 -34t-30.5 -87t28 -85.5t89 -32.5zM463 1636l-1 16q47 45 90 95.5t79.5 100.5t60.5 94h112v-16q-29 -42 -79 -97t-104.5 -107.5t-101.5 -85.5h-56z" />
    <glyph glyph-name="aringacute" unicode="&#x1fb;" horiz-adv-x="815" 
d="M268 -20q-71 0 -118 31.5t-69.5 94t-22.5 156.5q0 93 16.5 205t51 224.5t86.5 206t124.5 151t163.5 57.5q44 0 78.5 -17t58.5 -50t38 -84h6l39 130h76l-229 -1085h-73l19 156h-4q-39 -58 -79 -97t-81 -59t-81 -20zM275 66q78 0 135 58t98 151t70 197q26 99 39.5 188.5
t13.5 177.5q0 84 -36.5 132t-98.5 48q-65 0 -119.5 -50t-95.5 -133t-69.5 -184t-43.5 -205t-15 -194q0 -93 27 -139.5t95 -46.5zM548 1190q-85 0 -137 49t-52 136q0 84 50.5 135t138.5 51q85 0 138 -50.5t54 -130.5q0 -88 -52 -139t-140 -51zM549 1256q53 0 86.5 32t33.5 87
t-32 88.5t-88 33.5q-55 0 -86.5 -33.5t-31.5 -88.5q0 -60 29 -89.5t89 -29.5zM548 1638v17q32 40 67 83.5t70 93t67 105.5h135l1 -17q-29 -37 -75.5 -86.5t-102.5 -100.5t-115 -95h-47z" />
    <glyph glyph-name="AEacute" unicode="&#x1fc;" horiz-adv-x="1031" 
d="M-143 0l684 1462h583l-17 -87h-393l-120 -564h368l-20 -88h-367l-135 -635h391l-17 -88h-487l115 541h-233l-251 -541h-101zM250 629h212l159 745h-29zM645 1618l-1 17q50 52 95.5 107t83 108t60.5 96h111v-17q-22 -32 -58 -74.5t-78.5 -87.5t-84.5 -84.5t-76 -64.5h-52z
" />
    <glyph glyph-name="aeacute" unicode="&#x1fd;" horiz-adv-x="1189" 
d="M256 -20q-63 0 -108 35t-69 103t-24 166q0 104 18.5 217.5t55 221t89.5 194t121 138t152 51.5q50 0 86 -21.5t58 -60.5t31 -92h5l38 153h70l-35 -168q49 83 113.5 136t140.5 53q81 0 130.5 -49t49.5 -151q0 -79 -30 -151t-91.5 -128t-155.5 -88.5t-221 -32.5h-13
q-9 -44 -13.5 -92t-4.5 -101q0 -126 42 -188.5t139 -62.5q49 0 96.5 15.5t92.5 43.5l-6 -89q-41 -24 -89.5 -38t-111.5 -14q-93 0 -148.5 51t-71.5 152l-38 -183h-71l30 171h-4q-32 -60 -69.5 -103t-82 -65.5t-101.5 -22.5zM283 64q56 0 100 33t78 89.5t60 129t46 153.5
q24 99 39.5 194.5t15.5 176.5q0 84 -33 132t-93 48q-65 0 -118 -47t-95 -125.5t-71.5 -175.5t-45 -196.5t-15.5 -186.5q0 -119 35.5 -172t96.5 -53zM680 584h9q143 0 230.5 46t127.5 119t40 152q0 59 -25 91t-79 32q-65 0 -124 -58t-105.5 -157.5t-73.5 -224.5zM643 1235
l-1 17q50 52 95.5 107t83 108t60.5 96h111v-17q-22 -32 -58 -74.5t-78.5 -87.5t-84.5 -84.5t-76 -64.5h-52z" />
    <glyph glyph-name="Oslashacute" unicode="&#x1fe;" horiz-adv-x="954" 
d="M22 -89l-60 36l139 223q-15 43 -22.5 99.5t-7.5 122.5q0 101 15 219.5t45 241.5t76 235.5t109 201.5t143 141t177 52q73 0 126.5 -28t87.5 -87l112 180l61 -37l-136 -219q14 -39 19.5 -89t5.5 -109q0 -94 -14 -212t-42 -243t-72.5 -242.5t-106.5 -211.5t-143 -149.5
t-183 -55.5q-71 0 -124.5 28.5t-87.5 86.5zM360 67q76 0 139.5 50t113.5 134.5t87 189.5t61.5 218.5t37.5 220.5t14 192q0 28 -1 53.5t-3 46.5l-612 -982q22 -64 63.5 -93.5t99.5 -29.5zM176 289l617 985q-23 63 -63.5 92.5t-102.5 29.5q-79 0 -143.5 -50.5t-115 -136.5
t-87.5 -191t-61 -215.5t-36 -211.5t-13 -177q0 -36 1.5 -67t3.5 -58zM607 1618l-1 17q50 52 95.5 107t83 108t60.5 96h111v-17q-22 -32 -58 -74.5t-78.5 -87.5t-84.5 -84.5t-76 -64.5h-52z" />
    <glyph glyph-name="oslashacute" unicode="&#x1ff;" horiz-adv-x="777" 
d="M49 -125l-60 35l105 182q-18 38 -28.5 87.5t-10.5 112.5q0 76 14 180.5t45 215t82 205t124.5 154t171.5 59.5q46 0 82.5 -15.5t63.5 -44.5l86 153l61 -35l-102 -181q17 -36 25.5 -84t8.5 -109q0 -90 -16 -198.5t-48.5 -216t-84 -197t-122 -144t-161.5 -54.5q-43 0 -80 13
t-65 41zM293 62q65 0 117.5 47t91 125t65.5 171.5t41 188.5t15 174q1 30 -1.5 57t-7.5 49l-427 -758q18 -28 45 -41t61 -13zM160 198l431 765q-17 30 -44 45.5t-64 15.5q-67 0 -120.5 -51t-92.5 -133.5t-65.5 -179t-40.5 -189.5t-14 -165q0 -31 2.5 -59t7.5 -49zM438 1235
l-1 17q50 52 95.5 107t83 108t60.5 96h111v-17q-22 -32 -58 -74.5t-78.5 -87.5t-84.5 -84.5t-76 -64.5h-52z" />
    <glyph glyph-name="uni0218" unicode="&#x218;" horiz-adv-x="725" 
d="M203 -20q-83 0 -148.5 16.5t-108.5 41.5l8 101q48 -29 112 -49t141 -20q67 0 121 20.5t92 61t58.5 99t20.5 133.5q0 61 -16 110t-52 100.5t-97 117.5q-53 60 -93 114.5t-62 117.5t-22 146q0 95 28 168t79 123t120 76t153 26q76 0 143 -21t107 -48l-48 -87
q-39 26 -91.5 46t-118.5 20q-59 0 -109 -19t-87 -56.5t-57 -92t-20 -125.5q0 -67 19 -120.5t58 -106t99 -118.5q52 -55 89 -110.5t57.5 -117.5t20.5 -136q0 -95 -27.5 -170.5t-78.5 -129.5t-124 -82.5t-166 -28.5zM62 -453v31q27 30 60 83t62.5 111t44.5 103h91v-21
q-16 -43 -52 -101.5t-78.5 -114t-78.5 -91.5h-49z" />
    <glyph glyph-name="uni0219" unicode="&#x219;" horiz-adv-x="593" 
d="M175 -20q-68 0 -122 14.5t-82 32.5v101q32 -25 85.5 -44t111.5 -19q69 0 113 25.5t66.5 74.5t22.5 120q0 46 -12.5 83t-40 76t-71.5 90q-37 43 -67 85.5t-46.5 92t-16.5 110.5q0 80 33.5 144t96.5 102t151 38q74 0 128 -19t90 -44l-46 -78q-31 24 -74 41t-99 17
q-86 0 -136 -52t-50 -138q0 -43 11 -80.5t34.5 -74t61.5 -79.5q49 -57 82.5 -102t50 -92t16.5 -114q0 -98 -34.5 -168t-100 -106.5t-156.5 -36.5zM-5 -453v31q27 30 60 83t62.5 111t44.5 103h91v-21q-16 -43 -52 -101.5t-78.5 -114t-78.5 -91.5h-49z" />
    <glyph glyph-name="uni021A" unicode="&#x21a;" horiz-adv-x="641" 
d="M133 0l294 1374h-258l19 88h611l-19 -88h-259l-292 -1374h-96zM18 -453v31q27 30 60 83t62.5 111t44.5 103h91v-21q-16 -43 -52 -101.5t-78.5 -114t-78.5 -91.5h-49z" />
    <glyph glyph-name="uni021B" unicode="&#x21b;" horiz-adv-x="415" 
d="M172 -20q-66 0 -100 39t-34 111q0 30 6 73t16 90l152 709h-97l14 64l102 20l75 257h70l-54 -258h141l-18 -83h-141l-152 -715q-9 -46 -15.5 -82.5t-6.5 -60.5q0 -39 16 -59t54 -20q22 0 42.5 4t36.5 10v-79q-23 -9 -50.5 -14.5t-56.5 -5.5zM-93 -453v31q27 30 60 83
t62.5 111t44.5 103h91v-21q-16 -43 -52 -101.5t-78.5 -114t-78.5 -91.5h-49z" />
    <glyph glyph-name="uni0237" unicode="&#x237;" horiz-adv-x="345" 
d="M-187 -492q-25 0 -46 3t-36 8v88q16 -6 35 -9t40 -3q52 0 85 26.5t56.5 93.5t46.5 185l252 1185h92l-253 -1192q-27 -128 -58 -213.5t-80 -128.5t-134 -43z" />
    <glyph glyph-name="uni0259" unicode="&#x259;" horiz-adv-x="711" 
d="M198 -20q-82 0 -133 47.5t-51 150.5q0 79 30.5 151t92 128.5t155.5 89t221 32.5h14q8 44 12.5 92t4.5 100q0 131 -44 192t-136 61q-50 0 -96.5 -16t-93.5 -44l7 91q40 23 90.5 37t114.5 14q81 0 137 -36t85.5 -107.5t29.5 -178.5q0 -164 -34.5 -309.5t-95.5 -256.5
t-140.5 -174.5t-169.5 -63.5zM209 61q65 0 124.5 58t106.5 158t72 223h-11q-143 0 -230 -45.5t-126 -118t-39 -153.5q0 -59 25 -90.5t78 -31.5z" />
    <glyph glyph-name="uni02BC" unicode="&#x2bc;" horiz-adv-x="282" 
d="M115 995q39 70 76 150t66.5 161.5t48.5 155.5h91l10 -23q-25 -68 -59.5 -146.5t-75.5 -155t-85 -142.5h-72z" />
    <glyph glyph-name="circumflex" unicode="&#x2c6;" horiz-adv-x="599" 
d="M232 1241l2 17q42 45 86 97.5t85 107.5t70 106h79q10 -40 30 -100t44 -118.5t40 -92.5l-3 -17h-46q-19 29 -41 66t-42 78t-38 83q-48 -60 -103.5 -119t-115.5 -108h-47z" />
    <glyph glyph-name="caron" unicode="&#x2c7;" horiz-adv-x="600" 
d="M412 1241q-8 39 -29.5 99.5t-44 119t-41.5 90.5l3 19h47q17 -28 38.5 -63.5t43 -77.5t39.5 -86q48 60 103.5 119.5t115.5 107.5h47l-2 -19q-36 -36 -82 -91t-89 -113t-70 -105h-79z" />
    <glyph glyph-name="macron" unicode="&#x2c9;" horiz-adv-x="622" 
d="M232 1251l17 79h458l-18 -79h-457z" />
    <glyph glyph-name="breve" unicode="&#x2d8;" horiz-adv-x="591" 
d="M470 1243q-72 0 -114 25t-60.5 68t-18.5 95q0 15 1 26t2 19h64q0 -49 11.5 -84.5t39.5 -53t78 -17.5q74 0 113 35t55 120h67q-19 -113 -75 -173t-163 -60z" />
    <glyph glyph-name="dotaccent" unicode="&#x2d9;" horiz-adv-x="293" 
d="M313 1304q-26 0 -39.5 16.5t-13.5 45.5q0 39 20.5 75t59.5 36q18 0 29.5 -6.5t17.5 -20.5t6 -35q0 -38 -20 -74.5t-60 -36.5z" />
    <glyph glyph-name="ring" unicode="&#x2da;" horiz-adv-x="550" 
d="M465 1251q-87 0 -137 50.5t-50 136.5q0 81 50 134t137 53q91 0 139.5 -53.5t48.5 -131.5q0 -81 -50 -135t-138 -54zM466 1316q56 0 88.5 33.5t32.5 88.5q0 53 -31 87t-90 34q-57 0 -88.5 -34.5t-31.5 -86.5q0 -55 31 -88.5t89 -33.5z" />
    <glyph glyph-name="ogonek" unicode="&#x2db;" horiz-adv-x="430" 
d="M52 -447q-70 0 -107.5 39t-37.5 99q0 53 19.5 101.5t65.5 99t124 108.5h74q-72 -60 -115 -108t-61.5 -91.5t-17.5 -89.5q0 -40 21 -61.5t62 -21.5q18 0 38 4.5t37 8.5l-14 -72q-18 -6 -39 -11t-49 -5z" />
    <glyph glyph-name="tilde" unicode="&#x2dc;" horiz-adv-x="689" 
d="M233 1249q13 70 36.5 117.5t58.5 72t83 24.5q41 0 70.5 -19.5t54 -45t47.5 -45t52 -19.5q37 0 60 29t37 101h69q-12 -74 -35.5 -121.5t-57.5 -69.5t-77 -22q-42 0 -71 19.5t-53 45.5t-47.5 46t-53.5 20q-44 0 -67 -34.5t-36 -98.5h-70z" />
    <glyph glyph-name="hungarumlaut" unicode="&#x2dd;" horiz-adv-x="728" 
d="M518 1241l1 17q50 55 96 111t82.5 108t57.5 92h105l-1 -17q-21 -33 -56 -75t-77 -86.5t-85 -83.5t-79 -66h-44zM234 1241v17q51 55 96.5 111t82 108t58.5 92h106l-1 -17q-21 -33 -56 -75.5t-77.5 -86t-85.5 -82.5t-80 -67h-43z" />
    <glyph glyph-name="uni02F3" unicode="&#x2f3;" horiz-adv-x="612" 
d="M139 -503q-87 0 -137.5 50t-50.5 137q0 81 51 133.5t137 52.5q88 0 138 -52.5t50 -132.5t-50.5 -134t-137.5 -54zM138 -438q58 0 89.5 33.5t31.5 88.5q0 53 -31 87t-90 34q-57 0 -88 -34.5t-31 -86.5q0 -55 30.5 -88.5t88.5 -33.5z" />
    <glyph glyph-name="gravecomb" unicode="&#x300;" 
d="M-396 1241q-27 38 -59.5 91.5t-62 110.5t-47.5 106v16h99q19 -53 38 -105t39.5 -101.5t46.5 -99.5l-2 -18h-52z" />
    <glyph glyph-name="acutecomb" unicode="&#x301;" 
d="M-443 1241l-1 17q50 52 95.5 107t83 108t60.5 96h111v-17q-22 -32 -58 -74.5t-78.5 -87.5t-84.5 -84.5t-76 -64.5h-52z" />
    <glyph glyph-name="uni0302" unicode="&#x302;" 
d="M-80 1241l2 17q42 45 86 97.5t85 107.5t70 106h79q10 -40 30 -100t44 -118.5t40 -92.5l-3 -17h-46q-19 29 -41 66t-42 78t-38 83q-48 -60 -103.5 -119t-115.5 -108h-47z" />
    <glyph glyph-name="tildecomb" unicode="&#x303;" 
d="M-657 1249q13 70 36.5 117.5t58.5 72t83 24.5q41 0 70.5 -19.5t54 -45t47.5 -45t52 -19.5q37 0 60 29t37 101h69q-12 -74 -35.5 -121.5t-57.5 -69.5t-77 -22q-42 0 -71 19.5t-53 45.5t-47.5 46t-53.5 20q-44 0 -67 -34.5t-36 -98.5h-70z" />
    <glyph glyph-name="uni0304" unicode="&#x304;" 
d="M-76 1251l17 79h458l-18 -79h-457z" />
    <glyph glyph-name="uni0306" unicode="&#x306;" 
d="M165 1243q-72 0 -114 25t-60.5 68t-18.5 95q0 15 1 26t2 19h64q0 -49 11.5 -84.5t39.5 -53t78 -17.5q74 0 113 35t55 120h67q-19 -113 -75 -173t-163 -60z" />
    <glyph glyph-name="uni0307" unicode="&#x307;" 
d="M197 1304q-26 0 -39.5 16.5t-13.5 45.5q0 39 20.5 75t59.5 36q18 0 29.5 -6.5t17.5 -20.5t6 -35q0 -38 -20 -74.5t-60 -36.5z" />
    <glyph glyph-name="uni0308" unicode="&#x308;" 
d="M294 1313q-23 0 -36.5 14t-13.5 44q0 35 20 69t55 34q22 0 34.5 -14.5t12.5 -41.5q0 -38 -19 -71.5t-53 -33.5zM17 1313q-22 0 -35.5 14t-13.5 44q0 35 20 69t54 34q15 0 25.5 -6t16.5 -18.5t6 -31.5q0 -38 -19.5 -71.5t-53.5 -33.5z" />
    <glyph glyph-name="hookabovecomb" unicode="&#x309;" 
d="M-422 1208l35 179q52 1 90.5 14.5t59 41.5t20.5 72q0 41 -25.5 64.5t-72.5 23.5q-31 0 -53 -3.5t-37 -8.5v69q20 6 46.5 11t60.5 5q74 0 120 -41.5t46 -109.5q0 -88 -54 -134.5t-140 -55.5l-31 -127h-65z" />
    <glyph glyph-name="uni030A" unicode="&#x30a;" 
d="M188 1251q-87 0 -137 50.5t-50 136.5q0 81 50 134t137 53q91 0 139.5 -53.5t48.5 -131.5q0 -81 -50 -135t-138 -54zM189 1316q56 0 88.5 33.5t32.5 88.5q0 53 -31 87t-90 34q-57 0 -88.5 -34.5t-31.5 -86.5q0 -55 31 -88.5t89 -33.5z" />
    <glyph glyph-name="uni030B" unicode="&#x30b;" 
d="M159 1241l1 17q50 55 96 111t82.5 108t57.5 92h105l-1 -17q-21 -33 -56 -75t-77 -86.5t-85 -83.5t-79 -66h-44zM-125 1241v17q51 55 96.5 111t82 108t58.5 92h106l-1 -17q-21 -33 -56 -75.5t-77.5 -86t-85.5 -82.5t-80 -67h-43z" />
    <glyph glyph-name="uni030C" unicode="&#x30c;" 
d="M112 1241q-8 39 -29.5 99.5t-44 119t-41.5 90.5l3 19h47q17 -28 38.5 -63.5t43 -77.5t39.5 -86q48 60 103.5 119.5t115.5 107.5h47l-2 -19q-36 -36 -82 -91t-89 -113t-70 -105h-79z" />
    <glyph glyph-name="uni030F" unicode="&#x30f;" 
d="M-343 1241q-30 40 -61.5 93t-58.5 109t-45 106v16h90q19 -55 37.5 -106.5t39 -101t44.5 -98.5l-3 -18h-43zM-581 1241q-28 40 -59 93t-58.5 109t-45.5 106v16h90q19 -53 37.5 -106t39.5 -103.5t45 -96.5l-3 -18h-46z" />
    <glyph glyph-name="uni0312" unicode="&#x312;" 
d="M49 995l-9 24q26 70 60.5 148t75 154.5t84.5 140.5h73q-28 -48 -55.5 -107t-54 -122t-48 -124.5t-34.5 -113.5h-92z" />
    <glyph glyph-name="dotbelowcomb" unicode="&#x323;" 
d="M-637 -317q-25 0 -39 17t-14 45q0 40 20 76t60 36q18 0 29.5 -7t18 -21t6.5 -35q0 -38 -20.5 -74.5t-60.5 -36.5z" />
    <glyph glyph-name="uni0326" unicode="&#x326;" 
d="M216 -453v31q27 30 60 83t62.5 111t44.5 103h91v-21q-16 -43 -52 -101.5t-78.5 -114t-78.5 -91.5h-49z" />
    <glyph glyph-name="uni0327" unicode="&#x327;" 
d="M-299 -492q-41 0 -69 5t-53 10v71q16 -7 45 -11.5t73 -4.5q51 0 88.5 19t58.5 50.5t21 71.5q0 55 -42 82.5t-119 35.5l112 163h70l-86 -122q66 -13 106 -50.5t40 -102.5q0 -64 -32 -113t-87 -76.5t-126 -27.5z" />
    <glyph glyph-name="uni0328" unicode="&#x328;" 
d="M-167 -447q-70 0 -107.5 39t-37.5 99q0 53 19.5 101.5t65.5 99t124 108.5h74q-72 -60 -115 -108t-61.5 -91.5t-17.5 -89.5q0 -40 21 -61.5t62 -21.5q18 0 38 4.5t37 8.5l-14 -72q-18 -6 -39 -11t-49 -5z" />
    <glyph glyph-name="tonos" unicode="&#x384;" horiz-adv-x="1066" 
d="M518 1241l4 20q20 33 44 78t48.5 94.5t45.5 96t35 80.5h109l-4 -21q-13 -24 -43.5 -71t-66.5 -102t-68.5 -102.5t-50.5 -72.5h-53z" />
    <glyph glyph-name="dieresistonos" unicode="&#x385;" horiz-adv-x="1066" 
d="M553 1387v18q23 40 51.5 98.5t54 116.5t36.5 96h94l-1 -20q-16 -36 -51 -97.5t-72.5 -121t-65.5 -90.5h-46zM417 1313q-24 0 -37 14.5t-13 42.5q0 37 19.5 70.5t54.5 33.5q22 0 34 -14t12 -42q0 -38 -19 -71.5t-51 -33.5zM751 1313q-23 0 -35.5 14.5t-12.5 42.5
q0 37 19 70.5t54 33.5q21 0 33.5 -14t12.5 -42q0 -38 -19 -71.5t-52 -33.5z" />
    <glyph glyph-name="Alphatonos" unicode="&#x386;" horiz-adv-x="727" 
d="M-137 0l605 1468h120v-1468h-97l2 539h-307l-221 -539h-102zM218 626h276l7 573q0 45 1.5 85.5t3.5 71.5h-5q-10 -30 -23 -68.5t-34 -90.5zM71 1093l4 20q20 33 44 78t48.5 94.5t45.5 96t35 80.5h109l-4 -21q-13 -24 -43.5 -71t-66.5 -102t-68.5 -102.5t-50.5 -72.5h-53z
" />
    <glyph glyph-name="anoteleia" unicode="&#x387;" horiz-adv-x="376" 
d="M254 909q-26 0 -41 16.5t-15 47.5q0 41 21.5 79.5t65.5 38.5q25 0 39.5 -17t14.5 -49q0 -42 -23 -79t-62 -37z" />
    <glyph glyph-name="Epsilontonos" unicode="&#x388;" horiz-adv-x="850" 
d="M137 0l311 1462h487l-18 -87h-392l-120 -564h367l-21 -88h-366l-135 -635h392l-17 -88h-488zM78 1093l4 20q20 33 44 78t48.5 94.5t45.5 96t35 80.5h109l-4 -21q-13 -24 -43.5 -71t-66.5 -102t-68.5 -102.5t-50.5 -72.5h-53z" />
    <glyph glyph-name="Etatonos" unicode="&#x389;" horiz-adv-x="1070" 
d="M137 0l311 1462h95l-138 -650h465l140 650h94l-312 -1462h-94l154 723h-467l-153 -723h-95zM78 1093l4 20q20 33 44 78t48.5 94.5t45.5 96t35 80.5h109l-4 -21q-13 -24 -43.5 -71t-66.5 -102t-68.5 -102.5t-50.5 -72.5h-53z" />
    <glyph glyph-name="Iotatonos" unicode="&#x38a;" horiz-adv-x="495" 
d="M124 0l311 1462h93l-310 -1462h-94zM78 1093l4 20q20 33 44 78t48.5 94.5t45.5 96t35 80.5h109l-4 -21q-13 -24 -43.5 -71t-66.5 -102t-68.5 -102.5t-50.5 -72.5h-53z" />
    <glyph glyph-name="Omicrontonos" unicode="&#x38c;" horiz-adv-x="1004" 
d="M405 -20q-92 0 -154.5 44.5t-94 135.5t-31.5 232q0 101 15 219.5t45 241.5t76 235.5t109 201.5t142.5 141t176.5 52q137 0 207 -93t70 -296q0 -94 -14 -212t-42 -243t-72.5 -242.5t-106.5 -211.5t-143 -149.5t-183 -55.5zM414 67q78 0 142 51.5t114.5 138.5t88 195
t61.5 223.5t36.5 224t12.5 193.5q0 158 -46 230t-142 72q-80 0 -145.5 -52t-116.5 -139.5t-87.5 -195.5t-61 -221t-36 -215.5t-11.5 -178.5q0 -114 21.5 -186t64.5 -106t105 -34zM78 1093l4 20q20 33 44 78t48.5 94.5t45.5 96t35 80.5h109l-4 -21q-13 -24 -43.5 -71
t-66.5 -102t-68.5 -102.5t-50.5 -72.5h-53z" />
    <glyph glyph-name="Upsilontonos" unicode="&#x38e;" horiz-adv-x="867" 
d="M361 0l119 567l-86 895h98l62 -759l384 759h103l-465 -894l-121 -568h-94zM63 1093l4 20q20 33 44 78t48.5 94.5t45.5 96t35 80.5h109l-4 -21q-13 -24 -43.5 -71t-66.5 -102t-68.5 -102.5t-50.5 -72.5h-53z" />
    <glyph glyph-name="Omegatonos" unicode="&#x38f;" horiz-adv-x="1033" 
d="M78 1093l4 20q20 33 44 78t48.5 94.5t45.5 96t35 80.5h109l-4 -21q-13 -24 -43.5 -71t-66.5 -102t-68.5 -102.5t-50.5 -72.5h-53zM-11 0l18 88h253q-32 42 -58 106t-40.5 147t-14.5 180q0 114 19 245t60.5 257.5t106 230.5t156 166.5t209.5 62.5q101 0 165.5 -43.5
t95.5 -127.5t31 -207q0 -165 -29 -320t-82.5 -290t-125.5 -239t-156 -168h260l-19 -88h-362l17 82q89 63 162 171t126 245t81.5 289t28.5 303q0 104 -22 171.5t-66.5 100.5t-113.5 33q-100 0 -174.5 -62.5t-127 -164t-85 -220.5t-47 -234.5t-14.5 -204.5q0 -140 26.5 -244
t82.5 -183l-18 -82h-343z" />
    <glyph glyph-name="iotadieresistonos" unicode="&#x390;" horiz-adv-x="410" 
d="M172 -20q-64 0 -97.5 34t-33.5 98q0 22 4.5 53.5t13.5 71.5l182 848h92l-183 -853q-9 -34 -12.5 -58.5t-3.5 -45.5q0 -32 14.5 -47.5t44.5 -15.5q20 0 39 3.5t37 11.5v-80q-20 -9 -45 -14.5t-52 -5.5zM293 1387v18q23 40 51.5 98.5t54 116.5t36.5 96h94l-1 -20
q-16 -36 -51 -97.5t-72.5 -121t-65.5 -90.5h-46zM157 1313q-24 0 -37 14.5t-13 42.5q0 37 19.5 70.5t54.5 33.5q22 0 34 -14t12 -42q0 -38 -19 -71.5t-51 -33.5zM491 1313q-23 0 -35.5 14.5t-12.5 42.5q0 37 19 70.5t54 33.5q21 0 33.5 -14t12.5 -42q0 -38 -19 -71.5
t-52 -33.5z" />
    <glyph glyph-name="Alpha" unicode="&#x391;" horiz-adv-x="728" 
d="M-136 0l605 1468h120v-1468h-97l2 539h-307l-221 -539h-102zM219 626h276l7 573q0 45 1.5 85.5t3.5 71.5h-5q-10 -30 -23 -68.5t-34 -90.5z" />
    <glyph glyph-name="Beta" unicode="&#x392;" horiz-adv-x="809" 
d="M5 0l308 1462h221q91 0 155 -32.5t97.5 -93.5t33.5 -147q0 -93 -30.5 -181.5t-93.5 -153t-162 -87.5v-5q78 -19 123.5 -89.5t45.5 -177.5q0 -136 -48.5 -248.5t-146 -179.5t-247.5 -67h-256zM118 87h145q125 0 199.5 58.5t108 151.5t33.5 195q0 125 -61 178.5t-162 53.5
h-128zM270 810h132q112 0 182 54t103 139t33 175q0 97 -50 147.5t-155 50.5h-126z" />
    <glyph glyph-name="Gamma" unicode="&#x393;" horiz-adv-x="595" 
d="M2 0l311 1462h445l-18 -88h-351l-292 -1374h-95z" />
    <glyph glyph-name="uni0394" unicode="&#x394;" horiz-adv-x="719" 
d="M-95 0l8 77l591 1387h121l6 -1388l-15 -76h-711zM15 89h520l3 1054q0 30 0.5 56.5t1 52.5t1 52.5t1.5 56.5q-13 -34 -28.5 -74t-32 -83t-34.5 -86z" />
    <glyph glyph-name="Epsilon" unicode="&#x395;" horiz-adv-x="714" 
d="M2 0l311 1462h487l-18 -87h-392l-120 -564h367l-21 -88h-366l-135 -635h392l-17 -88h-488z" />
    <glyph glyph-name="Zeta" unicode="&#x396;" horiz-adv-x="648" 
d="M-85 0l16 78l714 1295h-419l19 89h526l-17 -80l-714 -1294h452l-18 -88h-559z" />
    <glyph glyph-name="Eta" unicode="&#x397;" horiz-adv-x="933" 
d="M2 0l311 1462h95l-138 -650h465l140 650h94l-312 -1462h-94l154 723h-467l-153 -723h-95z" />
    <glyph glyph-name="Theta" unicode="&#x398;" horiz-adv-x="986" 
d="M355 -20q-94 0 -157 44.5t-95 135.5t-32 232q0 94 14.5 211t43.5 239t75.5 236.5t109.5 206t145 145t182 53.5q136 0 208.5 -92.5t72.5 -295.5q0 -103 -15 -224t-45 -246.5t-76.5 -241t-109.5 -206t-143 -144t-178 -53.5zM363 67q79 0 144 52.5t116.5 140t89.5 196.5
t62.5 224.5t37.5 223t13 189.5q0 158 -47 230t-145 72q-81 0 -147 -52t-118 -140t-90 -195.5t-62.5 -220.5t-36.5 -215.5t-12 -178.5q0 -115 22 -186.5t66 -105.5t107 -34zM372 714l20 87h236l-19 -87h-237z" />
    <glyph glyph-name="Iota" unicode="&#x399;" horiz-adv-x="373" 
d="M2 0l311 1462h93l-310 -1462h-94z" />
    <glyph glyph-name="Kappa" unicode="&#x39a;" horiz-adv-x="754" 
d="M2 0l311 1462h95l-165 -779l130 188l428 591h107l-470 -653l181 -809h-104l-157 733l-140 -165l-121 -568h-95z" />
    <glyph glyph-name="Lambda" unicode="&#x39b;" horiz-adv-x="727" 
d="M-140 0l622 1464h119l2 -1464h-97l5 1135q0 52 1 103.5t5 105.5q-20 -58 -43.5 -116.5t-53.5 -131.5l-459 -1096h-101z" />
    <glyph glyph-name="Mu" unicode="&#x39c;" horiz-adv-x="1249" 
d="M2 0l311 1462h135l63 -1321h6l620 1321h146l-311 -1462h-94l235 1106q6 30 13 59t14.5 61t16.5 69h-4l-610 -1295h-114l-60 1296h-5q-7 -42 -13 -74.5t-11.5 -62t-11.5 -61.5l-234 -1098h-92z" />
    <glyph glyph-name="Nu" unicode="&#x39d;" horiz-adv-x="984" 
d="M2 0l311 1462h116l226 -1275h4q10 56 21.5 112t21 105t16.5 82l208 976h94l-312 -1462h-111l-228 1293h-4q-5 -35 -12 -74t-15.5 -79t-17 -80.5t-16.5 -78.5l-208 -981h-94z" />
    <glyph glyph-name="Xi" unicode="&#x39e;" horiz-adv-x="711" 
d="M-29 0l19 88h530l-19 -88h-530zM160 724l18 88h459l-20 -88h-457zM272 1375l18 87h516l-18 -87h-516z" />
    <glyph glyph-name="Omicron" unicode="&#x39f;" horiz-adv-x="949" 
d="M351 -20q-92 0 -154.5 44.5t-94 135.5t-31.5 232q0 101 15 219.5t45 241.5t76 235.5t109 201.5t142.5 141t176.5 52q137 0 207 -93t70 -296q0 -94 -14 -212t-42 -243t-72.5 -242.5t-106.5 -211.5t-143 -149.5t-183 -55.5zM360 67q78 0 142 51.5t114.5 138.5t88 195
t61.5 223.5t36.5 224t12.5 193.5q0 158 -46 230t-142 72q-80 0 -145.5 -52t-116.5 -139.5t-87.5 -195.5t-61 -221t-36 -215.5t-11.5 -178.5q0 -114 21.5 -186t64.5 -106t105 -34z" />
    <glyph glyph-name="Pi" unicode="&#x3a0;" horiz-adv-x="922" 
d="M2 0l311 1462h652l-311 -1462h-94l292 1374h-463l-292 -1374h-95z" />
    <glyph glyph-name="Rho" unicode="&#x3a1;" horiz-adv-x="761" 
d="M4 0l309 1462h166q105 0 174.5 -36.5t104.5 -105t35 -165.5q0 -119 -31.5 -219.5t-91.5 -174t-147 -114.5t-199 -41h-96l-130 -606h-94zM245 694h75q127 0 209.5 59.5t123 161.5t40.5 232q0 108 -53 168t-175 60h-75z" />
    <glyph glyph-name="Sigma" unicode="&#x3a3;" horiz-adv-x="674" 
d="M-81 0l13 76l454 689l-168 613l17 84h541l-17 -87h-438l167 -617l-441 -670h464l-16 -88h-576z" />
    <glyph glyph-name="Tau" unicode="&#x3a4;" horiz-adv-x="641" 
d="M133 0l294 1374h-258l19 88h611l-19 -88h-259l-292 -1374h-96z" />
    <glyph glyph-name="Upsilon" unicode="&#x3a5;" horiz-adv-x="644" 
d="M137 0l119 567l-86 895h98l62 -759l384 759h103l-465 -894l-121 -568h-94z" />
    <glyph glyph-name="Phi" unicode="&#x3a6;" horiz-adv-x="1079" 
d="M340 -20l49 226q-93 11 -160.5 56t-103.5 128.5t-36 208.5q0 155 37 283.5t106.5 221.5t168.5 144.5t222 54.5l36 180h93l-36 -180q90 -8 157 -51t105 -125t38 -206q0 -157 -38.5 -287t-110 -225.5t-169 -147.5t-216.5 -55l-49 -226h-93zM406 292l198 925
q-118 -4 -199 -62.5t-129.5 -151.5t-69.5 -199t-21 -204q0 -103 27.5 -168.5t77.5 -98.5t116 -41zM500 291q104 4 182.5 57t130.5 142t79 200t27 229q0 106 -29 169t-78.5 94t-114.5 35z" />
    <glyph glyph-name="Chi" unicode="&#x3a7;" horiz-adv-x="673" 
d="M-120 0l439 774l-85 688h96l66 -600l321 600h102l-389 -705l83 -757h-100l-60 662l-371 -662h-102z" />
    <glyph glyph-name="Psi" unicode="&#x3a8;" horiz-adv-x="1041" 
d="M327 0l96 454h-2q-68 2 -130 29.5t-101.5 89.5t-39.5 168q0 57 8.5 122t24.5 142l98 457h94l-96 -456q-18 -81 -26 -144t-8 -113q0 -84 30 -128.5t75 -61.5t87 -17h5l194 920h96l-197 -920h4q115 1 180 51t100 139t60 206l110 524h95l-113 -544q-22 -98 -52.5 -182.5
t-80 -147.5t-127 -98.5t-190.5 -35.5h-4l-94 -454h-96z" />
    <glyph glyph-name="uni03A9" unicode="&#x3a9;" horiz-adv-x="970" 
d="M-74 0l18 88h253q-32 42 -58 106t-40.5 147t-14.5 180q0 114 19 245t60.5 257.5t106 230.5t156 166.5t209.5 62.5q101 0 165.5 -43.5t95.5 -127.5t31 -207q0 -165 -29 -320t-82.5 -290t-125.5 -239t-156 -168h260l-19 -88h-362l17 82q89 63 162 171t126 245t81.5 289
t28.5 303q0 104 -22 171.5t-66.5 100.5t-113.5 33q-100 0 -174.5 -62.5t-127 -164t-85 -220.5t-47 -234.5t-14.5 -204.5q0 -140 26.5 -244t82.5 -183l-18 -82h-343z" />
    <glyph glyph-name="Iotadieresis" unicode="&#x3aa;" horiz-adv-x="373" 
d="M2 0l311 1462h93l-310 -1462h-94zM550 1696q-23 0 -36.5 14t-13.5 44q0 35 20 69t55 34q22 0 34.5 -14.5t12.5 -41.5q0 -38 -19 -71.5t-53 -33.5zM273 1696q-22 0 -35.5 14t-13.5 44q0 35 20 69t54 34q15 0 25.5 -6t16.5 -18.5t6 -31.5q0 -38 -19.5 -71.5t-53.5 -33.5z
" />
    <glyph glyph-name="Upsilondieresis" unicode="&#x3ab;" horiz-adv-x="644" 
d="M137 0l119 567l-86 895h98l62 -759l384 759h103l-465 -894l-121 -568h-94zM645 1651q-23 0 -36.5 14t-13.5 44q0 35 20 69t55 34q22 0 34.5 -14.5t12.5 -41.5q0 -38 -19 -71.5t-53 -33.5zM368 1651q-22 0 -35.5 14t-13.5 44q0 35 20 69t54 34q15 0 25.5 -6t16.5 -18.5
t6 -31.5q0 -38 -19.5 -71.5t-53.5 -33.5z" />
    <glyph glyph-name="alphatonos" unicode="&#x3ac;" horiz-adv-x="830" 
d="M266 -20q-98 0 -151 78t-53 225q0 101 18 214t53.5 221t88 196t121.5 140t154 52q81 0 128 -49.5t60 -131.5h5q9 29 21 58.5t24.5 56.5t24.5 45h79q-20 -36 -39 -87.5t-36 -116t-34 -142.5l-89 -415q-14 -66 -21.5 -112.5t-7.5 -85.5q0 -33 12.5 -48t36.5 -15
q14 0 26.5 2.5t24.5 6.5v-74q-12 -8 -33 -13t-40 -5q-54 0 -80 25t-33 67t0 93h-5q-34 -59 -71 -100.5t-82 -63t-102 -21.5zM289 64q77 0 133.5 61t94.5 155t61 191q24 99 40 192.5t16 172.5q0 87 -34.5 135.5t-99.5 48.5q-66 0 -120.5 -49.5t-96.5 -132t-70 -180
t-42.5 -193.5t-14.5 -173q0 -121 35.5 -174.5t97.5 -53.5zM484 1241l4 20q20 33 44 78t48.5 94.5t45.5 96t35 80.5h109l-4 -21q-13 -24 -43.5 -71t-66.5 -102t-68.5 -102.5t-50.5 -72.5h-53z" />
    <glyph glyph-name="epsilontonos" unicode="&#x3ad;" horiz-adv-x="575" 
d="M241 -20q-78 0 -131 31.5t-79.5 88t-26.5 133.5q0 96 30.5 170t86 120.5t127.5 59.5l1 5q-46 25 -69.5 80t-23.5 120q0 84 32 156t95.5 117t158.5 45q54 0 99.5 -15t79.5 -42l-49 -74q-25 21 -58.5 34t-74.5 13q-88 0 -140 -67.5t-52 -170.5q0 -81 34 -124.5t105 -43.5
h45l-18 -80h-63q-90 0 -145 -43.5t-79.5 -111.5t-24.5 -138q0 -89 40 -134.5t116 -45.5q49 0 89.5 13.5t82.5 38.5v-87q-38 -21 -85.5 -34.5t-102.5 -13.5zM404 1241l4 20q20 33 44 78t48.5 94.5t45.5 96t35 80.5h109l-4 -21q-13 -24 -43.5 -71t-66.5 -102t-68.5 -102.5
t-50.5 -72.5h-53z" />
    <glyph glyph-name="etatonos" unicode="&#x3ae;" horiz-adv-x="779" 
d="M333 -492l252 1182q11 55 22 113.5t11 105.5q0 55 -29 82.5t-79 27.5q-71 0 -124 -48.5t-92 -144t-70 -237.5l-123 -589h-94l229 1085h76l-25 -154h4q26 55 63 94t83 60t97 21q52 0 92.5 -20t63.5 -60t23 -102q0 -46 -12 -112.5t-24 -125.5l-251 -1178h-93zM496 1241
l4 20q20 33 44 78t48.5 94.5t45.5 96t35 80.5h109l-4 -21q-13 -24 -43.5 -71t-66.5 -102t-68.5 -102.5t-50.5 -72.5h-53z" />
    <glyph glyph-name="iotatonos" unicode="&#x3af;" horiz-adv-x="398" 
d="M172 -20q-64 0 -97.5 34t-33.5 98q0 22 4.5 53.5t13.5 71.5l182 848h92l-183 -853q-9 -34 -12.5 -58.5t-3.5 -45.5q0 -32 14.5 -47.5t44.5 -15.5q20 0 39 3.5t37 11.5v-80q-20 -9 -45 -14.5t-52 -5.5zM275 1241l4 20q20 33 44 78t48.5 94.5t45.5 96t35 80.5h109l-4 -21
q-13 -24 -43.5 -71t-66.5 -102t-68.5 -102.5t-50.5 -72.5h-53z" />
    <glyph glyph-name="upsilondieresistonos" unicode="&#x3b0;" horiz-adv-x="775" 
d="M258 -19q-97 0 -149.5 56t-52.5 155q0 53 10.5 118.5t26.5 140.5l137 634h93l-139 -641q-15 -68 -25 -131t-10 -111q0 -66 32 -101.5t86 -35.5q69 0 121.5 46t92 126.5t67 183t44 217.5t24.5 230t8 217h93q-1 -146 -15 -301t-45 -298.5t-84 -257t-130.5 -180.5
t-184.5 -67zM479 1387v18q23 40 51.5 98.5t54 116.5t36.5 96h94l-1 -20q-16 -36 -51 -97.5t-72.5 -121t-65.5 -90.5h-46zM343 1313q-24 0 -37 14.5t-13 42.5q0 37 19.5 70.5t54.5 33.5q22 0 34 -14t12 -42q0 -38 -19 -71.5t-51 -33.5zM677 1313q-23 0 -35.5 14.5t-12.5 42.5
q0 37 19 70.5t54 33.5q21 0 33.5 -14t12.5 -42q0 -38 -19 -71.5t-52 -33.5z" />
    <glyph glyph-name="alpha" unicode="&#x3b1;" horiz-adv-x="830" 
d="M266 -20q-98 0 -151 78t-53 225q0 101 18 214t53.5 221t88 196t121.5 140t154 52q81 0 128 -49.5t60 -131.5h5q9 29 21 58.5t24.5 56.5t24.5 45h79q-20 -36 -39 -87.5t-36 -116t-34 -142.5l-89 -415q-14 -66 -21.5 -112.5t-7.5 -85.5q0 -33 12.5 -48t36.5 -15
q14 0 26.5 2.5t24.5 6.5v-74q-12 -8 -33 -13t-40 -5q-54 0 -80 25t-33 67t0 93h-5q-34 -59 -71 -100.5t-82 -63t-102 -21.5zM289 64q77 0 133.5 61t94.5 155t61 191q24 99 40 192.5t16 172.5q0 87 -34.5 135.5t-99.5 48.5q-66 0 -120.5 -49.5t-96.5 -132t-70 -180
t-42.5 -193.5t-14.5 -173q0 -121 35.5 -174.5t97.5 -53.5z" />
    <glyph glyph-name="beta" unicode="&#x3b2;" horiz-adv-x="797" 
d="M-100 -492l366 1721q23 102 58 178.5t96.5 118t159.5 41.5q70 0 122.5 -29.5t81.5 -88t29 -144.5q0 -115 -31.5 -218.5t-95 -175.5t-163.5 -91q81 -18 129 -101t48 -201q0 -91 -21 -185t-66 -174t-117.5 -129.5t-178.5 -49.5q-65 0 -120 23.5t-87 52.5l-120 -548h-90z
M312 66q83 0 139 41.5t90 109t49 146t15 150.5q0 129 -52 197t-141 68h-30l20 84h24q79 0 134 38.5t89.5 102.5t51 141.5t16.5 154.5q0 93 -38.5 138.5t-109.5 45.5q-60 0 -100 -29.5t-66 -86t-44 -139.5l-229 -1081q30 -34 79 -57.5t103 -23.5z" />
    <glyph glyph-name="gamma" unicode="&#x3b3;" horiz-adv-x="593" 
d="M-24 -492q16 78 38 158t50 161t60 162l-3 1096h93l-3 -702q0 -27 -0.5 -57.5t-1.5 -61.5t-3 -62.5t-4 -61.5h5q25 72 52.5 143.5t66.5 161.5l266 640h100l-430 -1002q-51 -121 -88.5 -226t-63 -192.5t-40.5 -156.5h-94z" />
    <glyph glyph-name="delta" unicode="&#x3b4;" horiz-adv-x="814" 
d="M321 -20q-82 0 -141.5 36.5t-92 106t-32.5 168.5q0 148 50 276t143.5 226.5t222.5 155.5q-50 76 -83 149.5t-33 167.5q0 88 36 153t102 100t157 35q81 0 137.5 -23t84.5 -45l-49 -77q-32 25 -76 43t-104 18q-90 0 -142 -53t-52 -146q0 -56 16.5 -104.5t46 -96.5
t66.5 -103q46 -71 75 -141t42 -144.5t13 -161.5q0 -100 -21.5 -195.5t-68.5 -173.5t-120.5 -124.5t-176.5 -46.5zM330 64q80 0 134.5 44.5t87 114t47 148.5t14.5 147q0 110 -24 201t-78 169q-85 -38 -152.5 -99.5t-113.5 -139.5t-70.5 -167.5t-24.5 -184.5q0 -113 49 -173
t131 -60z" />
    <glyph glyph-name="epsilon" unicode="&#x3b5;" horiz-adv-x="575" 
d="M241 -20q-78 0 -131 31.5t-79.5 88t-26.5 133.5q0 96 30.5 170t86 120.5t127.5 59.5l1 5q-46 25 -69.5 80t-23.5 120q0 84 32 156t95.5 117t158.5 45q54 0 99.5 -15t79.5 -42l-49 -74q-25 21 -58.5 34t-74.5 13q-88 0 -140 -67.5t-52 -170.5q0 -81 34 -124.5t105 -43.5
h45l-18 -80h-63q-90 0 -145 -43.5t-79.5 -111.5t-24.5 -138q0 -89 40 -134.5t116 -45.5q49 0 89.5 13.5t82.5 38.5v-87q-38 -21 -85.5 -34.5t-102.5 -13.5z" />
    <glyph glyph-name="zeta" unicode="&#x3b6;" horiz-adv-x="554" 
d="M112 -422q39 41 78.5 91t65.5 104.5t26 104.5q0 44 -26 77t-72 67q-47 36 -82 73.5t-54 89.5t-19 129q0 141 47 287.5t129 294.5t188.5 294t224.5 287q-32 -2 -67.5 -3t-80.5 -1h-162l18 83h420l-17 -75q-121 -143 -229.5 -291.5t-192.5 -296t-132 -289t-48 -270.5
q0 -60 15.5 -102t47 -76.5t77.5 -71.5q33 -24 59 -50t40.5 -58.5t14.5 -76.5q0 -57 -24 -115t-60.5 -110.5t-76.5 -95.5h-108z" />
    <glyph glyph-name="eta" unicode="&#x3b7;" horiz-adv-x="779" 
d="M333 -492l252 1182q11 55 22 113.5t11 105.5q0 55 -29 82.5t-79 27.5q-71 0 -124 -48.5t-92 -144t-70 -237.5l-123 -589h-94l229 1085h76l-25 -154h4q26 55 63 94t83 60t97 21q52 0 92.5 -20t63.5 -60t23 -102q0 -46 -12 -112.5t-24 -125.5l-251 -1178h-93z" />
    <glyph glyph-name="theta" unicode="&#x3b8;" horiz-adv-x="793" 
d="M283 -23q-72 0 -121.5 38t-74 119t-24.5 213q0 64 7 144t21.5 171.5t34.5 187.5q29 132 71 261t99 234.5t130 168.5t162 63q73 0 120.5 -35.5t71 -111.5t23.5 -196q0 -82 -11 -185t-31 -212.5t-48 -212.5q-32 -127 -74.5 -243.5t-96 -207.5t-118 -143.5t-141.5 -52.5z
M285 60q65 0 120 58t101 158t82 225.5t65 260.5h-448q-26 -128 -38.5 -237t-12.5 -183q0 -160 35 -221t96 -61zM221 844h446q20 118 31 220.5t11 176.5q0 140 -29.5 197t-96.5 57q-62 0 -115 -53t-98.5 -144t-82.5 -208t-66 -246z" />
    <glyph glyph-name="iota" unicode="&#x3b9;" horiz-adv-x="398" 
d="M172 -20q-64 0 -97.5 34t-33.5 98q0 22 4.5 53.5t13.5 71.5l182 848h92l-183 -853q-9 -34 -12.5 -58.5t-3.5 -45.5q0 -32 14.5 -47.5t44.5 -15.5q20 0 39 3.5t37 11.5v-80q-20 -9 -45 -14.5t-52 -5.5z" />
    <glyph glyph-name="kappa" unicode="&#x3ba;" horiz-adv-x="644" 
d="M6 0l236 1085h92l-72 -322q-13 -57 -27.5 -122t-29.5 -122h3l426 567h102l-320 -428l111 -658h-96l-94 575l-157 -188l-81 -387h-93z" />
    <glyph glyph-name="lambda" unicode="&#x3bb;" horiz-adv-x="637" 
d="M500 -20q-47 0 -77 19.5t-43.5 63t-12.5 112.5l8 567q3 53 3 93.5t3 90.5q-5 -18 -11.5 -36t-13.5 -36t-14.5 -36.5t-16.5 -36.5l-332 -781h-95l477 1096l4 269q2 65 -16.5 93t-62.5 28q-16 0 -29.5 -3t-25.5 -9v83q13 4 32.5 8.5t45.5 4.5q52 0 85 -22t48.5 -66.5
t14.5 -113.5l-14 -1178q-1 -44 4.5 -72t19 -40t34.5 -12q15 0 28.5 2t23.5 6v-82q-10 -5 -30 -8.5t-37 -3.5z" />
    <glyph glyph-name="uni03BC" unicode="&#x3bc;" horiz-adv-x="779" 
d="M-99 -492l333 1577h93l-147 -698q-11 -54 -18 -99t-7 -81q0 -65 30 -102.5t89 -37.5q68 0 116 46t83.5 141t65.5 239l126 592h93l-229 -1085h-74l18 131h-4q-24 -49 -56 -82.5t-70 -51t-85 -17.5q-63 0 -97 30.5t-49 73.5h-4q-2 -21 -5.5 -42.5t-7.5 -42.5t-8 -43
l-95 -448h-91z" />
    <glyph glyph-name="nu" unicode="&#x3bd;" horiz-adv-x="647" 
d="M121 0l15 1085h93l-12 -741q-1 -62 -2.5 -119t-3.5 -109q93 125 172.5 282t139.5 332.5t95 354.5h94q-36 -192 -102.5 -381.5t-162.5 -367.5t-222 -336h-104z" />
    <glyph glyph-name="xi" unicode="&#x3be;" horiz-adv-x="576" 
d="M111 -422q40 41 80.5 92.5t67.5 106t27 105.5q-1 44 -25 75.5t-71 64.5q-50 36 -86 76t-55 97t-19 144q0 120 37 224.5t108.5 176t173.5 90.5l1 4q-68 34 -96.5 88t-28.5 137q0 67 18.5 134t54.5 125t88.5 100.5t118.5 60.5q-33 -3 -63.5 -4.5t-56.5 -1.5h-94l17 83h422
l-18 -77h-29q-70 0 -127 -24t-101 -66t-74 -95.5t-44.5 -112.5t-14.5 -117q0 -99 46 -148t137 -49h50l-16 -84h-68q-112 0 -189 -58.5t-116.5 -156.5t-39.5 -218q0 -68 15 -112t45 -78t79 -71q35 -24 61 -50t40.5 -58t14.5 -80q0 -57 -23 -114.5t-60 -110.5t-79 -98h-108z
" />
    <glyph glyph-name="omicron" unicode="&#x3bf;" horiz-adv-x="772" 
d="M284 -20q-71 0 -122.5 33.5t-79 103t-27.5 175.5q0 78 14 183t45.5 215t82.5 204.5t124.5 153t170.5 58.5q72 0 121.5 -35t76.5 -105t27 -176q0 -96 -16 -206.5t-50 -217.5t-85.5 -194t-122 -139.5t-159.5 -52.5zM293 64q66 0 118.5 49.5t92.5 130.5t66 178t39 193.5
t13 175.5q0 76 -15.5 127.5t-46.5 77.5t-77 26q-70 0 -124 -53.5t-93.5 -139t-65 -185t-38 -193t-12.5 -160.5q0 -113 36 -170t107 -57z" />
    <glyph glyph-name="pi" unicode="&#x3c0;" horiz-adv-x="777" 
d="M553 -9q-56 0 -91.5 32t-35.5 102q0 28 6 64t13 72l157 742h-274l-218 -1003h-93l218 1003h-139l11 46l91 36h641l-16 -82h-129l-158 -747q-8 -35 -12 -63t-4 -53q0 -31 15 -47t46 -16q16 0 33 4t26 6v-78q-17 -7 -39.5 -12.5t-47.5 -5.5z" />
    <glyph glyph-name="rho" unicode="&#x3c1;" horiz-adv-x="794" 
d="M-95 -492l243 1157q31 149 74 246.5t109 146t169 48.5q79 0 132.5 -37.5t81.5 -110t28 -178.5q0 -86 -16 -192t-49.5 -212.5t-85 -196.5t-122.5 -144.5t-163 -54.5q-68 0 -116.5 24t-78.5 60q-4 -27 -10 -56t-13 -64l-91 -436h-92zM298 63q71 0 127 48.5t97.5 128.5
t69 175t40.5 189.5t13 172.5q0 121 -39 182.5t-119 61.5q-69 0 -115 -42.5t-78 -127.5t-58 -213l-102 -486q24 -37 67 -63t97 -26z" />
    <glyph glyph-name="uni03C2" unicode="&#x3c2;" horiz-adv-x="572" 
d="M136 -422q46 49 85 100t62 101t23 96q0 30 -11 54.5t-31.5 47t-52.5 45.5q-53 40 -88.5 82.5t-53 104t-17.5 158.5q0 91 18 192.5t55 198.5t91.5 175.5t125.5 125.5t160 47q47 0 83.5 -9t64.5 -23l-35 -80q-23 11 -50.5 18.5t-62.5 7.5q-69 0 -125 -46t-99 -120.5
t-71.5 -162t-43 -172t-14.5 -146.5q0 -73 14 -123.5t44 -87t76 -72.5q35 -27 62.5 -54.5t42.5 -61.5t15 -83q0 -52 -22.5 -107.5t-58.5 -108t-76 -97.5h-110z" />
    <glyph glyph-name="sigma" unicode="&#x3c3;" horiz-adv-x="785" 
d="M289 -20q-110 0 -170.5 82.5t-60.5 243.5q0 98 16.5 206t52.5 209.5t93.5 184t137.5 131t184 48.5h318l-16 -84h-166q8 -41 14.5 -96t6.5 -111q0 -99 -13.5 -210.5t-43 -218t-77 -194t-116.5 -139.5t-160 -52zM299 63q69 0 120 48.5t87 129.5t58.5 180t32 201t9.5 192
q0 52 -2.5 101.5t-7.5 85.5h-59q-101 0 -174.5 -65.5t-119.5 -171t-67.5 -226t-21.5 -230.5q0 -125 37 -185t108 -60z" />
    <glyph glyph-name="tau" unicode="&#x3c4;" horiz-adv-x="488" 
d="M247 -24q-74 0 -118.5 41t-44.5 123q0 29 4.5 67.5t18.5 92.5l150 702h-182l10 45l90 38h404l-16 -83h-214l-150 -717q-10 -41 -15.5 -71t-5.5 -59q0 -47 25 -70.5t68 -23.5q24 0 44.5 5t39.5 11v-80q-23 -10 -50 -15.5t-58 -5.5z" />
    <glyph glyph-name="upsilon" unicode="&#x3c5;" horiz-adv-x="775" 
d="M258 -19q-97 0 -149.5 56t-52.5 155q0 53 10.5 118.5t26.5 140.5l137 634h93l-139 -641q-15 -68 -25 -131t-10 -111q0 -66 32 -101.5t86 -35.5q69 0 121.5 46t92 126.5t67 183t44 217.5t24.5 230t8 217h93q-1 -146 -15 -301t-45 -298.5t-84 -257t-130.5 -180.5
t-184.5 -67z" />
    <glyph glyph-name="phi" unicode="&#x3c6;" horiz-adv-x="981" 
d="M220 -492l97 471q-73 11 -130.5 55t-89.5 123.5t-32 195.5q0 146 36.5 281t104 253.5t162.5 213.5l62 -55q-80 -85 -140.5 -190.5t-95 -231t-34.5 -271.5q0 -93 22 -154.5t62 -95t92 -41.5l163 781q27 128 80 197.5t144 69.5q93 0 144.5 -73t51.5 -216q0 -103 -18 -216.5
t-57 -223t-98.5 -199t-143.5 -145t-194 -60.5l-96 -469h-92zM427 60q89 10 155 63.5t112 137t74.5 181.5t41.5 196t13 181q0 104 -27 155.5t-78 51.5q-48 0 -77.5 -44.5t-50.5 -149.5z" />
    <glyph glyph-name="chi" unicode="&#x3c7;" horiz-adv-x="618" 
d="M-236 -492l445 845l2 543q1 59 -12.5 87.5t-48.5 28.5q-13 0 -25.5 -2t-24.5 -7l3 82q14 6 32.5 8.5t41.5 2.5q70 0 98 -46t28 -132l-7 -436l298 603h100l-392 -761l-2 -613q-1 -61 11.5 -89.5t48.5 -28.5q15 0 28 3.5t23 7.5l-1 -81q-16 -6 -34 -10.5t-40 -4.5
q-44 0 -72.5 20t-41 61t-13.5 104l7 504l-352 -689h-100z" />
    <glyph glyph-name="psi" unicode="&#x3c8;" horiz-adv-x="890" 
d="M179 -492l101 471q-104 10 -167 80.5t-63 199.5q0 57 10 120.5t25 136.5l123 569h93l-125 -577q-14 -66 -24.5 -127t-10.5 -119q0 -96 42.5 -143.5t113.5 -55.5l319 1501h90l-318 -1501q91 2 155.5 68.5t107 176t67.5 243.5t37 273.5t15 260.5h90q-4 -138 -17 -290.5
t-44 -297t-85.5 -262t-139 -187t-204.5 -71.5l-99 -469h-92z" />
    <glyph glyph-name="omega" unicode="&#x3c9;" horiz-adv-x="891" 
d="M180 -20q-67 0 -112 58t-45 187q0 136 34 287.5t91.5 299t125.5 273.5h95q-71 -131 -128 -282t-90 -301t-33 -278q0 -86 22.5 -121.5t60.5 -35.5q66 0 101.5 78.5t73.5 265.5l55 263h92l-56 -263q-13 -63 -21 -106.5t-11.5 -75.5t-3.5 -63q0 -48 18 -73.5t50 -25.5
q50 0 91 53.5t71.5 141t50.5 193.5t29.5 213t9.5 196q0 62 -2.5 122.5t-5.5 98.5h90q4 -36 8.5 -97.5t4.5 -126.5q0 -100 -12.5 -218.5t-38 -235t-67 -213.5t-99.5 -155.5t-136 -58.5q-42 0 -71 17.5t-44 49.5t-15 75q-28 -66 -70.5 -104t-112.5 -38z" />
    <glyph glyph-name="iotadieresis" unicode="&#x3ca;" horiz-adv-x="398" 
d="M172 -20q-64 0 -97.5 34t-33.5 98q0 22 4.5 53.5t13.5 71.5l182 848h92l-183 -853q-9 -34 -12.5 -58.5t-3.5 -45.5q0 -32 14.5 -47.5t44.5 -15.5q20 0 39 3.5t37 11.5v-80q-20 -9 -45 -14.5t-52 -5.5zM451 1313q-23 0 -36.5 14t-13.5 44q0 35 20 69t55 34
q22 0 34.5 -14.5t12.5 -41.5q0 -38 -19 -71.5t-53 -33.5zM174 1313q-22 0 -35.5 14t-13.5 44q0 35 20 69t54 34q15 0 25.5 -6t16.5 -18.5t6 -31.5q0 -38 -19.5 -71.5t-53.5 -33.5z" />
    <glyph glyph-name="upsilondieresis" unicode="&#x3cb;" horiz-adv-x="775" 
d="M258 -19q-97 0 -149.5 56t-52.5 155q0 53 10.5 118.5t26.5 140.5l137 634h93l-139 -641q-15 -68 -25 -131t-10 -111q0 -66 32 -101.5t86 -35.5q69 0 121.5 46t92 126.5t67 183t44 217.5t24.5 230t8 217h93q-1 -146 -15 -301t-45 -298.5t-84 -257t-130.5 -180.5
t-184.5 -67zM647 1313q-23 0 -36.5 14t-13.5 44q0 35 20 69t55 34q22 0 34.5 -14.5t12.5 -41.5q0 -38 -19 -71.5t-53 -33.5zM370 1313q-22 0 -35.5 14t-13.5 44q0 35 20 69t54 34q15 0 25.5 -6t16.5 -18.5t6 -31.5q0 -38 -19.5 -71.5t-53.5 -33.5z" />
    <glyph glyph-name="omicrontonos" unicode="&#x3cc;" horiz-adv-x="772" 
d="M284 -20q-71 0 -122.5 33.5t-79 103t-27.5 175.5q0 78 14 183t45.5 215t82.5 204.5t124.5 153t170.5 58.5q72 0 121.5 -35t76.5 -105t27 -176q0 -96 -16 -206.5t-50 -217.5t-85.5 -194t-122 -139.5t-159.5 -52.5zM293 64q66 0 118.5 49.5t92.5 130.5t66 178t39 193.5
t13 175.5q0 76 -15.5 127.5t-46.5 77.5t-77 26q-70 0 -124 -53.5t-93.5 -139t-65 -185t-38 -193t-12.5 -160.5q0 -113 36 -170t107 -57zM432 1241l4 20q20 33 44 78t48.5 94.5t45.5 96t35 80.5h109l-4 -21q-13 -24 -43.5 -71t-66.5 -102t-68.5 -102.5t-50.5 -72.5h-53z" />
    <glyph glyph-name="upsilontonos" unicode="&#x3cd;" horiz-adv-x="775" 
d="M258 -19q-97 0 -149.5 56t-52.5 155q0 53 10.5 118.5t26.5 140.5l137 634h93l-139 -641q-15 -68 -25 -131t-10 -111q0 -66 32 -101.5t86 -35.5q69 0 121.5 46t92 126.5t67 183t44 217.5t24.5 230t8 217h93q-1 -146 -15 -301t-45 -298.5t-84 -257t-130.5 -180.5
t-184.5 -67zM451 1241l4 20q20 33 44 78t48.5 94.5t45.5 96t35 80.5h109l-4 -21q-13 -24 -43.5 -71t-66.5 -102t-68.5 -102.5t-50.5 -72.5h-53z" />
    <glyph glyph-name="omegatonos" unicode="&#x3ce;" horiz-adv-x="891" 
d="M180 -20q-67 0 -112 58t-45 187q0 136 34 287.5t91.5 299t125.5 273.5h95q-71 -131 -128 -282t-90 -301t-33 -278q0 -86 22.5 -121.5t60.5 -35.5q66 0 101.5 78.5t73.5 265.5l55 263h92l-56 -263q-13 -63 -21 -106.5t-11.5 -75.5t-3.5 -63q0 -48 18 -73.5t50 -25.5
q50 0 91 53.5t71.5 141t50.5 193.5t29.5 213t9.5 196q0 62 -2.5 122.5t-5.5 98.5h90q4 -36 8.5 -97.5t4.5 -126.5q0 -100 -12.5 -218.5t-38 -235t-67 -213.5t-99.5 -155.5t-136 -58.5q-42 0 -71 17.5t-44 49.5t-15 75q-28 -66 -70.5 -104t-112.5 -38zM499 1241l4 20
q20 33 44 78t48.5 94.5t45.5 96t35 80.5h109l-4 -21q-13 -24 -43.5 -71t-66.5 -102t-68.5 -102.5t-50.5 -72.5h-53z" />
    <glyph glyph-name="uni03D1" unicode="&#x3d1;" horiz-adv-x="871" 
d="M262 -20q-59 0 -104.5 22t-72 69t-26.5 122q0 81 19 157.5t44 153.5q23 66 41 125t18 103q0 33 -13.5 50.5t-40.5 17.5q-22 0 -42.5 -7.5t-37.5 -17.5l-1 85q21 10 49 17.5t61 7.5q51 0 85.5 -32.5t34.5 -100.5q0 -51 -19.5 -115.5t-44.5 -136.5q-25 -79 -41.5 -154.5
t-16.5 -144.5q0 -68 30 -103.5t88 -35.5q55 0 104 35.5t93 104t80.5 166.5t67 223.5t54.5 276.5q-110 0 -196.5 35t-135 111t-48.5 199q0 96 31.5 179.5t93.5 135t152 51.5q76 0 126.5 -36.5t75 -116t24.5 -207.5q0 -71 -4.5 -135.5t-10.5 -132.5h126l-18 -84h-123
q-26 -165 -60 -303.5t-77.5 -246.5t-98 -183t-121 -114.5t-145.5 -39.5zM684 951q9 71 13 135t4 128q0 135 -30.5 208.5t-106.5 73.5q-55 0 -95 -38t-62 -101.5t-22 -139.5q0 -99 38 -157.5t105.5 -83t155.5 -25.5z" />
    <glyph glyph-name="uni03D2" unicode="&#x3d2;" horiz-adv-x="611" 
d="M137 0l120 567l-87 895h96l63 -760q41 90 81.5 175t78.5 166t75 155.5t71 142.5q36 70 68.5 102t93.5 32q19 0 32.5 -3.5t21.5 -7.5l-9 -84q-8 4 -17 6t-20 2q-36 0 -59.5 -26t-53.5 -87q-42 -83 -83 -168.5t-83.5 -175t-86.5 -181t-87 -186.5l-121 -564h-94z" />
    <glyph glyph-name="uni03D6" unicode="&#x3d6;" horiz-adv-x="912" 
d="M188 -20q-67 0 -112 58t-45 187q0 122 29 258t77 270t106 248h-153l10 48l97 36h807l-18 -84h-141q2 -33 4 -75.5t2 -83.5q0 -99 -12.5 -214.5t-38.5 -229.5t-67 -209t-98.5 -152t-132.5 -57q-61 0 -95.5 37t-34.5 110q-30 -70 -70.5 -108.5t-113.5 -38.5zM209 67
q46 0 75.5 38t53 114.5t46.5 191.5l52 247h91l-51 -247q-13 -63 -21.5 -106t-12 -75.5t-3.5 -63.5q0 -48 18 -73.5t50 -25.5q51 0 91 52t70 138t50.5 189t30 207.5t9.5 190.5q0 40 -1 81.5t-2 75.5h-418q-61 -120 -108 -255.5t-75 -270t-28 -251.5q0 -86 22.5 -121.5
t60.5 -35.5z" />
    <glyph glyph-name="uni0400" unicode="&#x400;" horiz-adv-x="714" 
d="M2 0l311 1462h487l-18 -87h-392l-120 -564h367l-21 -88h-366l-135 -635h392l-17 -88h-488zM588 1624q-27 38 -59.5 91.5t-62 110.5t-47.5 106v16h99q19 -53 38 -105t39.5 -101.5t46.5 -99.5l-2 -18h-52z" />
    <glyph glyph-name="uni0401" unicode="&#x401;" horiz-adv-x="714" 
d="M2 0l311 1462h487l-18 -87h-392l-120 -564h367l-21 -88h-366l-135 -635h392l-17 -88h-488zM710 1651q-23 0 -36.5 14t-13.5 44q0 35 20 69t55 34q22 0 34.5 -14.5t12.5 -41.5q0 -38 -19 -71.5t-53 -33.5zM433 1651q-22 0 -35.5 14t-13.5 44q0 35 20 69t54 34
q15 0 25.5 -6t16.5 -18.5t6 -31.5q0 -38 -19.5 -71.5t-53.5 -33.5z" />
    <glyph glyph-name="uni0402" unicode="&#x402;" horiz-adv-x="834" 
d="M409 -20q-37 0 -68.5 6.5t-55.5 15.5l18 88q20 -9 45.5 -16t57.5 -7q56 0 89.5 28.5t52 73.5t28.5 97l61 278q6 27 9.5 58t3.5 60q0 57 -35.5 89t-130.5 32h-127l-168 -783h-95l293 1374h-205l19 88h554l-19 -88h-255l-106 -502h125q130 0 188.5 -51t58.5 -146
q0 -32 -5 -65t-12 -66l-64 -299q-16 -76 -45.5 -136t-80.5 -94.5t-131 -34.5z" />
    <glyph glyph-name="uni0403" unicode="&#x403;" horiz-adv-x="594" 
d="M2 0l311 1462h445l-18 -88h-351l-292 -1374h-95zM427 1618l-1 17q50 52 95.5 107t83 108t60.5 96h111v-17q-22 -32 -58 -74.5t-78.5 -87.5t-84.5 -84.5t-76 -64.5h-52z" />
    <glyph glyph-name="uni0404" unicode="&#x404;" horiz-adv-x="772" 
d="M390 -20q-105 0 -174.5 50t-104.5 156.5t-35 271.5q0 118 24.5 256.5t73 274.5t122.5 248.5t173.5 180t224.5 67.5q66 0 114.5 -15.5t82.5 -43.5l-53 -79q-26 25 -63.5 37.5t-82.5 12.5q-92 0 -167 -50.5t-133.5 -135.5t-101 -189t-69.5 -209h412l-18 -88h-414
q-13 -71 -20 -138t-7 -126q0 -134 24 -221.5t74.5 -130t132.5 -42.5q25 0 52 5t56.5 13.5t59.5 21.5v-90q-29 -11 -61 -19.5t-62.5 -13t-59.5 -4.5z" />
    <glyph glyph-name="uni0405" unicode="&#x405;" horiz-adv-x="725" 
d="M203 -20q-83 0 -148.5 16.5t-108.5 41.5l8 101q48 -29 112 -49t141 -20q67 0 121 20.5t92 61t58.5 99t20.5 133.5q0 61 -16 110t-52 100.5t-97 117.5q-53 60 -93 114.5t-62 117.5t-22 146q0 95 28 168t79 123t120 76t153 26q76 0 143 -21t107 -48l-48 -87
q-39 26 -91.5 46t-118.5 20q-59 0 -109 -19t-87 -56.5t-57 -92t-20 -125.5q0 -67 19 -120.5t58 -106t99 -118.5q52 -55 89 -110.5t57.5 -117.5t20.5 -136q0 -95 -27.5 -170.5t-78.5 -129.5t-124 -82.5t-166 -28.5z" />
    <glyph glyph-name="uni0406" unicode="&#x406;" horiz-adv-x="373" 
d="M2 0l311 1462h93l-310 -1462h-94z" />
    <glyph glyph-name="uni0407" unicode="&#x407;" horiz-adv-x="373" 
d="M2 0l311 1462h93l-310 -1462h-94zM550 1696q-23 0 -36.5 14t-13.5 44q0 35 20 69t55 34q22 0 34.5 -14.5t12.5 -41.5q0 -38 -19 -71.5t-53 -33.5zM273 1696q-22 0 -35.5 14t-13.5 44q0 35 20 69t54 34q15 0 25.5 -6t16.5 -18.5t6 -31.5q0 -38 -19.5 -71.5t-53.5 -33.5z
" />
    <glyph glyph-name="uni0408" unicode="&#x408;" horiz-adv-x="352" 
d="M-179 -367q-36 0 -65 6.5t-51 16.5l25 85q20 -9 43.5 -15t48.5 -6q47 0 78.5 25t54.5 79t42 139l317 1499h95l-322 -1521q-22 -106 -56.5 -174.5t-86 -101t-123.5 -32.5z" />
    <glyph glyph-name="uni0409" unicode="&#x409;" horiz-adv-x="1287" 
d="M-17 -10q-25 0 -46 4t-35 8v89q15 -5 32.5 -10t39.5 -5q40 0 68 17.5t52.5 57.5t49.5 109q31 80 74.5 209.5t94 292t103.5 342t106 358.5h411l-139 -651h72q105 0 174.5 -34t105.5 -101t36 -167q0 -84 -22 -173t-72 -165t-135 -123.5t-212 -47.5h-213l291 1371h-234
q-43 -154 -93.5 -322.5t-99.5 -326.5t-92 -287t-73 -205q-29 -82 -63 -135.5t-77.5 -79t-103.5 -25.5zM641 87h106q100 0 165.5 38.5t103.5 100.5t53 135t15 143q0 116 -58.5 168t-176.5 52h-72z" />
    <glyph glyph-name="uni040A" unicode="&#x40a;" horiz-adv-x="1209" 
d="M4 0l309 1462h95l-138 -650h362l139 650h93l-135 -651h43q107 0 180 -36.5t110.5 -106t37.5 -170.5q0 -115 -30.5 -207t-88 -157t-140 -99.5t-185.5 -34.5h-192l151 724h-363l-154 -724h-94zM577 87h100q104 0 176 50t110 142.5t38 217.5q0 116 -61.5 171.5t-188.5 55.5
h-38z" />
    <glyph glyph-name="uni040B" unicode="&#x40b;" horiz-adv-x="852" 
d="M98 0l293 1374h-205l18 88h554l-18 -88h-255l-106 -502h125q129 0 186 -51.5t57 -144.5q0 -35 -5.5 -70t-10.5 -66l-117 -540h-95l117 544q6 29 10 59.5t4 60.5q0 58 -36 88.5t-129 30.5h-125l-167 -783h-95z" />
    <glyph glyph-name="uni040C" unicode="&#x40c;" horiz-adv-x="724" 
d="M4 0l309 1462h95l-149 -706l521 706h112l-536 -714l238 -748h-103l-234 747l-159 -747h-94zM493 1618l-1 17q50 52 95.5 107t83 108t60.5 96h111v-17q-22 -32 -58 -74.5t-78.5 -87.5t-84.5 -84.5t-76 -64.5h-52z" />
    <glyph glyph-name="uni040D" unicode="&#x40d;" horiz-adv-x="977" 
d="M2 0l311 1462h94l-186 -877q-15 -72 -29 -135t-28 -124.5t-31 -128.5h5l774 1265h110l-310 -1462h-94l174 828q20 88 36 163.5t31.5 142.5t31.5 127l-4 -1l-769 -1260h-116zM721 1624q-27 38 -59.5 91.5t-62 110.5t-47.5 106v16h99q19 -53 38 -105t39.5 -101.5
t46.5 -99.5l-2 -18h-52z" />
    <glyph glyph-name="uni040E" unicode="&#x40e;" horiz-adv-x="610" 
d="M-18 -17q-27 0 -48.5 4.5t-36.5 12.5v88q16 -10 35 -14.5t42 -4.5q33 0 59.5 14t53.5 52.5t62.5 110t84.5 186.5l-67 1030h95l39 -690q2 -37 4 -75.5t4 -73.5t2 -63q17 44 38.5 97t45.5 103l314 702h101l-537 -1173q-49 -108 -92 -175.5t-90 -99t-109 -31.5zM525 1619
q-66 0 -112.5 24t-71.5 68.5t-25 105.5q0 17 1.5 36.5t4.5 36.5h82q-2 -15 -4 -33.5t-2 -37.5q0 -64 34.5 -97t97.5 -33q88 0 130.5 54.5t57.5 146.5h85q-16 -89 -51.5 -149.5t-92 -91t-134.5 -30.5z" />
    <glyph glyph-name="uni040F" unicode="&#x40f;" horiz-adv-x="922" 
d="M208 -367l77 367h-279l311 1462h95l-293 -1374h457l294 1374h95l-313 -1462h-273l-78 -367h-93z" />
    <glyph glyph-name="uni0410" unicode="&#x410;" horiz-adv-x="728" 
d="M-136 0l605 1468h120v-1468h-97l2 539h-307l-221 -539h-102zM219 626h276l7 573q0 45 1.5 85.5t3.5 71.5h-5q-10 -30 -23 -68.5t-34 -90.5z" />
    <glyph glyph-name="uni0411" unicode="&#x411;" horiz-adv-x="776" 
d="M4 0l309 1462h512l-19 -91h-416l-119 -560h83q106 0 178 -35.5t109 -104.5t37 -173q0 -115 -31 -207t-88.5 -157t-139.5 -99.5t-186 -34.5h-229zM116 87h137q105 0 178 50t111 142.5t38 217.5q0 117 -63.5 172t-189.5 55h-75z" />
    <glyph glyph-name="uni0412" unicode="&#x412;" horiz-adv-x="809" 
d="M5 0l308 1462h221q91 0 155 -32.5t97.5 -93.5t33.5 -147q0 -93 -30.5 -181.5t-93.5 -153t-162 -87.5v-5q78 -19 123.5 -89.5t45.5 -177.5q0 -136 -48.5 -248.5t-146 -179.5t-247.5 -67h-256zM118 87h145q125 0 199.5 58.5t108 151.5t33.5 195q0 125 -61 178.5t-162 53.5
h-128zM270 810h132q112 0 182 54t103 139t33 175q0 97 -50 147.5t-155 50.5h-126z" />
    <glyph glyph-name="uni0413" unicode="&#x413;" horiz-adv-x="594" 
d="M2 0l311 1462h445l-18 -88h-351l-292 -1374h-95z" />
    <glyph glyph-name="uni0414" unicode="&#x414;" horiz-adv-x="862" 
d="M-184 -366l99 454h80q74 130 145.5 287.5t136.5 335t119.5 367.5t96.5 384h404l-295 -1374h111l-96 -454h-95l79 366h-613l-78 -366h-94zM98 88h409l277 1288h-219q-40 -179 -93 -358.5t-115 -348.5t-128 -317t-131 -264z" />
    <glyph glyph-name="uni0415" unicode="&#x415;" horiz-adv-x="714" 
d="M2 0l311 1462h487l-18 -87h-392l-120 -564h367l-21 -88h-366l-135 -635h392l-17 -88h-488z" />
    <glyph glyph-name="uni0416" unicode="&#x416;" horiz-adv-x="1002" 
d="M-137 0l517 760l-203 702h98l200 -706l150 706h95l-150 -704l486 704h108l-501 -714l198 -748h-100l-194 750l-157 -750h-94l157 748l-501 -748h-109z" />
    <glyph glyph-name="uni0417" unicode="&#x417;" horiz-adv-x="727" 
d="M181 -22q-85 0 -141.5 15t-94.5 35v103q41 -26 97.5 -46t133.5 -20q91 0 155.5 34.5t104.5 90.5t58.5 126t18.5 141q0 142 -64 200t-174 58h-101l18 88h109q120 0 198.5 57t117 146.5t38.5 185.5q0 95 -48 149.5t-147 54.5q-77 0 -129 -27.5t-92 -60.5l-45 75
q50 39 118.5 69.5t163.5 30.5q91 0 152 -35t92.5 -97.5t31.5 -147.5q0 -107 -39 -201.5t-109.5 -158.5t-162.5 -81l-2 -6q49 -16 88 -52t61.5 -96t22.5 -147q0 -91 -26 -178t-79.5 -155.5t-134.5 -109t-190 -40.5z" />
    <glyph glyph-name="uni0418" unicode="&#x418;" horiz-adv-x="977" 
d="M2 0l311 1462h94l-186 -877q-15 -72 -29 -135t-28 -124.5t-31 -128.5h5l774 1265h110l-310 -1462h-94l174 828q20 88 36 163.5t31.5 142.5t31.5 127l-4 -1l-769 -1260h-116z" />
    <glyph glyph-name="uni0419" unicode="&#x419;" horiz-adv-x="977" 
d="M2 0l311 1462h94l-186 -877q-15 -72 -29 -135t-28 -124.5t-31 -128.5h5l774 1265h110l-310 -1462h-94l174 828q20 88 36 163.5t31.5 142.5t31.5 127l-4 -1l-769 -1260h-116zM708 1619q-66 0 -112.5 24t-71.5 68.5t-25 105.5q0 17 1.5 36.5t4.5 36.5h82q-2 -15 -4 -33.5
t-2 -37.5q0 -64 34.5 -97t97.5 -33q88 0 130.5 54.5t57.5 146.5h85q-16 -89 -51.5 -149.5t-92 -91t-134.5 -30.5z" />
    <glyph glyph-name="uni041A" unicode="&#x41a;" horiz-adv-x="724" 
d="M4 0l309 1462h95l-149 -706l521 706h112l-536 -714l238 -748h-103l-234 747l-159 -747h-94z" />
    <glyph glyph-name="uni041B" unicode="&#x41b;" horiz-adv-x="879" 
d="M-12 -10q-25 0 -47 4t-36 8v89q15 -5 33 -10t42 -5q37 0 64.5 17t49.5 50t42 85q33 83 79 220.5t98.5 307t107 351t104.5 355.5h437l-311 -1462h-95l293 1371h-261q-35 -119 -74 -254.5t-80 -270t-80.5 -259.5t-74 -227t-61.5 -168q-26 -64 -58 -110t-73 -69t-99 -23z
" />
    <glyph glyph-name="uni041C" unicode="&#x41c;" horiz-adv-x="1249" 
d="M2 0l311 1462h135l63 -1321h6l620 1321h146l-311 -1462h-94l235 1106q6 30 13 59t14.5 61t16.5 69h-4l-610 -1295h-114l-60 1296h-5q-7 -42 -13 -74.5t-11.5 -62t-11.5 -61.5l-234 -1098h-92z" />
    <glyph glyph-name="uni041D" unicode="&#x41d;" horiz-adv-x="933" 
d="M2 0l311 1462h95l-138 -650h465l140 650h94l-312 -1462h-94l154 723h-467l-153 -723h-95z" />
    <glyph glyph-name="uni041E" unicode="&#x41e;" horiz-adv-x="949" 
d="M351 -20q-92 0 -154.5 44.5t-94 135.5t-31.5 232q0 101 15 219.5t45 241.5t76 235.5t109 201.5t142.5 141t176.5 52q137 0 207 -93t70 -296q0 -94 -14 -212t-42 -243t-72.5 -242.5t-106.5 -211.5t-143 -149.5t-183 -55.5zM360 67q78 0 142 51.5t114.5 138.5t88 195
t61.5 223.5t36.5 224t12.5 193.5q0 158 -46 230t-142 72q-80 0 -145.5 -52t-116.5 -139.5t-87.5 -195.5t-61 -221t-36 -215.5t-11.5 -178.5q0 -114 21.5 -186t64.5 -106t105 -34z" />
    <glyph glyph-name="uni041F" unicode="&#x41f;" horiz-adv-x="922" 
d="M2 0l311 1462h652l-311 -1462h-94l292 1374h-463l-292 -1374h-95z" />
    <glyph glyph-name="uni0420" unicode="&#x420;" horiz-adv-x="761" 
d="M4 0l309 1462h166q105 0 174.5 -36.5t104.5 -105t35 -165.5q0 -119 -31.5 -219.5t-91.5 -174t-147 -114.5t-199 -41h-96l-130 -606h-94zM245 694h75q127 0 209.5 59.5t123 161.5t40.5 232q0 108 -53 168t-175 60h-75z" />
    <glyph glyph-name="uni0421" unicode="&#x421;" horiz-adv-x="728" 
d="M385 -20q-103 0 -171.5 50.5t-103.5 156t-35 269.5q0 112 23 249t71 274.5t121.5 252t174 184t227.5 69.5q64 0 110.5 -15.5t83.5 -43.5l-53 -79q-26 25 -62.5 37.5t-81.5 12.5q-105 0 -187.5 -65t-144.5 -170.5t-102.5 -231.5t-60.5 -249t-20 -220q0 -208 55 -301
t172 -93q37 0 78 10t89 29v-91q-48 -17 -93 -26t-90 -9z" />
    <glyph glyph-name="uni0422" unicode="&#x422;" horiz-adv-x="641" 
d="M133 0l294 1374h-258l19 88h611l-19 -88h-259l-292 -1374h-96z" />
    <glyph glyph-name="uni0423" unicode="&#x423;" horiz-adv-x="610" 
d="M-18 -17q-27 0 -48.5 4.5t-36.5 12.5v88q16 -10 35 -14.5t42 -4.5q33 0 59.5 14t53.5 52.5t62.5 110t84.5 186.5l-67 1030h95l39 -690q2 -37 4 -75.5t4 -73.5t2 -63q17 44 38.5 97t45.5 103l314 702h101l-537 -1173q-49 -108 -92 -175.5t-90 -99t-109 -31.5z" />
    <glyph glyph-name="uni0424" unicode="&#x424;" horiz-adv-x="1079" 
d="M340 -20l49 226q-93 11 -160.5 56t-103.5 128.5t-36 208.5q0 155 37 283.5t106.5 221.5t168.5 144.5t222 54.5l36 180h93l-36 -180q90 -8 157 -51t105 -125t38 -206q0 -157 -38.5 -287t-110 -225.5t-169 -147.5t-216.5 -55l-49 -226h-93zM406 292l198 925
q-118 -4 -199 -62.5t-129.5 -151.5t-69.5 -199t-21 -204q0 -103 27.5 -168.5t77.5 -98.5t116 -41zM500 291q104 4 182.5 57t130.5 142t79 200t27 229q0 106 -29 169t-78.5 94t-114.5 35z" />
    <glyph glyph-name="uni0425" unicode="&#x425;" horiz-adv-x="673" 
d="M-120 0l439 774l-85 688h96l66 -600l321 600h102l-389 -705l83 -757h-100l-60 662l-371 -662h-102z" />
    <glyph glyph-name="uni0426" unicode="&#x426;" horiz-adv-x="937" 
d="M586 -366l80 366h-652l312 1462h94l-291 -1374h442l292 1374h95l-293 -1374h115l-100 -454h-94z" />
    <glyph glyph-name="uni0427" unicode="&#x427;" horiz-adv-x="904" 
d="M516 0l132 628q-58 -37 -130.5 -64.5t-138.5 -27.5q-76 0 -128 28t-77 78.5t-25 119.5q0 36 5.5 76t15.5 83l116 541h95l-116 -535q-9 -47 -14 -79t-5 -66q0 -78 40 -118t118 -40q69 0 136 26.5t126 62.5l158 749h95l-308 -1462h-95z" />
    <glyph glyph-name="uni0428" unicode="&#x428;" horiz-adv-x="1260" 
d="M2 0l312 1462h95l-295 -1374h366l293 1374h95l-294 -1374h365l294 1374h95l-312 -1462h-1014z" />
    <glyph glyph-name="uni0429" unicode="&#x429;" horiz-adv-x="1301" 
d="M956 -366l79 366h-1033l312 1462h95l-295 -1374h366l294 1374h94l-294 -1374h364l295 1374h96l-295 -1374h115l-100 -454h-93z" />
    <glyph glyph-name="uni042A" unicode="&#x42a;" horiz-adv-x="898" 
d="M116 0l289 1368h-263l22 94h356l-138 -651h85q106 0 177.5 -35t108.5 -104t37 -174q0 -113 -30.5 -204.5t-86.5 -157t-134.5 -101t-176.5 -35.5h-246zM228 87h137q106 0 179 50t110.5 142.5t37.5 217.5q0 117 -61 172t-173 55h-92z" />
    <glyph glyph-name="uni042B" unicode="&#x42b;" horiz-adv-x="1149" 
d="M4 0l307 1462h95l-136 -651h95q105 0 174.5 -33.5t105 -101t35.5 -168.5q0 -84 -22 -173.5t-72.5 -165t-136 -122.5t-211.5 -47h-234zM116 87h127q101 0 166.5 38.5t103.5 100.5t53.5 135t15.5 143q0 116 -59 168t-178 52h-93zM768 0l313 1462h95l-312 -1462h-96z" />
    <glyph glyph-name="uni042C" unicode="&#x42c;" horiz-adv-x="783" 
d="M4 0l307 1462h95l-136 -651h94q104 0 174.5 -34t106 -101t35.5 -168q0 -84 -22.5 -173.5t-72.5 -165t-135.5 -122.5t-210.5 -47h-235zM116 87h127q101 0 166.5 38.5t103.5 100.5t53.5 135t15.5 143q0 116 -59.5 168t-175.5 52h-95z" />
    <glyph glyph-name="uni042D" unicode="&#x42d;" horiz-adv-x="777" 
d="M142 -20q-62 0 -108 10.5t-84 26.5v93q29 -13 59.5 -22.5t63.5 -15t68 -5.5q118 0 208 76.5t153 221.5t95 355h-418l19 89h412q7 57 10.5 117t3.5 117q0 122 -23.5 200t-72 116t-120.5 38q-44 0 -89.5 -13t-89.5 -40l-34 78q48 28 103.5 45.5t123.5 17.5q100 0 167 -48.5
t100.5 -146.5t33.5 -245q0 -137 -18.5 -284.5t-59.5 -286.5t-108.5 -250.5t-165 -177.5t-229.5 -66z" />
    <glyph glyph-name="uni042E" unicode="&#x42e;" horiz-adv-x="1203" 
d="M659 -20q-77 0 -129.5 37t-78.5 117.5t-26 210.5q0 70 10 169t33 209h-217l-154 -723h-95l311 1462h95l-138 -651h214q28 125 69.5 244.5t97.5 216t129.5 154t165.5 57.5q115 0 171.5 -81t56.5 -257q0 -93 -13.5 -215t-41.5 -253t-70.5 -255t-100.5 -224t-129.5 -159
t-159.5 -59zM662 67q67 0 123.5 58.5t103 155.5t81 215t58.5 240t35.5 229.5t11.5 181.5q0 131 -33.5 189.5t-105.5 58.5q-67 0 -124 -56.5t-103.5 -151.5t-81.5 -211t-59 -234t-36 -222.5t-12 -175.5q0 -102 16.5 -163t48.5 -87.5t77 -26.5z" />
    <glyph glyph-name="uni042F" unicode="&#x42f;" horiz-adv-x="785" 
d="M-105 0l445 665q-80 26 -128.5 100.5t-48.5 196.5q0 88 24 176t77 162t137 118t204 44h214l-310 -1462h-94l136 641h-121l-424 -641h-111zM468 728h101l138 648h-113q-94 0 -158 -37t-102.5 -98.5t-55.5 -133.5t-17 -141q0 -117 54 -177.5t153 -60.5z" />
    <glyph glyph-name="uni0430" unicode="&#x430;" horiz-adv-x="810" 
d="M260 -20q-65 0 -111 35t-70 103t-24 166q0 95 17 205t51.5 219t87 199t122.5 144.5t157 54.5q53 0 89.5 -23t59 -62.5t31.5 -93.5h7l40 158h78l-230 -1085h-74l25 173h-4q-34 -60 -71 -103.5t-81.5 -66.5t-99.5 -23zM283 64q77 0 131.5 58.5t93 152t63.5 197.5
q25 99 41.5 192.5t16.5 173.5q0 84 -35.5 133t-97.5 49q-66 0 -120.5 -48.5t-95.5 -129t-70 -177.5t-44 -194.5t-15 -179.5q0 -120 36 -173.5t96 -53.5z" />
    <glyph glyph-name="uni0431" unicode="&#x431;" horiz-adv-x="764" 
d="M270 -20q-69 0 -118 31.5t-76 100t-27 179.5q0 107 19 249.5t57.5 294t98.5 290t142 239.5t187 139q31 12 66 21.5t73 17t81.5 12.5t89.5 9v-87q-55 -4 -104.5 -11t-95 -17.5t-88.5 -27.5q-79 -32 -140.5 -108t-110.5 -186.5t-90 -245.5h7q38 53 98.5 88.5t129.5 35.5
q76 0 123 -37t69 -107t22 -167q0 -112 -25.5 -236t-77 -232.5t-129 -176.5t-181.5 -68zM275 64q62 0 112.5 41.5t88 110.5t62 152t37 167t12.5 154q0 104 -31 168t-109 64q-45 0 -89 -20.5t-84 -64.5t-73 -112q-25 -106 -42 -217t-17 -217q0 -78 16 -127.5t46 -74t71 -24.5z
" />
    <glyph glyph-name="uni0432" unicode="&#x432;" horiz-adv-x="799" 
d="M321 -20q-85 0 -146 34.5t-93 108t-32 190.5q0 85 15 191t48.5 211.5t88 193.5t133 142.5t184.5 54.5q70 0 120.5 -26.5t77 -75.5t26.5 -119q0 -90 -34.5 -157.5t-92 -108.5t-127.5 -54l-1 -5q67 -17 108 -78t41 -161q0 -87 -34 -165t-104 -127t-178 -49zM331 60
q77 0 124.5 37.5t69.5 96t22 124.5q0 62 -21 108.5t-64.5 73t-112.5 26.5h-183q-6 -35 -13.5 -90t-7.5 -118q0 -148 50.5 -203t135.5 -55zM181 606h183q81 0 145 31t101 93t37 151q0 68 -34.5 106t-103.5 38q-71 0 -133 -46.5t-111.5 -139.5t-83.5 -233z" />
    <glyph glyph-name="uni0433" unicode="&#x433;" horiz-adv-x="580" 
d="M223 -20q-69 0 -121 25t-81.5 75t-29.5 126q0 73 19 131t54.5 103.5t84 84.5t106.5 75q64 41 116.5 81t84.5 90.5t32 123.5q0 64 -35 94.5t-96 30.5q-50 0 -91 -15t-79 -38l-29 76q51 31 104.5 46.5t105.5 15.5q66 0 114 -23t74.5 -68.5t26.5 -114.5q0 -68 -21.5 -122
t-58 -96t-84.5 -77.5t-100 -67.5q-82 -51 -133.5 -98t-75.5 -101t-24 -125q0 -75 41 -111.5t111 -36.5q40 0 73 8t60.5 22t50.5 29v-90q-44 -25 -94.5 -39t-104.5 -14z" />
    <glyph glyph-name="uni0434" unicode="&#x434;" horiz-adv-x="789" 
d="M300 -20q-81 0 -135 35t-80.5 107.5t-26.5 181.5q0 79 13 178t42 199t76.5 184t116 135t160.5 51q47 0 82 -13t61.5 -35.5t44.5 -48.5h4q1 28 1 58.5v59.5q0 203 -51.5 310t-169.5 107q-43 0 -81 -11t-70 -29l-26 80q40 20 86.5 32t102.5 12q106 0 173 -59t99 -173
t32 -276q0 -101 -8 -219t-27 -240.5t-51.5 -234t-82.5 -200t-120.5 -140t-164.5 -51.5zM302 62q68 0 120.5 44t92.5 121t67.5 177t43.5 212t23 225q-18 44 -45.5 72.5t-61.5 41.5t-74 13q-68 0 -119.5 -45.5t-89 -119.5t-61 -163.5t-34 -177t-10.5 -157.5q0 -135 38 -189
t110 -54z" />
    <glyph glyph-name="uni0435" unicode="&#x435;" horiz-adv-x="711" 
d="M305 -20q-80 0 -136 35.5t-86 106.5t-30 178q0 165 34.5 310.5t94.5 257t139.5 175t170.5 63.5q83 0 133.5 -48t50.5 -152q0 -78 -30 -150.5t-91.5 -128t-155.5 -88.5t-222 -33h-12q-9 -44 -13.5 -92t-4.5 -101q0 -131 43.5 -191t135.5 -60q50 0 95 14.5t90 42.5v-87
q-39 -25 -90 -38.5t-116 -13.5zM178 584h9q144 0 231 45.5t127.5 118.5t40.5 153q0 58 -25 90.5t-79 32.5q-64 0 -124 -58t-106.5 -157.5t-73.5 -224.5z" />
    <glyph glyph-name="uni0436" unicode="&#x436;" horiz-adv-x="1083" 
d="M-43 -18q-21 0 -40.5 2.5t-36.5 8.5l20 85q13 -6 27 -9t33 -3q67 0 120.5 49.5t93.5 132t66.5 180t39.5 194t13 175.5q0 117 -36 170t-106 53q-9 0 -18.5 -1t-18.5 -4v84q11 4 24.5 4.5t27.5 0.5q104 0 161.5 -71.5t57.5 -229.5q0 -48 -4 -102t-14 -110h135l107 494h90
l-107 -494h138q21 95 54.5 186t82 165t113 118t147.5 44q16 0 31.5 -1.5t30.5 -4.5l-21 -86q-11 5 -21.5 6.5t-24.5 1.5q-67 0 -121 -51t-94.5 -135t-67.5 -182.5t-41 -194.5t-14 -170q0 -116 37.5 -169t109.5 -53q12 0 23.5 1.5t22.5 3.5l-1 -82q-14 -3 -28.5 -4.5
t-29.5 -1.5q-71 0 -121.5 30.5t-77.5 97t-27 171.5q0 48 6 106t15 123h-138l-107 -510h-92l110 510h-133q-23 -109 -59.5 -204.5t-86 -168.5t-112 -114t-138.5 -41z" />
    <glyph glyph-name="uni0437" unicode="&#x437;" horiz-adv-x="577" 
d="M135 -22q-61 0 -109.5 15t-79.5 38v95q36 -29 83.5 -46.5t100.5 -17.5q83 0 133 39t73 106t23 147q0 92 -43.5 137t-116.5 45h-66l19 80h64q70 0 119.5 38t76 98.5t26.5 125.5q0 70 -32 107.5t-96 37.5q-39 0 -73.5 -11t-63.5 -29l-29 74q39 23 84 36t98 13
q68 0 114 -26.5t68.5 -74t22.5 -115.5q0 -75 -26 -140t-72.5 -110.5t-105.5 -60.5l-1 -5q55 -17 91.5 -72t36.5 -148q0 -96 -33.5 -182t-103.5 -140t-182 -54z" />
    <glyph glyph-name="uni0438" unicode="&#x438;" horiz-adv-x="776" 
d="M231 -20q-55 0 -95.5 21t-62 61.5t-21.5 100.5q0 43 11.5 107.5t22.5 121.5l148 693h93l-148 -698q-12 -55 -22.5 -108.5t-10.5 -100.5q0 -56 29 -84t80 -28q71 0 124 48.5t92.5 144.5t68.5 238l125 588h93l-229 -1085h-75l23 152h-5q-26 -54 -63 -92.5t-82 -59
t-96 -20.5z" />
    <glyph glyph-name="uni0439" unicode="&#x439;" horiz-adv-x="776" 
d="M231 -20q-55 0 -95.5 21t-62 61.5t-21.5 100.5q0 43 11.5 107.5t22.5 121.5l148 693h93l-148 -698q-12 -55 -22.5 -108.5t-10.5 -100.5q0 -56 29 -84t80 -28q71 0 124 48.5t92.5 144.5t68.5 238l125 588h93l-229 -1085h-75l23 152h-5q-26 -54 -63 -92.5t-82 -59
t-96 -20.5zM525 1237q-66 0 -112.5 24t-71.5 68.5t-25 105.5q0 17 1.5 36.5t4.5 36.5h82q-2 -15 -4 -33.5t-2 -37.5q0 -64 34.5 -97t97.5 -33q88 0 130.5 54.5t57.5 146.5h85q-16 -89 -51.5 -149.5t-92 -91t-134.5 -30.5z" />
    <glyph glyph-name="uni043A" unicode="&#x43a;" horiz-adv-x="627" 
d="M10 0l231 1085h91l-109 -510l397 510h107l-410 -520l192 -565h-98l-191 567l-118 -567h-92z" />
    <glyph glyph-name="uni043B" unicode="&#x43b;" horiz-adv-x="709" 
d="M-34 -10q-22 0 -36.5 3t-27.5 8v84q10 -4 23 -7t31 -3q35 0 64 18t55.5 64t51.5 132.5t51 225.5q28 146 61.5 254t78 179t108.5 105.5t155 34.5q44 0 85 -4.5t78 -11.5l-227 -1072h-92l210 997q-15 2 -32 4t-38 2q-82 0 -135 -50.5t-89.5 -160.5t-73.5 -288
q-31 -147 -60 -245.5t-62.5 -157.5t-77 -84.5t-101.5 -26.5z" />
    <glyph glyph-name="uni043C" unicode="&#x43c;" horiz-adv-x="943" 
d="M5 0l236 1085h121l13 -940h4l420 940h127l-233 -1085h-91l142 650q15 69 27 125.5t30 123.5h-4l-406 -899h-86l-18 898h-4q-9 -57 -18.5 -105t-22.5 -108l-147 -685h-90z" />
    <glyph glyph-name="uni043D" unicode="&#x43d;" horiz-adv-x="793" 
d="M9 0l230 1085h93l-100 -476h345l100 476h93l-231 -1085h-93l112 525h-344l-112 -525h-93z" />
    <glyph glyph-name="uni043E" unicode="&#x43e;" horiz-adv-x="772" 
d="M284 -20q-71 0 -122.5 33.5t-79 103t-27.5 175.5q0 78 14 183t45.5 215t82.5 204.5t124.5 153t170.5 58.5q72 0 121.5 -35t76.5 -105t27 -176q0 -96 -16 -206.5t-50 -217.5t-85.5 -194t-122 -139.5t-159.5 -52.5zM293 64q66 0 118.5 49.5t92.5 130.5t66 178t39 193.5
t13 175.5q0 76 -15.5 127.5t-46.5 77.5t-77 26q-70 0 -124 -53.5t-93.5 -139t-65 -185t-38 -193t-12.5 -160.5q0 -113 36 -170t107 -57z" />
    <glyph glyph-name="uni043F" unicode="&#x43f;" horiz-adv-x="773" 
d="M7 0l229 1085h76l-26 -155h4q27 56 64 95t83 59.5t97 20.5q53 0 93.5 -19.5t63 -59.5t22.5 -102q0 -46 -12 -112.5t-25 -126.5l-145 -685h-93l147 690q11 55 21.5 113.5t10.5 105.5q0 54 -28 82t-79 28q-72 0 -124 -48t-91.5 -144t-69.5 -238l-125 -589h-93z" />
    <glyph glyph-name="uni0440" unicode="&#x440;" horiz-adv-x="797" 
d="M-89 -470l327 1555h77l-29 -178h6q34 63 71.5 107t82 68t98.5 24q67 0 112 -34.5t69 -102.5t24 -167q0 -96 -18 -206.5t-52 -219t-87 -198.5t-122 -144t-156 -54q-51 0 -87.5 21.5t-59.5 59t-33 85.5h-6q-7 -50 -17 -105t-22 -107l-87 -404h-91zM309 64q66 0 119.5 48.5
t95 129.5t70.5 178.5t44 195.5t15 181q0 119 -35.5 172.5t-96.5 53.5t-110.5 -44t-87.5 -117t-66 -160.5t-46 -175t-26.5 -161.5t-8.5 -118q0 -85 35 -134t98 -49z" />
    <glyph glyph-name="uni0441" unicode="&#x441;" horiz-adv-x="589" 
d="M296 -20q-79 0 -132 34t-79.5 105.5t-26.5 185.5q0 96 16 205.5t51 215t88 191t125.5 137.5t164.5 52q43 0 80 -8.5t65 -23.5l-35 -81q-26 14 -54.5 21t-57.5 7q-84 0 -149.5 -68.5t-110 -176.5t-67 -231t-22.5 -232q0 -90 17.5 -145t53.5 -79.5t89 -24.5q35 0 72 11
t73 29v-85q-31 -15 -72 -27t-89 -12z" />
    <glyph glyph-name="uni0442" unicode="&#x442;" horiz-adv-x="1169" 
d="M7 0l229 1085h78l-25 -144h5q27 53 61.5 89.5t77 56t90.5 19.5q77 0 120 -37.5t52 -107.5h4q25 46 58.5 78.5t76.5 49.5t95 17q77 0 128.5 -45.5t51.5 -139.5q0 -29 -6 -68.5t-12 -72.5l-166 -780h-93l164 771q9 40 13.5 73.5t4.5 56.5q0 60 -31.5 89.5t-84.5 29.5
q-47 0 -83.5 -22t-63 -59.5t-44.5 -85.5t-29 -101l-163 -752h-93l172 801q8 28 10 55t2 47q0 56 -27.5 86.5t-81.5 30.5q-59 0 -102.5 -33.5t-74.5 -92t-52.5 -135t-40.5 -162.5l-126 -597h-94z" />
    <glyph glyph-name="uni0443" unicode="&#x443;" horiz-adv-x="637" 
d="M-125 -496q-32 0 -55.5 6.5t-39.5 14.5l16 85q16 -9 35.5 -14.5t44.5 -5.5q64 0 106 46t87 148l102 235l-18 1066h92l5 -721q-1 -29 -1 -63t-0.5 -69.5t-3.5 -68.5h5q13 35 27 70t27.5 67.5t24.5 57.5l316 727h97l-586 -1326q-38 -85 -77.5 -142t-87.5 -85t-116 -28z" />
    <glyph glyph-name="uni0444" unicode="&#x444;" horiz-adv-x="890" 
d="M182 -492l99 471q-75 7 -128.5 51t-81.5 122t-28 185q0 93 15.5 197t50 203t90 181t134.5 132.5t185 55.5l94 450h90l-93 -451q112 -13 173.5 -96t61.5 -254q0 -90 -16.5 -194t-52.5 -205.5t-92 -186t-133.5 -137t-179.5 -57.5l-98 -467h-90zM297 63l203 960
q-96 -7 -164 -73.5t-112.5 -169.5t-65.5 -219.5t-21 -223.5q0 -81 20 -140t55 -93.5t85 -40.5zM389 63q79 4 138.5 55t102 130.5t69 171t39 179.5t12.5 155q0 86 -19 142.5t-53.5 88t-85.5 38.5z" />
    <glyph glyph-name="uni0445" unicode="&#x445;" horiz-adv-x="628" 
d="M-90 0l351 566l-101 519h96l77 -442l264 442h102l-330 -533l111 -552h-97l-85 473l-287 -473h-101z" />
    </font>
</defs>
</svg>
