<?xml version="1.0" standalone="no"?>
<!DOCTYPE svg PUBLIC "-//W3C//DTD SVG 1.1//EN" "http://www.w3.org/Graphics/SVG/1.1/DTD/svg11.dtd" >
<svg xmlns="http://www.w3.org/2000/svg" xmlns:xlink="http://www.w3.org/1999/xlink" version="1.1">
<metadata>
Created by FontForge 20170731 at Wed Feb 10 17:54:37 2021
 By Aleksey,,,
Copyright 2020 The Open Sans Project Authors (https://github.com/googlefonts/opensans)
</metadata>
<defs>
<font id="OpenSansCondensed-BoldItalic" horiz-adv-x="0" >
  <font-face 
    font-family="Open Sans Condensed"
    font-weight="700"
    font-style="italic"
    font-stretch="condensed"
    units-per-em="2048"
    panose-1="0 0 0 0 0 0 0 0 0 0"
    ascent="1638"
    descent="-410"
    x-height="1116"
    cap-height="1462"
    bbox="-813 -651 2021 2216"
    underline-thickness="50"
    underline-position="-175"
    slope="-12"
    unicode-range="U+000D-FFFD"
  />
<missing-glyph horiz-adv-x="1229" 
 />
    <glyph glyph-name="f_f" unicode="ff" horiz-adv-x="1081" 
d="M-109 -492q-34 0 -65.5 3.5t-65.5 15.5v215q19 -7 48 -11.5t49 -4.5q69 0 92.5 51t40.5 133l213 999h-115l27 131l129 72l22 94q15 68 36.5 132t56.5 116t91 82.5t140 30.5q50 0 101 -10.5t100 -34.5l-86 -189q-20 11 -43 18t-41 7q-48 0 -71 -41t-38 -109l-20 -92h282
l19 90q14 68 35.5 132t57.5 116t92 82.5t140 30.5q50 0 100.5 -10.5t98.5 -34.5l-84 -189q-22 11 -45 18t-41 7q-48 0 -70.5 -41t-36.5 -109l-20 -92h158l-43 -207h-158l-219 -1020q-24 -114 -61.5 -200t-103 -133.5t-175.5 -47.5q-34 0 -65.5 3.5t-63.5 15.5v215
q18 -7 46 -11.5t50 -4.5q69 0 93 51t40 133l211 999h-280l-220 -1020q-23 -114 -60.5 -200t-103 -133.5t-174.5 -47.5z" />
    <glyph glyph-name="fi" unicode="fi" horiz-adv-x="1004" 
d="M-109 -492q-34 0 -65.5 3.5t-65.5 15.5v215q19 -7 48 -11.5t49 -4.5q69 0 92.5 51t40.5 133l213 999h-115l27 131l129 72l22 94q15 68 36.5 132t56.5 116t91 82.5t140 30.5q50 0 101 -10.5t100 -34.5l-86 -189q-20 11 -43 18t-41 7q-48 0 -71 -41t-38 -109l-20 -92h157
l-41 -207h-159l-220 -1020q-23 -114 -60.5 -200t-103 -133.5t-174.5 -47.5zM535 0l237 1116h244l-236 -1116h-245zM932 1262q-58 0 -87.5 26t-29.5 78q0 43 17.5 85.5t54 70.5t92.5 28t86.5 -24.5t30.5 -77.5q0 -76 -45 -131t-119 -55z" />
    <glyph glyph-name="fl" unicode="fl" horiz-adv-x="999" 
d="M-109 -492q-34 0 -65.5 3.5t-65.5 15.5v215q19 -7 48 -11.5t49 -4.5q69 0 92.5 51t40.5 133l213 999h-115l27 131l129 72l22 94q15 68 36.5 132t56.5 116t91 82.5t140 30.5q50 0 101 -10.5t100 -34.5l-86 -189q-20 11 -43 18t-41 7q-48 0 -71 -41t-38 -109l-20 -92h157
l-41 -207h-159l-220 -1020q-23 -114 -60.5 -200t-103 -133.5t-174.5 -47.5zM533 0l331 1556h246l-332 -1556h-245z" />
    <glyph glyph-name="f_f_i" unicode="ffi" horiz-adv-x="1530" 
d="M-109 -492q-34 0 -65.5 3.5t-65.5 15.5v215q19 -7 48 -11.5t49 -4.5q69 0 92.5 51t40.5 133l213 999h-115l27 131l129 72l22 94q15 68 36.5 132t56.5 116t91 82.5t140 30.5q50 0 101 -10.5t100 -34.5l-86 -189q-20 11 -43 18t-41 7q-48 0 -71 -41t-38 -109l-20 -92h282
l19 90q14 68 35.5 132t57.5 116t92 82.5t140 30.5q50 0 100.5 -10.5t98.5 -34.5l-84 -189q-22 11 -45 18t-41 7q-48 0 -70.5 -41t-36.5 -109l-20 -92h158l-43 -207h-158l-219 -1020q-24 -114 -61.5 -200t-103 -133.5t-175.5 -47.5q-34 0 -65.5 3.5t-63.5 15.5v215
q18 -7 46 -11.5t50 -4.5q69 0 93 51t40 133l211 999h-280l-220 -1020q-23 -114 -60.5 -200t-103 -133.5t-174.5 -47.5zM1061 0l237 1116h244l-235 -1116h-246zM1458 1262q-58 0 -87.5 26t-29.5 78q0 43 17.5 85.5t54 70.5t92.5 28t86.5 -24.5t30.5 -77.5q0 -76 -45 -131
t-119 -55z" />
    <glyph glyph-name="f_f_l" unicode="ffl" horiz-adv-x="1528" 
d="M-109 -492q-34 0 -65.5 3.5t-65.5 15.5v215q19 -7 48 -11.5t49 -4.5q69 0 92.5 51t40.5 133l213 999h-115l27 131l129 72l22 94q15 68 36.5 132t56.5 116t91 82.5t140 30.5q50 0 101 -10.5t100 -34.5l-86 -189q-20 11 -43 18t-41 7q-48 0 -71 -41t-38 -109l-20 -92h282
l19 90q14 68 35.5 132t57.5 116t92 82.5t140 30.5q50 0 100.5 -10.5t98.5 -34.5l-84 -189q-22 11 -45 18t-41 7q-48 0 -70.5 -41t-36.5 -109l-20 -92h158l-43 -207h-158l-219 -1020q-24 -114 -61.5 -200t-103 -133.5t-175.5 -47.5q-34 0 -65.5 3.5t-63.5 15.5v215
q18 -7 46 -11.5t50 -4.5q69 0 93 51t40 133l211 999h-280l-220 -1020q-23 -114 -60.5 -200t-103 -133.5t-174.5 -47.5zM1061 0l332 1556h245l-329 -1556h-248z" />
    <glyph glyph-name=".notdef" horiz-adv-x="1229" 
 />
    <glyph glyph-name=".null" 
 />
    <glyph glyph-name="nonmarkingreturn" horiz-adv-x="682" 
 />
    <glyph glyph-name="NULL" 
 />
    <glyph glyph-name="NULL" 
 />
    <glyph glyph-name="CR" unicode="&#xd;" horiz-adv-x="350" 
 />
    <glyph glyph-name="space" unicode=" " horiz-adv-x="350" 
 />
    <glyph glyph-name="exclam" unicode="!" horiz-adv-x="506" 
d="M121 463l176 999h283l-250 -999h-209zM127 -20q-60 0 -92.5 28.5t-32.5 85.5q0 80 48 142.5t138 62.5q54 0 84.5 -30.5t30.5 -84.5q0 -91 -52.5 -147.5t-123.5 -56.5z" />
    <glyph glyph-name="quotedbl" unicode="&#x22;" horiz-adv-x="809" 
d="M565 934l80 528h266l-145 -528h-201zM195 934l79 528h265l-144 -528h-200z" />
    <glyph glyph-name="numbersign" unicode="#" horiz-adv-x="979" 
d="M27 0l131 418h-154l33 182h176l90 279h-164l33 184h186l125 399h187l-127 -399h153l125 399h187l-127 -399h155l-32 -184h-179l-88 -279h166l-33 -182h-188l-133 -418h-184l131 418h-156l-129 -418h-184zM399 600h154l88 279h-154z" />
    <glyph glyph-name="dollar" unicode="$" horiz-adv-x="889" 
d="M250 -121l43 205q-98 3 -164.5 26.5t-114.5 57.5l47 250q54 -46 125.5 -81.5t151.5 -41.5l76 362q-53 35 -106.5 79.5t-88.5 106t-35 148.5q0 138 54.5 226.5t143 133.5t189.5 52l33 151h92l-30 -151q94 -6 154 -30.5t108 -55.5l-111 -211q-46 35 -94.5 57.5t-101.5 28.5
l-74 -342q56 -38 108.5 -82.5t86.5 -106.5t34 -153q0 -133 -54 -224t-142.5 -141t-194.5 -59l-43 -203zM432 303q42 8 70.5 30t42.5 54.5t14 73.5q0 28 -6.5 50.5t-20.5 43.5t-38 43zM467 909l59 281q-43 -7 -71 -29t-42 -55t-14 -74q0 -22 7 -42.5t22.5 -40t38.5 -40.5z
" />
    <glyph glyph-name="percent" unicode="%" horiz-adv-x="1442" 
d="M250 0l792 1462h195l-793 -1462h-194zM315 565q-101 0 -155 67t-54 204q0 68 14 153t43 171.5t73.5 159.5t106 118t140.5 45q95 0 152 -66.5t57 -206.5q0 -63 -13.5 -147t-42 -171t-73 -161t-106 -120t-142.5 -46zM338 739q29 0 54.5 36.5t46 94t35 122.5t22.5 124.5
t8 97.5q0 48 -11 70.5t-34 22.5q-30 0 -55.5 -36t-46.5 -92.5t-35.5 -121.5t-22.5 -124.5t-8 -98.5q0 -49 12.5 -72t34.5 -23zM1012 -18q-103 0 -156 67t-53 203q0 82 16 171.5t47 174t76.5 152.5t104.5 108.5t131 40.5q95 0 151.5 -65.5t56.5 -206.5q0 -65 -13.5 -149.5
t-42 -171t-73 -160t-105.5 -119t-140 -45.5zM1034 158q30 0 55.5 35.5t46 92.5t35 121.5t22 124t7.5 99.5q0 47 -12 69.5t-35 22.5q-32 0 -58 -38.5t-46 -98t-34 -125.5t-21 -123t-7 -88q0 -48 12.5 -70t34.5 -22z" />
    <glyph glyph-name="ampersand" unicode="&#x26;" horiz-adv-x="1057" 
d="M291 -20q-136 0 -215.5 80t-79.5 225q0 108 39 202t110 173.5t168 142.5q-24 59 -37.5 122t-13.5 138q0 116 44.5 210.5t127 151t195.5 56.5q68 0 127 -26t96 -79.5t37 -136.5q0 -90 -34.5 -172.5t-97.5 -156.5t-147 -140l92 -250q25 48 49 108t46 132h252
q-26 -80 -63.5 -164.5t-82 -164t-90.5 -144.5l127 -287h-301l-37 104q-75 -56 -144.5 -90t-166.5 -34zM352 201q33 0 61 13t53.5 35t49.5 48l-125 336q-44 -39 -74.5 -86.5t-46.5 -102t-16 -116.5q0 -41 11.5 -69.5t33.5 -43t53 -14.5zM526 936q28 26 51.5 57t41 66t27 72.5
t9.5 74.5q0 35 -12 62.5t-47 27.5t-56 -31t-30.5 -75.5t-9.5 -85.5q0 -49 6.5 -89.5t19.5 -78.5z" />
    <glyph glyph-name="quotesingle" unicode="'" horiz-adv-x="438" 
d="M199 934l80 528h264l-144 -528h-200z" />
    <glyph glyph-name="parenleft" unicode="(" horiz-adv-x="553" 
d="M115 -324q-29 60 -47.5 145t-27.5 178t-9 175q0 167 33 348t94.5 358t148 334t193.5 275h209q-96 -127 -178 -282.5t-143.5 -327.5t-95.5 -349.5t-34 -349.5q0 -90 6 -177t20.5 -169.5t39.5 -157.5h-209z" />
    <glyph glyph-name="parenright" unicode=")" horiz-adv-x="553" 
d="M-158 -324q95 128 177 283t143 326.5t95 349t34 348.5q0 86 -6.5 176.5t-20.5 175.5t-39 154h211q31 -73 49 -154.5t25.5 -168.5t7.5 -177q0 -175 -33.5 -358t-96 -358t-148 -328t-189.5 -269h-209z" />
    <glyph glyph-name="asterisk" unicode="*" horiz-adv-x="825" 
d="M616 743l-94 261l-157 -230l-164 162l211 194l-244 70l76 213l225 -127l6 285l230 -29l-66 -274l250 65l20 -225l-254 -6l158 -242z" />
    <glyph glyph-name="plus" unicode="+" horiz-adv-x="969" 
d="M616 831h306v-217h-306v-381h-221v381h-307v217h307v386h221v-386z" />
    <glyph glyph-name="comma" unicode="," horiz-adv-x="475" 
d="M-106 -276q31 79 66.5 174t68 191t53.5 177h244l6 -22q-34 -96 -72.5 -187.5t-80.5 -175t-85 -157.5h-200z" />
    <glyph glyph-name="hyphen" unicode="-" horiz-adv-x="584" 
d="M25 432l49 236h479l-51 -236h-477z" />
    <glyph glyph-name="period" unicode="." horiz-adv-x="473" 
d="M131 -20q-60 0 -92.5 28.5t-32.5 85.5q0 80 48 142.5t136 62.5q56 0 86.5 -30.5t30.5 -84.5q0 -91 -53.5 -147.5t-122.5 -56.5z" />
    <glyph glyph-name="slash" unicode="/" horiz-adv-x="752" 
d="M-109 -12l803 1487h230l-805 -1487h-228z" />
    <glyph glyph-name="zero" unicode="0" horiz-adv-x="889" 
d="M334 -20q-142 0 -210.5 92t-68.5 290q0 81 13 194.5t41 239.5t71.5 248t105 221t141.5 158.5t181 59.5q72 0 124.5 -23t87.5 -70t52 -120t17 -174q0 -95 -14.5 -213.5t-44 -244t-74.5 -242.5t-107 -211t-140.5 -149.5t-174.5 -55.5zM362 207q40 0 76.5 50.5t68.5 133.5
t58 184t45 203t29 190t10 144q0 72 -14 107.5t-51 35.5q-39 0 -76 -52t-69.5 -137.5t-59 -187.5t-46 -203.5t-30 -186.5t-10.5 -134q0 -76 16 -111.5t53 -35.5z" />
    <glyph glyph-name="one" unicode="1" horiz-adv-x="889" 
d="M291 0l188 895q11 44 18.5 76t16 65.5t21.5 81.5q-17 -18 -34.5 -37.5t-37.5 -36.5l-150 -137l-116 160l430 395h227l-311 -1462h-252z" />
    <glyph glyph-name="two" unicode="2" horiz-adv-x="889" 
d="M-61 0l36 182l357 416q56 66 108 132.5t93.5 133.5t65.5 134.5t24 134.5q0 59 -23.5 91.5t-73.5 32.5q-40 0 -80.5 -22t-79 -54.5t-73.5 -64.5l-86 180q84 94 177.5 140.5t201.5 46.5q89 0 156.5 -37t105 -104t37.5 -158q0 -118 -44.5 -227.5t-121 -215t-172.5 -211.5
l-268 -299v-6h428l-48 -225h-720z" />
    <glyph glyph-name="three" unicode="3" horiz-adv-x="889" 
d="M256 -20q-88 0 -148 15t-128 52v244q61 -49 138.5 -69.5t137.5 -20.5q59 0 104.5 19t78 54.5t49 84t16.5 106.5q0 60 -21 99.5t-65 59t-113 19.5h-74l45 217h74q65 0 118 19.5t91 56t58 87t20 112.5t-28.5 94.5t-88.5 32.5q-50 0 -110 -23.5t-125 -71.5l-56 195
q86 65 169.5 93t181.5 28q89 0 161.5 -30t115 -93t42.5 -162q0 -101 -40 -187.5t-112 -149.5t-169 -95v-6q90 -25 141 -95t51 -186q0 -103 -36 -193.5t-103 -159.5t-162 -107.5t-213 -38.5z" />
    <glyph glyph-name="four" unicode="4" horiz-adv-x="889" 
d="M348 0l64 301h-439l43 201l641 966h250l-202 -954h133l-45 -213h-134l-63 -301h-248zM217 514h240l96 451q5 22 12.5 48t15 53t13.5 50h-6q-31 -57 -47 -86t-31 -51z" />
    <glyph glyph-name="five" unicode="5" horiz-adv-x="889" 
d="M274 -20q-58 0 -106.5 7t-88 19.5t-69.5 28.5v260q50 -43 119 -68.5t145 -25.5q62 0 109 27.5t79.5 73.5t49 104.5t16.5 119.5q0 91 -38.5 139t-118.5 48q-39 0 -76.5 -11t-77.5 -26l-74 72l191 714h581l-49 -227h-362l-88 -320q31 8 57.5 11.5t50.5 3.5q83 0 144 -41.5
t94 -121t33 -192.5q0 -103 -28 -208t-89.5 -193t-161 -141t-242.5 -53z" />
    <glyph glyph-name="six" unicode="6" horiz-adv-x="889" 
d="M373 -20q-111 0 -181 50t-102.5 142t-32.5 217q0 110 18.5 229.5t54.5 236.5t89 222.5t121 186.5q49 60 111 110t136.5 79.5t160.5 29.5q65 0 112 -5t88 -16l-49 -221q-38 12 -75 18.5t-74 6.5q-90 0 -163 -52.5t-129 -153.5t-96 -249h7q29 43 65 74t79 48t91 17
q120 0 172.5 -93t52.5 -234q0 -100 -26 -212t-81.5 -210t-142 -159.5t-206.5 -61.5zM387 203q51 0 87 43.5t57.5 108.5t31.5 131.5t10 113.5q0 65 -20.5 99t-58.5 34q-29 0 -53.5 -13.5t-43 -36.5t-30.5 -52q-19 -30 -32.5 -75t-20.5 -95.5t-7 -95.5q0 -40 5.5 -70.5
t16 -50.5t25.5 -30.5t33 -10.5z" />
    <glyph glyph-name="seven" unicode="7" horiz-adv-x="889" 
d="M59 0l627 1233h-485l47 227h741l-37 -174l-630 -1286h-263z" />
    <glyph glyph-name="eight" unicode="8" horiz-adv-x="889" 
d="M360 -20q-112 0 -192 38t-122 110.5t-42 174.5q0 103 36.5 185.5t106.5 151.5t170 128q-39 44 -65 93t-38.5 101t-12.5 105q0 118 48.5 212t139.5 149t219 55q94 0 162.5 -34t106.5 -98.5t38 -156.5q0 -90 -34 -168t-97.5 -143.5t-152.5 -116.5q55 -52 89 -106.5
t50 -112.5t16 -123q0 -115 -53.5 -216.5t-149.5 -164.5t-223 -63zM365 186q59 0 98.5 31.5t60 83t21.5 109.5q0 43 -12.5 82.5t-35 76t-53.5 70.5q-55 -35 -99.5 -80.5t-70.5 -104t-26 -132.5q0 -58 31 -97t86 -39zM506 895q56 35 92.5 76.5t54 88t17.5 97.5
q0 60 -25.5 89.5t-69.5 29.5q-43 0 -74 -24.5t-48 -68.5t-17 -104q0 -53 19.5 -99.5t50.5 -84.5z" />
    <glyph glyph-name="nine" unicode="9" horiz-adv-x="889" 
d="M211 -20q-63 0 -110 7t-89 17v221q37 -13 87 -20.5t102 -7.5q68 0 125 29.5t104.5 87t86 142t67.5 195.5h-6q-30 -42 -67 -73.5t-79.5 -48.5t-89.5 -17q-80 0 -129 41.5t-71.5 113t-22.5 160.5q0 79 16.5 168.5t51.5 176t90 157t131 112.5t176 42q99 0 167 -47.5
t103 -138t35 -220.5q0 -68 -8.5 -147.5t-25.5 -164.5t-42 -169t-59 -162q-37 -89 -88 -170.5t-117.5 -145.5t-150 -101t-187.5 -37zM455 729q26 0 47.5 11.5t39 31.5t31.5 45q34 53 51 128.5t17 152.5q0 54 -9.5 90t-27 54t-43.5 18q-47 0 -82 -42t-58 -106t-34.5 -130.5
t-11.5 -115.5q0 -66 20.5 -101.5t59.5 -35.5z" />
    <glyph glyph-name="colon" unicode=":" horiz-adv-x="483" 
d="M303 811q-60 0 -92.5 28t-32.5 85q0 52 21 98.5t62 76t101 29.5q54 0 84.5 -31t30.5 -83q0 -91 -51.5 -147t-122.5 -56zM125 -20q-60 0 -92.5 28.5t-32.5 85.5q0 80 48 142.5t136 62.5q56 0 86.5 -30.5t30.5 -84.5q0 -91 -53.5 -147.5t-122.5 -56.5z" />
    <glyph glyph-name="semicolon" unicode=";" horiz-adv-x="483" 
d="M-111 -276q36 88 69.5 178t64 181t55.5 183h244l6 -22q-35 -95 -73.5 -186.5t-80.5 -175t-86 -158.5h-199zM309 811q-60 0 -92.5 28t-32.5 85q0 52 21 98.5t62.5 76t101.5 29.5q53 0 83.5 -31t30.5 -83q0 -91 -51.5 -147t-122.5 -56z" />
    <glyph glyph-name="less" unicode="&#x3c;" horiz-adv-x="969" 
d="M922 246l-842 418v143l842 416v-244l-531 -244l531 -248v-241z" />
    <glyph glyph-name="equal" unicode="=" horiz-adv-x="969" 
d="M88 838v217h834v-217h-834zM88 387v219h834v-219h-834z" />
    <glyph glyph-name="greater" unicode="&#x3e;" horiz-adv-x="969" 
d="M86 487l530 248l-530 244v244l842 -416v-143l-842 -418v241z" />
    <glyph glyph-name="question" unicode="?" horiz-adv-x="684" 
d="M158 463q21 101 42 165t53 113t83 103q53 59 97 103.5t70.5 93t26.5 116.5q0 53 -25 78t-75 25q-60 0 -116.5 -27.5t-106.5 -63.5l-37 193q80 62 162 91.5t162 29.5q138 0 210 -70t72 -192q0 -96 -34 -176t-90 -148.5t-122 -132.5q-59 -59 -89 -99t-45.5 -84t-30.5 -118
h-207zM172 -20q-60 0 -92.5 28.5t-32.5 85.5q0 80 48 142.5t138 62.5q54 0 84.5 -30.5t30.5 -84.5q0 -91 -52.5 -147.5t-123.5 -56.5z" />
    <glyph glyph-name="at" unicode="@" horiz-adv-x="1327" 
d="M537 -164q-120 0 -211.5 35.5t-153.5 101.5t-93.5 159t-31.5 208q0 171 38 336.5t109.5 310.5t172.5 255.5t228.5 173.5t276.5 63q136 0 236 -61.5t155.5 -173t55.5 -263.5q0 -94 -18 -197t-52.5 -201t-83 -177t-110 -126t-133.5 -47q-88 0 -122 38t-46 104h-4
q-40 -66 -89.5 -104t-99.5 -38q-98 0 -145 58.5t-47 173.5q0 69 16.5 153.5t50.5 168.5t84.5 154t119 112.5t153.5 42.5q75 0 135 -14.5t106 -37.5l-123 -509q-7 -28 -10.5 -50t-3.5 -36q0 -32 9 -48t26 -16q43 0 77.5 42.5t60.5 111t43.5 147.5t26.5 153t9 126
q0 120 -34.5 199.5t-99.5 119t-157 39.5q-118 0 -217.5 -55.5t-177.5 -152t-132.5 -221t-83 -262.5t-28.5 -276q0 -108 33 -190t102.5 -128t180.5 -46q86 0 170.5 19t173.5 61v-152q-80 -38 -171 -61t-171 -23zM604 387q44 0 81.5 67.5t72.5 200.5l71 279q-12 5 -25 6.5
t-32 1.5q-51 0 -91.5 -48t-69.5 -120.5t-44.5 -150.5t-15.5 -138q0 -52 13.5 -75t39.5 -23z" />
    <glyph glyph-name="A" unicode="A" horiz-adv-x="963" 
d="M-127 0l623 1468h325l15 -1468h-271l6 373h-270l-147 -373h-281zM387 598h197l12 444q2 50 4 95.5t6 93.5h-6q-7 -45 -20.5 -89.5t-30.5 -94.5z" />
    <glyph glyph-name="B" unicode="B" horiz-adv-x="973" 
d="M-6 0l309 1462h336q94 0 174.5 -30.5t130 -96.5t49.5 -174q0 -88 -28.5 -167.5t-88.5 -138.5t-153 -87v-8q72 -26 113 -97.5t41 -168.5q0 -130 -55.5 -243t-164 -182t-268.5 -69h-395zM297 219h92q77 0 126.5 39.5t73 105t23.5 142.5q0 75 -34.5 112t-96.5 37h-92z
M434 864h84q65 0 110.5 36.5t70 95.5t24.5 124q0 63 -32.5 95t-98.5 32h-76z" />
    <glyph glyph-name="C" unicode="C" horiz-adv-x="881" 
d="M424 -20q-115 0 -193.5 55.5t-118.5 161t-40 254.5q0 134 27 277.5t80.5 278t132 242t181.5 171t230 63.5q81 0 157.5 -20.5t139.5 -67.5l-125 -205q-41 34 -82 50.5t-84 16.5q-80 0 -142.5 -59t-108.5 -153.5t-76.5 -203t-45 -208.5t-14.5 -168q0 -136 37 -197t113 -61
q56 0 113.5 17.5t115.5 45.5v-229q-67 -32 -146 -46.5t-151 -14.5z" />
    <glyph glyph-name="D" unicode="D" horiz-adv-x="1034" 
d="M-4 0l309 1462h289q209 0 318.5 -116.5t109.5 -331.5q0 -135 -25.5 -277.5t-79.5 -274t-138 -236t-201.5 -165.5t-270.5 -61h-311zM299 229h45q88 0 155 51t115 135.5t78.5 185.5t45 202.5t14.5 185.5q0 128 -46 187t-137 59h-57z" />
    <glyph glyph-name="E" unicode="E" horiz-adv-x="807" 
d="M-4 0l309 1462h600l-47 -223h-344l-78 -369h320l-47 -223h-320l-92 -422h346l-47 -225h-600z" />
    <glyph glyph-name="F" unicode="F" horiz-adv-x="772" 
d="M-4 0l309 1462h598l-45 -223h-344l-90 -422h319l-49 -223h-317l-125 -594h-256z" />
    <glyph glyph-name="G" unicode="G" horiz-adv-x="1065" 
d="M496 -20q-215 0 -318.5 121.5t-103.5 349.5q0 154 30 303.5t89 281t145.5 232t200 158t252.5 57.5q100 0 186.5 -25.5t144.5 -66.5l-114 -217q-57 41 -117 62t-125 21q-97 0 -175.5 -72t-134.5 -189.5t-86 -254.5t-30 -268q0 -91 19.5 -150t59.5 -87.5t99 -28.5
q31 0 61.5 4.5t61.5 13.5l78 371h-160l45 219h414l-160 -758q-100 -38 -194 -57.5t-168 -19.5z" />
    <glyph glyph-name="H" unicode="H" horiz-adv-x="1075" 
d="M-4 0l309 1462h256l-125 -585h324l125 585h256l-312 -1462h-256l138 649h-322l-137 -649h-256z" />
    <glyph glyph-name="I" unicode="I" horiz-adv-x="496" 
d="M-6 0l311 1462h254l-309 -1462h-256z" />
    <glyph glyph-name="J" unicode="J" horiz-adv-x="492" 
d="M-147 -426q-55 0 -94.5 6t-71.5 19l51 223q26 -13 51 -19t51 -6q52 0 84 37t51.5 95t32.5 120l299 1413h256l-307 -1452q-33 -155 -90 -251.5t-135.5 -140.5t-177.5 -44z" />
    <glyph glyph-name="K" unicode="K" horiz-adv-x="944" 
d="M-4 0l309 1462h256l-139 -655l92 156l338 499h281l-461 -680l157 -782h-280l-100 598l-87 -76l-110 -522h-256z" />
    <glyph glyph-name="L" unicode="L" horiz-adv-x="758" 
d="M-4 0l309 1462h256l-264 -1237h352l-45 -225h-608z" />
    <glyph glyph-name="M" unicode="M" horiz-adv-x="1425" 
d="M-4 0l309 1462h340l31 -1013h6l446 1013h363l-311 -1462h-250l174 821q6 28 13.5 56t15 56.5t14.5 57.5h-4l-447 -991h-223l-29 985h-6q-7 -42 -13 -80t-12 -73t-14 -68l-161 -764h-242z" />
    <glyph glyph-name="N" unicode="N" horiz-adv-x="1149" 
d="M-4 0l309 1462h289l172 -993h6q11 63 21 123t19.5 112.5t16.5 90.5l144 667h241l-309 -1462h-289l-172 1016h-6q-7 -51 -15 -103t-17 -99.5t-16.5 -87.5t-12.5 -69l-141 -657h-240z" />
    <glyph glyph-name="O" unicode="O" horiz-adv-x="1098" 
d="M446 -20q-126 0 -209 49.5t-124 152.5t-41 262q0 113 18.5 233t54.5 237t90 220t125.5 182t160.5 124t194 45q192 0 280 -115t88 -342q0 -97 -15.5 -211.5t-48 -232t-83.5 -225.5t-121.5 -193.5t-162.5 -135.5t-206 -50zM467 209q58 0 106.5 41t87.5 110.5t68.5 156.5
t49.5 180t30 180.5t10 156.5q0 114 -31.5 168.5t-93.5 54.5q-60 0 -110 -42t-89 -113t-68.5 -158.5t-48.5 -179.5t-28.5 -175.5t-9.5 -146.5q0 -88 14 -139t42.5 -72.5t70.5 -21.5z" />
    <glyph glyph-name="P" unicode="P" horiz-adv-x="909" 
d="M-4 0l309 1462h291q126 0 207 -41.5t119.5 -117t38.5 -177.5q0 -113 -31 -219.5t-94.5 -192t-159.5 -136t-227 -50.5h-87l-110 -528h-256zM410 752h41q79 0 133.5 43t83 120t28.5 179q0 77 -35.5 111t-107.5 34h-39z" />
    <glyph glyph-name="Q" unicode="Q" horiz-adv-x="1098" 
d="M500 -348l-90 332q-10 0 -17.5 0.5t-15.5 1.5q-103 11 -171 64t-101 151t-33 243q0 113 18.5 233t54.5 237t90 220t125.5 182t160.5 124t194 45q192 0 280 -115t88 -342q0 -96 -15 -209.5t-46.5 -231t-81 -225t-118 -192.5t-158.5 -133l131 -385h-295zM467 209
q58 0 106.5 41t87.5 110.5t68.5 156.5t49.5 180t30 180.5t10 156.5q0 114 -31.5 168.5t-93.5 54.5q-60 0 -110 -42t-89 -113t-68.5 -158.5t-48.5 -179.5t-28.5 -175.5t-9.5 -146.5q0 -88 14 -139t42.5 -72.5t70.5 -21.5z" />
    <glyph glyph-name="R" unicode="R" horiz-adv-x="948" 
d="M-4 0l309 1462h277q195 0 291 -86t96 -246q0 -123 -35 -225t-99.5 -173t-152.5 -103l143 -629h-282l-103 578h-67l-121 -578h-256zM418 786h59q57 0 98.5 27t69 72t40.5 100t13 111q0 74 -36 110.5t-107 36.5h-41z" />
    <glyph glyph-name="S" unicode="S" horiz-adv-x="834" 
d="M274 -20q-100 0 -178.5 19t-138.5 62l51 265q53 -42 125.5 -73.5t142.5 -31.5q39 0 74.5 11.5t62.5 35.5t42.5 61.5t15.5 90.5q0 42 -10.5 77t-39.5 73t-83 89q-59 55 -99 109t-59.5 118t-19.5 148q0 97 29.5 179t87.5 142.5t143.5 94t197.5 33.5q79 0 163 -24t147 -70
l-117 -232q-55 41 -107.5 64.5t-99.5 23.5q-36 0 -68 -11.5t-56 -35t-38 -58t-14 -79.5q0 -42 14 -78t47 -74.5t89 -89.5q58 -51 94.5 -105.5t53.5 -119t17 -145.5q0 -95 -29.5 -180t-88 -150t-146.5 -102t-205 -37z" />
    <glyph glyph-name="T" unicode="T" horiz-adv-x="795" 
d="M143 0l263 1235h-244l49 227h743l-49 -227h-243l-263 -1235h-256z" />
    <glyph glyph-name="U" unicode="U" horiz-adv-x="1042" 
d="M408 -20q-105 0 -181 39t-116.5 113.5t-40.5 178.5q0 37 5.5 82.5t14.5 91.5l209 977h256l-209 -983q-9 -35 -12.5 -68t-3.5 -59q0 -73 28.5 -108t83.5 -35t93.5 29t66 90.5t47.5 160.5l209 973h256l-215 -1007q-31 -150 -91.5 -256.5t-158 -162.5t-241.5 -56z" />
    <glyph glyph-name="V" unicode="V" horiz-adv-x="950" 
d="M203 0l-19 1462h262l-12 -833q-1 -44 -3 -86.5t-5.5 -89.5t-9.5 -105h4q11 40 24 82t29.5 87t36.5 93l344 852h274l-630 -1462h-295z" />
    <glyph glyph-name="W" unicode="W" horiz-adv-x="1434" 
d="M139 0l45 1462h248l-29 -760q-4 -84 -9 -150t-11 -116h4q23 66 48 132.5t52 133.5l301 760h218l-27 -747q-4 -86 -7.5 -148.5t-8.5 -128.5h4q14 45 29 88.5t32.5 89t36.5 95.5l287 751h258l-568 -1462h-294l22 713q0 30 1.5 63.5t4.5 70t6 73.5h-4q-15 -48 -31 -95
t-34 -94l-283 -731h-291z" />
    <glyph glyph-name="X" unicode="X" horiz-adv-x="897" 
d="M-119 0l455 750l-121 712h266l56 -448l235 448h275l-420 -717l139 -745h-277l-57 483l-278 -483h-273z" />
    <glyph glyph-name="Y" unicode="Y" horiz-adv-x="870" 
d="M182 0l117 557l-117 905h267l45 -569l286 569h275l-496 -897l-121 -565h-256z" />
    <glyph glyph-name="Z" unicode="Z" horiz-adv-x="797" 
d="M-82 0l39 184l639 1055h-406l48 223h696l-39 -186l-641 -1051h428l-47 -225h-717z" />
    <glyph glyph-name="bracketleft" unicode="[" horiz-adv-x="584" 
d="M-82 -338l389 1827h428l-41 -195h-205l-305 -1437h205l-43 -195h-428z" />
    <glyph glyph-name="backslash" unicode="\" horiz-adv-x="758" 
d="M393 -14l-190 1491h217l192 -1491h-219z" />
    <glyph glyph-name="bracketright" unicode="]" horiz-adv-x="584" 
d="M-150 -338l41 195h205l307 1437h-206l41 195h430l-389 -1827h-429z" />
    <glyph glyph-name="asciicircum" unicode="^" horiz-adv-x="889" 
d="M-12 584l547 878h143l213 -878h-223l-127 524l-320 -524h-233z" />
    <glyph glyph-name="underscore" unicode="_" horiz-adv-x="709" 
d="M-188 -338l36 188h713l-39 -188h-710z" />
    <glyph glyph-name="grave" unicode="`" horiz-adv-x="596" 
d="M481 1241q-25 35 -62 92.5t-70.5 116.5t-51.5 100v19h276q11 -44 23.5 -92.5t29 -101t36.5 -109.5l-3 -25h-178z" />
    <glyph glyph-name="a" unicode="a" horiz-adv-x="932" 
d="M264 -20q-70 0 -120.5 38.5t-77.5 111t-27 173.5q0 90 17 200.5t51 222t87 204.5t125 150t164 57q45 0 82.5 -16.5t66.5 -51t46 -90.5h6l49 137h213l-237 -1116h-199l2 145h-6q-36 -49 -72 -86t-77 -58t-93 -21zM367 188q55 0 95 52t67.5 128.5t45.5 149.5q23 97 31 158
t8 110q0 66 -22 101t-64 35q-43 0 -79.5 -41.5t-65 -108.5t-49 -146t-31 -155.5t-10.5 -134.5q0 -73 18.5 -110.5t55.5 -37.5z" />
    <glyph glyph-name="b" unicode="b" horiz-adv-x="928" 
d="M440 -20q-48 0 -85.5 17.5t-64.5 50.5t-44 79h-6l-56 -127h-198l329 1556h246l-86 -409q-4 -17 -10 -41.5t-13.5 -52.5t-17.5 -58h4q34 50 70.5 81t78 46t89.5 15q68 0 117 -38t75.5 -110t26.5 -174q0 -93 -18 -205t-53.5 -223t-90 -203t-128 -148t-165.5 -56zM406 188
q40 0 75.5 41.5t64 109t49.5 147t32.5 156t11.5 134.5q0 76 -19 111t-57 35q-40 0 -74 -30t-61 -81t-48 -114t-35 -129.5t-21 -128t-7 -109.5q0 -70 22 -106t67 -36z" />
    <glyph glyph-name="c" unicode="c" horiz-adv-x="735" 
d="M340 -20q-95 0 -161 41.5t-100 119.5t-34 189q0 100 18 211t56 217t98.5 191.5t146 136.5t197.5 51q69 0 127.5 -17.5t110.5 -52.5l-101 -197q-29 23 -65 37.5t-70 14.5q-70 0 -120.5 -59t-82 -148.5t-46.5 -184t-15 -165.5q0 -57 11.5 -95.5t35 -57.5t57.5 -19
q42 0 92 19.5t105 59.5v-213q-47 -32 -116.5 -55.5t-143.5 -23.5z" />
    <glyph glyph-name="d" unicode="d" horiz-adv-x="932" 
d="M262 -20q-69 0 -119 38.5t-77 111t-27 173.5q0 87 17 196.5t51 221.5t85.5 206t121 152t157.5 58q47 0 87.5 -15t71.5 -46t48 -79h6q5 37 10.5 71.5t10.5 64.5t10 53l80 370h245l-331 -1556h-199l2 133h-6q-39 -49 -75 -83t-76 -52t-93 -18zM367 188q42 0 76.5 32
t62 85.5t48 118.5t34 132.5t20 127.5t6.5 102q0 68 -21 102t-65 34q-46 0 -83 -44.5t-65.5 -115t-48 -151t-29 -154.5t-9.5 -123q0 -72 18.5 -109t55.5 -37z" />
    <glyph glyph-name="e" unicode="e" horiz-adv-x="864" 
d="M373 -20q-102 0 -176 42.5t-114 123t-40 192.5q0 148 34 290t100 256.5t164.5 182.5t227.5 68q123 0 199 -69t76 -192q0 -97 -37 -171.5t-107 -124.5t-167.5 -75.5t-219.5 -25.5h-16q-6 -28 -9 -56.5t-3 -55.5q0 -99 37 -142t110 -43q65 0 119 16.5t127 57.5v-191
q-73 -47 -148.5 -65t-156.5 -18zM332 655h6q105 0 165.5 25.5t86.5 70.5t26 101q0 40 -20.5 64t-60.5 24q-41 0 -79 -34t-69.5 -97.5t-54.5 -153.5z" />
    <glyph glyph-name="f" unicode="f" horiz-adv-x="555" 
d="M-109 -492q-34 0 -65.5 3.5t-65.5 15.5v215q19 -7 48 -11.5t49 -4.5q69 0 92.5 51t40.5 133l213 999h-115l27 131l129 72l22 94q15 68 36.5 132t56.5 116t91 82.5t140 30.5q50 0 101 -10.5t100 -34.5l-86 -189q-20 11 -43 18t-41 7q-48 0 -71 -41t-38 -109l-20 -92h157
l-41 -207h-159l-220 -1020q-23 -114 -60.5 -200t-103 -133.5t-174.5 -47.5z" />
    <glyph glyph-name="g" unicode="g" horiz-adv-x="911" 
d="M221 -492q-181 -1 -271.5 66.5t-89.5 196.5q1 113 72 197t194 126q-31 14 -54 50t-23 84q0 62 41 113.5t112 102.5q-38 26 -61.5 85.5t-23.5 135.5q0 117 52.5 228t152.5 175q45 30 102 48t115 18q55 0 93 -9.5t61 -18.5h310l-31 -146l-136 -38q8 -19 12 -43t4 -51
q0 -83 -34 -175.5t-90 -154.5q-55 -60 -131 -92t-171 -32q-36 0 -53.5 -1t-25.5 -4q-43 -19 -66 -50.5t-23 -60.5q0 -26 25 -34q11 -4 28 -5.5t41 -1.5h177q79 0 130.5 -27.5t77 -79t25.5 -123.5q0 -135 -60.5 -236.5t-163.5 -160.5q-66 -40 -147 -60.5t-170 -21.5z
M230 -307q54 0 104 14t89 41q44 29 71 73.5t27 98.5q0 17 -5 31.5t-19 24.5q-13 9 -37 14t-61 5h-142q-40 0 -78 -33.5t-62.5 -81t-24.5 -89.5q0 -56 35.5 -77.5t102.5 -20.5zM427 547q45 0 81 34.5t61 95t35 138.5q7 50 4 81.5t-17 47.5q-7 8 -18 13t-26 5q-38 0 -69 -24.5
t-54 -64.5t-37.5 -86.5t-20.5 -90.5q-5 -37 -5 -64.5t8 -46.5q17 -38 58 -38z" />
    <glyph glyph-name="h" unicode="h" horiz-adv-x="926" 
d="M-12 0l329 1556h246l-74 -344q-7 -34 -17 -71.5t-21 -75.5t-23 -74h4q30 47 65 79.5t77.5 49.5t93.5 17q67 0 114.5 -29t73 -83t25.5 -130q0 -38 -8 -89t-17 -97l-149 -709h-246l137 649q11 48 18 93.5t7 86.5q0 38 -18 61t-56 23t-71 -28t-61 -91.5t-52 -172.5
l-132 -621h-245z" />
    <glyph glyph-name="i" unicode="i" horiz-adv-x="457" 
d="M-12 0l237 1116h244l-236 -1116h-245zM385 1262q-58 0 -87.5 26t-29.5 78q0 43 17.5 85.5t54 70.5t92.5 28t86.5 -24.5t30.5 -77.5q0 -76 -45 -131t-119 -55z" />
    <glyph glyph-name="j" unicode="j" horiz-adv-x="459" 
d="M-131 -492q-34 0 -65.5 3.5t-63.5 15.5v217q18 -9 46 -13.5t48 -4.5q41 0 66 19t41.5 62t31.5 115l252 1194h244l-256 -1212q-26 -123 -64.5 -211.5t-104 -136.5t-175.5 -48zM387 1262q-58 0 -87.5 26t-29.5 78q0 43 17.5 85.5t54 70.5t92.5 28t86.5 -24.5t30.5 -77.5
q0 -76 -45 -131t-119 -55z" />
    <glyph glyph-name="k" unicode="k" horiz-adv-x="870" 
d="M-14 0l331 1556h246l-145 -673q-7 -34 -16 -70t-19 -75t-23 -81h5l340 459h268l-357 -469l142 -647h-266l-89 449l-102 -103l-70 -346h-245z" />
    <glyph glyph-name="l" unicode="l" horiz-adv-x="453" 
d="M-14 0l331 1556h246l-332 -1556h-245z" />
    <glyph glyph-name="m" unicode="m" horiz-adv-x="1374" 
d="M-14 0l237 1116h199l-14 -135h8q30 48 68 83t83 54t95 19q83 0 133 -34.5t71 -107.5h6q32 44 71.5 76t85 49t95.5 17q98 0 152.5 -59.5t54.5 -170.5q0 -34 -5.5 -76.5t-14.5 -87.5l-158 -743h-246l144 680q9 41 14.5 79t5.5 64q0 47 -16.5 68.5t-50.5 21.5
q-36 0 -63.5 -23.5t-48 -62t-35 -84t-23.5 -90.5l-140 -653h-245l147 688q8 40 13 76.5t5 60.5q0 45 -16.5 66.5t-48.5 21.5q-40 0 -70.5 -27.5t-53 -73.5t-38.5 -102t-27 -112l-127 -598h-247z" />
    <glyph glyph-name="n" unicode="n" horiz-adv-x="926" 
d="M-14 0l237 1116h197l-10 -139h6q31 50 68.5 86t81 55t91.5 19q59 0 110 -23t82.5 -75t31.5 -140q0 -37 -7 -84t-18 -102l-152 -713h-245l139 655q9 48 17 94t8 80q0 41 -16.5 62.5t-53.5 21.5q-48 0 -84.5 -40.5t-63.5 -113.5t-49 -171l-123 -588h-247z" />
    <glyph glyph-name="o" unicode="o" horiz-adv-x="909" 
d="M354 -20q-98 0 -167.5 43t-106.5 124t-37 195q0 87 17.5 192.5t54.5 211.5t97.5 194.5t146.5 142.5t200 54q97 0 165.5 -44t105 -125.5t36.5 -195.5q0 -98 -18.5 -207t-57.5 -213t-99.5 -188t-144.5 -134t-192 -50zM383 188q43 0 80 40t65.5 106t48.5 144.5t30.5 156
t10.5 139.5q0 49 -9.5 83.5t-30 52.5t-52.5 18q-46 0 -83.5 -42t-66 -110t-47.5 -147.5t-28.5 -155.5t-9.5 -133q0 -72 23 -112t69 -40z" />
    <glyph glyph-name="p" unicode="p" horiz-adv-x="928" 
d="M-115 -483l338 1599h201l-12 -151h8q38 60 77 98t82 56t91 18q70 0 119.5 -35.5t76.5 -107.5t27 -183q0 -96 -18 -208t-54 -222t-89.5 -201t-125 -145.5t-160.5 -54.5q-46 0 -83 17.5t-64 50.5t-43 79h-6q-7 -55 -16 -105t-15 -85l-90 -420h-244zM403 195q43 0 79.5 40.5
t65.5 107t49.5 144.5t31 155t10.5 138q0 76 -18.5 112t-53.5 36q-39 0 -73 -31.5t-61.5 -84t-49 -117t-36.5 -132t-22.5 -127.5t-7.5 -104q0 -69 21.5 -103t64.5 -34z" />
    <glyph glyph-name="q" unicode="q" horiz-adv-x="934" 
d="M358 -489l95 440q4 19 10.5 45.5t15.5 58t19 64.5h-6q-35 -49 -71.5 -80t-77 -45t-87.5 -14q-67 0 -116.5 36t-76 106t-26.5 171q0 89 17.5 200t52.5 224t89 208t127 153.5t166 58.5q55 0 92.5 -17.5t62 -53t38.5 -89.5h4l45 139h215l-342 -1605h-246zM369 195
q40 0 73.5 30t60.5 81.5t48 115t35 131.5t21 132t7 114q0 59 -22 91t-66 32q-42 0 -78 -41t-64.5 -107t-49 -144.5t-31 -155t-10.5 -136.5q0 -73 18.5 -108t57.5 -35z" />
    <glyph glyph-name="r" unicode="r" horiz-adv-x="645" 
d="M-14 0l237 1116h193l-15 -172h9q34 67 70.5 109.5t81 63t100.5 20.5q20 0 39.5 -3.5t43.5 -11.5l-73 -266q-20 8 -42 12t-46 4q-48 0 -86 -26t-66.5 -69t-48 -96.5t-31.5 -109.5l-121 -571h-245z" />
    <glyph glyph-name="s" unicode="s" horiz-adv-x="723" 
d="M252 -20q-92 0 -154.5 15.5t-109.5 43.5v235q49 -37 114.5 -58t118.5 -21q41 0 72.5 14.5t49 42.5t17.5 70q0 28 -8 54t-31.5 57t-68.5 73q-53 48 -83.5 93.5t-43 92.5t-12.5 99q0 96 39.5 174.5t116.5 125t190 46.5q87 0 164 -24t131 -62l-99 -189q-44 37 -95.5 54.5
t-88.5 17.5q-49 0 -77.5 -28.5t-28.5 -78.5q0 -27 7 -50.5t29 -51t66 -66.5q51 -47 85.5 -89.5t51.5 -95t17 -128.5q0 -103 -43.5 -186t-126 -131.5t-199.5 -48.5z" />
    <glyph glyph-name="t" unicode="t" horiz-adv-x="598" 
d="M266 -20q-109 0 -154.5 62.5t-45.5 162.5q0 34 5 74t15 92l115 538h-101l27 131l137 70l103 244h174l-52 -238h175l-43 -207h-175l-120 -569q-5 -23 -9 -43.5t-4 -36.5q0 -34 14 -48.5t46 -14.5q15 0 46 5.5t62 18.5v-198q-46 -23 -107 -33t-108 -10z" />
    <glyph glyph-name="u" unicode="u" horiz-adv-x="926" 
d="M266 -20q-71 0 -120.5 28.5t-75 82t-25.5 128.5q0 37 6.5 83.5t14.5 90.5l155 723h244l-139 -663q-11 -46 -17 -89t-6 -77q0 -40 16.5 -63t51.5 -23q48 0 84.5 41t64 115t47.5 173l127 586h244l-236 -1116h-196l8 135h-6q-32 -48 -70 -82.5t-81 -53.5t-91 -19z" />
    <glyph glyph-name="v" unicode="v" horiz-adv-x="817" 
d="M156 0l-33 1116h246l-4 -524q0 -34 -1 -75.5t-3.5 -82.5t-6.5 -74h8q8 27 17 53.5t19.5 52.5t19.5 50l250 600h258l-506 -1116h-264z" />
    <glyph glyph-name="w" unicode="w" horiz-adv-x="1255" 
d="M106 0l25 1116h240l-19 -485q-4 -63 -9.5 -122.5t-10.5 -115.5h6q9 33 21 70t25.5 75t25.5 72l194 506h279l-23 -498q-3 -59 -8 -121t-8 -118h4q15 43 29 87.5t29.5 89t31.5 87.5l178 473h246l-449 -1116h-284l30 592q3 32 5.5 63.5t5 64t4.5 64.5h-4q-9 -28 -18.5 -54.5
t-18.5 -52.5t-19 -54l-235 -623h-273z" />
    <glyph glyph-name="x" unicode="x" horiz-adv-x="829" 
d="M-100 0l364 575l-119 541h265l49 -330l186 330h275l-351 -549l125 -567h-264l-57 356l-205 -356h-268z" />
    <glyph glyph-name="y" unicode="y" horiz-adv-x="823" 
d="M-23 -492q-41 0 -74 5t-59 14l41 221q23 -9 45 -13.5t41 -4.5q51 0 81 34t59 97l69 153l-49 1102h248l2 -526q0 -35 -0.5 -71t-2 -72t-3.5 -72h6q11 38 23.5 77t25 73t21.5 57l225 534h258l-584 -1284q-44 -95 -93 -168t-115.5 -114.5t-164.5 -41.5z" />
    <glyph glyph-name="z" unicode="z" horiz-adv-x="694" 
d="M-80 0l33 152l483 755h-303l45 209h582l-35 -166l-471 -741h328l-45 -209h-617z" />
    <glyph glyph-name="braceleft" unicode="{" horiz-adv-x="688" 
d="M465 -324q-187 0 -268.5 69t-81.5 196q0 27 4 57t10 59l45 217q3 16 6.5 34t3.5 38q0 63 -32.5 93t-124.5 30l45 211q98 2 152.5 45.5t74.5 140.5l61 291q29 130 88 195.5t152 87.5t225 22h6l-47 -209q-88 -1 -129.5 -33.5t-58.5 -123.5l-59 -283q-20 -98 -84.5 -161.5
t-186.5 -80.5l-2 -6q86 -25 125 -74t39 -118q0 -23 -3 -51.5t-9 -59.5l-43 -203q-3 -19 -4.5 -36t-1.5 -29q0 -55 24.5 -81t91.5 -28l-2 -209h-16z" />
    <glyph glyph-name="bar" unicode="|" horiz-adv-x="776" 
d="M276 -477v2048h218v-2048h-218z" />
    <glyph glyph-name="braceright" unicode="}" horiz-adv-x="688" 
d="M-121 -324v209q63 0 104.5 15t67 50t37.5 93l59 283q20 98 85 161.5t186 79.5l2 6q-86 25 -126 74.5t-40 118.5q0 25 3.5 52.5t10.5 58.5l43 202q3 19 4.5 35.5t1.5 30.5q0 54 -31.5 80.5t-99.5 27.5l45 209h13q120 0 190.5 -27.5t101.5 -83t31 -139.5q0 -27 -3 -64.5
t-9 -68.5l-45 -215q-4 -16 -7 -33.5t-3 -37.5q0 -63 33 -93t124 -30l-45 -211q-64 -1 -110.5 -22t-75 -62t-41.5 -103l-61 -290q-28 -127 -81 -193t-140.5 -89.5t-219.5 -23.5h-4z" />
    <glyph glyph-name="asciitilde" unicode="~" horiz-adv-x="969" 
d="M475 616q-54 28 -103 42t-93 14q-46 0 -97.5 -31t-103.5 -90v233q44 53 100 80t123 27q62 0 117.5 -18t113.5 -46q57 -27 105 -41t92 -14q47 0 101 33t100 88v-234q-45 -52 -100 -78t-121 -26q-63 0 -117.5 16.5t-116.5 44.5z" />
    <glyph glyph-name="uni00A0" unicode="&#xa0;" horiz-adv-x="350" 
 />
    <glyph glyph-name="exclamdown" unicode="&#xa1;" horiz-adv-x="506" 
d="M-82 -373l254 1022h211l-182 -1022h-283zM313 815q-53 0 -83.5 29.5t-30.5 83.5q0 91 52 148t122 57q60 0 92.5 -29t32.5 -86q0 -53 -21 -99.5t-62 -75t-102 -28.5z" />
    <glyph glyph-name="cent" unicode="&#xa2;" horiz-adv-x="889" 
d="M287 -20l45 198q-108 23 -156.5 110.5t-48.5 248.5q0 86 16.5 186t51 198.5t87.5 183t125.5 142t165.5 72.5l35 164h148l-33 -164q46 -6 86.5 -24t71.5 -38l-103 -200q-26 23 -62.5 38t-62.5 15q-65 0 -115.5 -55t-85.5 -141t-53 -182.5t-18 -180.5q0 -88 25 -129t77 -41
q41 0 82.5 15.5t85.5 43.5l64 -174q-51 -43 -118.5 -63.5t-117.5 -26.5l-43 -196h-149z" />
    <glyph glyph-name="sterling" unicode="&#xa3;" horiz-adv-x="889" 
d="M-37 0l47 211q47 27 81.5 62.5t58 86t38.5 119.5l35 168h-127l41 193h125l57 270q26 114 73 197.5t123 129.5t187 46q74 0 143.5 -21.5t121.5 -62.5l-105 -205q-35 29 -75 45t-78 16q-63 0 -96 -44.5t-52 -133.5l-51 -237h233l-41 -193h-231l-35 -168q-18 -89 -63.5 -151
t-108.5 -103h475l-47 -225h-729z" />
    <glyph glyph-name="currency" unicode="&#xa4;" horiz-adv-x="1006" 
d="M881 266l-133 129q-48 -29 -102 -45t-109 -16q-60 0 -114.5 16t-98.5 47l-129 -129l-113 115l129 129q-32 47 -48 100.5t-16 110.5q0 56 16 108t48 103l-131 131l115 115l131 -131q47 34 101.5 49.5t109.5 15.5q56 0 109.5 -16.5t101.5 -48.5l133 131l114 -113l-131 -131
q31 -48 47.5 -101t16.5 -112q0 -60 -16 -114t-48 -101l129 -127zM537 496q65 0 117 31t83 83t31 113q0 62 -31.5 114t-84 83.5t-115.5 31.5q-61 0 -113 -31t-83.5 -83t-31.5 -115q0 -62 31 -114t83 -82.5t114 -30.5z" />
    <glyph glyph-name="yen" unicode="&#xa5;" horiz-adv-x="885" 
d="M190 0l52 240h-215l34 166h215l31 147h-215l37 164h176l-82 745h258l25 -551l256 551h264l-399 -745h182l-35 -164h-217l-33 -147h219l-34 -166h-220l-49 -240h-250z" />
    <glyph glyph-name="brokenbar" unicode="&#xa6;" horiz-adv-x="776" 
d="M276 791v780h218v-780h-218zM276 -477v780h218v-780h-218z" />
    <glyph glyph-name="section" unicode="&#xa7;" horiz-adv-x="809" 
d="M291 10q-80 0 -148 18t-114 52v201q63 -52 129 -73.5t116 -21.5q68 0 109 41.5t41 108.5q0 34 -17.5 59.5t-45.5 48t-60 45.5q-51 35 -90 74t-61.5 87t-22.5 108q0 70 24 123.5t69 94.5t106 73q-42 41 -61 88t-19 116q0 74 39 143t114.5 114.5t182.5 48.5q86 0 160 -21
t135 -59l-91 -168q-44 37 -95 55t-101 18q-36 0 -64 -16t-44.5 -43.5t-16.5 -64.5q0 -43 29 -75t81 -69q68 -47 109 -88.5t59.5 -83.5t18.5 -90q0 -68 -22.5 -122t-64 -98.5t-100.5 -86.5q29 -32 49.5 -79.5t20.5 -113.5q0 -95 -44 -173t-123.5 -124.5t-186.5 -46.5z
M467 635q35 28 56.5 71.5t21.5 94.5q0 32 -10 57.5t-35 51.5t-70 57q-30 -15 -50.5 -40t-31 -54.5t-10.5 -61.5q0 -35 14 -64t42.5 -56t72.5 -56z" />
    <glyph glyph-name="dieresis" unicode="&#xa8;" horiz-adv-x="918" 
d="M760 1274q-49 0 -75 24.5t-26 71.5q0 65 39 115.5t111 50.5q44 0 69 -24t25 -68q0 -76 -42 -123t-101 -47zM412 1274q-49 0 -75 24.5t-26 71.5q0 65 39 115.5t111 50.5q29 0 49.5 -10.5t31.5 -31t11 -50.5q0 -76 -41.5 -123t-99.5 -47z" />
    <glyph glyph-name="copyright" unicode="&#xa9;" horiz-adv-x="1692" 
d="M838 -20q-170 0 -308.5 57t-237.5 158.5t-152.5 238t-53.5 295.5q0 168 58.5 306.5t162.5 238.5t242.5 154.5t298.5 54.5q165 0 303.5 -57t240.5 -159t158 -240t56 -300q0 -164 -57.5 -301t-161.5 -237t-244 -154.5t-305 -54.5zM879 266q-203 0 -315.5 121.5
t-112.5 341.5q0 146 50.5 250t146 159.5t229.5 55.5q77 0 150.5 -18.5t146.5 -53.5l-78 -155q-52 26 -103.5 38.5t-97.5 12.5q-109 0 -169 -72t-60 -223q0 -145 57 -213t174 -68q57 0 118.5 15.5t119.5 44.5v-176q-60 -29 -123.5 -44.5t-132.5 -15.5zM852 115
q132 0 241.5 44.5t189.5 126.5t123.5 194t43.5 247q0 140 -45.5 254t-127.5 196t-192.5 126.5t-240.5 44.5q-136 0 -247 -47.5t-191 -132t-123 -198t-43 -245.5q0 -138 46.5 -250.5t130 -193t194.5 -123.5t241 -43z" />
    <glyph glyph-name="ordfeminine" unicode="&#xaa;" horiz-adv-x="616" 
d="M324 756q-42 0 -85.5 23.5t-73.5 79t-30 151.5q0 81 21 163t62 151t102 111t141 42q57 0 90 -28t49 -73h6l35 88h123l-148 -696h-131l11 92h-7q-27 -44 -66.5 -74t-98.5 -30zM369 903q30 0 54 20.5t42.5 54t30.5 73.5t18 80t6 73q0 65 -15.5 97t-47.5 32q-33 0 -60 -27.5
t-46 -73t-29.5 -101t-10.5 -111.5q0 -61 15 -89t43 -28z" />
    <glyph glyph-name="guillemotleft" unicode="&#xab;" horiz-adv-x="983" 
d="M252 92l-209 451l2 24l352 447l174 -109l-274 -356l154 -371zM674 92l-211 451l4 24l352 447l174 -109l-274 -356l151 -371z" />
    <glyph glyph-name="logicalnot" unicode="&#xac;" horiz-adv-x="969" 
d="M909 831v-589h-221v372h-600v217h821z" />
    <glyph glyph-name="uni00AD" unicode="&#xad;" horiz-adv-x="584" 
d="M25 432l49 236h479l-51 -236h-477z" />
    <glyph glyph-name="registered" unicode="&#xae;" horiz-adv-x="1692" 
d="M537 307v877h278q172 0 260 -66t88 -200q0 -86 -34 -146.5t-109 -95.5l197 -369h-230l-153 332h-86v-332h-211zM748 788h55q68 0 106.5 28.5t38.5 92.5q0 59 -33 84t-110 25h-57v-230zM838 -20q-170 0 -308.5 57t-237.5 158.5t-152.5 238t-53.5 295.5q0 168 58.5 306.5
t162.5 238.5t242.5 154.5t298.5 54.5q165 0 303.5 -57t240.5 -159t158 -240t56 -300q0 -164 -57.5 -301t-161.5 -237t-244 -154.5t-305 -54.5zM852 115q132 0 241.5 44.5t189.5 126.5t123.5 194t43.5 247q0 140 -45.5 254t-127.5 196t-192.5 126.5t-240.5 44.5
q-136 0 -247 -47.5t-191 -132t-123 -198t-43 -245.5q0 -138 46.5 -250.5t130 -193t194.5 -123.5t241 -43z" />
    <glyph glyph-name="overscore" unicode="&#xaf;" horiz-adv-x="877" 
d="M199 1556l41 189h886l-39 -189h-888z" />
    <glyph glyph-name="degree" unicode="&#xb0;" horiz-adv-x="741" 
d="M369 883q-87 0 -156.5 38t-110.5 106t-41 157t41 156.5t111 105t156 37.5q89 0 159 -38t110 -105.5t40 -155.5q0 -90 -41 -158t-111 -105.5t-157 -37.5zM369 1042q65 0 102 38t37 104q0 63 -36.5 101t-102.5 38t-102 -39.5t-36 -99.5q0 -66 37.5 -104t100.5 -38z" />
    <glyph glyph-name="plusminus" unicode="&#xb1;" horiz-adv-x="969" 
d="M88 0v217h834v-217h-834zM616 921h306v-217h-306v-381h-221v381h-307v217h307v386h221v-386z" />
    <glyph glyph-name="uni00B2" unicode="&#xb2;" horiz-adv-x="621" 
d="M104 852l31 158l225 241q52 56 89.5 101t58 85.5t20.5 82.5q0 34 -16.5 53.5t-48.5 19.5q-38 0 -77 -27.5t-71 -58.5l-61 127q51 57 121.5 87t142.5 30q101 0 155 -54t54 -143q0 -71 -32.5 -135t-83 -121.5t-105.5 -109.5l-168 -170h293l-35 -166h-492z" />
    <glyph glyph-name="uni00B3" unicode="&#xb3;" horiz-adv-x="621" 
d="M328 836q-66 0 -116 15.5t-85 43.5v178q37 -35 89.5 -54.5t115.5 -19.5t100 36.5t37 97.5q0 44 -27 69t-73 25h-82l30 143h70q48 0 81 19t50 51.5t17 72.5q0 39 -20 58.5t-54 19.5q-37 0 -72 -16.5t-76 -48.5l-67 127q59 50 125.5 73t130.5 23q78 0 127 -26t72.5 -70.5
t23.5 -102.5q0 -81 -44.5 -143t-135.5 -94l-2 -8q47 -20 77.5 -62t30.5 -115q0 -92 -40 -157.5t-112.5 -100t-170.5 -34.5z" />
    <glyph glyph-name="acute" unicode="&#xb4;" horiz-adv-x="596" 
d="M227 1241l4 21q42 52 80.5 104t73 103t64.5 100h278l-2 -17q-22 -27 -65 -70.5t-92.5 -91t-94 -88t-70.5 -61.5h-176z" />
    <glyph glyph-name="uni00B5" unicode="&#xb5;" horiz-adv-x="928" 
d="M-121 -492l342 1608h244l-139 -663q-10 -46 -15.5 -83.5t-5.5 -66.5q0 -49 15.5 -74.5t52.5 -25.5q40 0 74 27.5t63.5 95t54.5 186.5l129 604h244l-236 -1116h-192l2 121h-4q-27 -52 -57 -83t-61.5 -44.5t-65.5 -13.5t-58.5 16t-40.5 45h-4q-1 -25 -3 -53t-5.5 -57
t-9.5 -60l-78 -363h-246z" />
    <glyph glyph-name="paragraph" unicode="&#xb6;" horiz-adv-x="1022" 
d="M512 -260l-2 858q-13 -6 -30 -9t-40 -3q-84 0 -138 44.5t-84.5 117.5t-43 160t-12.5 173q0 93 17 178.5t54.5 152t98 105.5t147.5 39h451v-1816h-148v1683h-123v-1683h-147z" />
    <glyph glyph-name="periodcentered" unicode="&#xb7;" horiz-adv-x="479" 
d="M246 564q-60 0 -92.5 28.5t-32.5 85.5q0 80 48 142.5t136 62.5q56 0 86.5 -30.5t30.5 -84.5q0 -91 -53.5 -147.5t-122.5 -56.5z" />
    <glyph glyph-name="cedilla" unicode="&#xb8;" horiz-adv-x="336" 
d="M-63 -492q-39 0 -76 4.5t-74 14.5v143q22 -6 51.5 -10t63.5 -4q35 0 59.5 11t37.5 32t13 49q0 37 -30.5 59.5t-92.5 26.5l103 166h129l-55 -86q63 -12 103 -53t40 -109q0 -86 -36.5 -140t-98 -79t-137.5 -25z" />
    <glyph glyph-name="uni00B9" unicode="&#xb9;" horiz-adv-x="621" 
d="M317 852l117 541q8 32 15 56.5t14 49.5q-13 -12 -24 -23.5t-19 -17.5l-115 -84l-78 115l308 240h157l-186 -877h-189z" />
    <glyph glyph-name="ordmasculine" unicode="&#xba;" horiz-adv-x="614" 
d="M358 754q-109 0 -164 70t-55 188q0 84 21.5 166.5t64 150.5t105.5 109t147 41q92 0 154.5 -61t62.5 -195q0 -84 -22.5 -167t-65.5 -151.5t-105.5 -109.5t-142.5 -41zM383 907q34 0 59.5 26.5t43 71t26 97.5t8.5 106q0 59 -15 89t-50 30q-34 0 -60 -27t-44 -72t-27 -98.5
t-9 -107.5q0 -61 16.5 -88t51.5 -27z" />
    <glyph glyph-name="guillemotright" unicode="&#xbb;" horiz-adv-x="985" 
d="M580 92l-174 107l274 358l-154 369l199 88l211 -451l-4 -24zM158 92l-174 107l274 358l-152 369l197 88l209 -451l-2 -24z" />
    <glyph glyph-name="onequarter" unicode="&#xbc;" horiz-adv-x="1497" 
d="M168 0l1014 1462h196l-1016 -1462h-194zM270 586l117 541q8 32 15 56.5t14 49.5q-13 -12 -24 -23.5t-19 -17.5l-115 -84l-78 115l308 240h157l-186 -877h-189zM1058 0l37 166h-297l27 135l406 582h200l-121 -568h97l-33 -149h-94l-37 -166h-185zM987 315h139l47 219
q8 31 14 57.5t15 57.5q-16 -28 -29.5 -54t-32.5 -52z" />
    <glyph glyph-name="onehalf" unicode="&#xbd;" horiz-adv-x="1538" 
d="M152 0l1014 1462h196l-1016 -1462h-194zM270 586l117 541q8 32 15 56.5t14 49.5q-13 -12 -24 -23.5t-19 -17.5l-115 -84l-78 115l308 240h157l-186 -877h-189zM841 0l31 158l225 241q52 56 89.5 101t58 85.5t20.5 82.5q0 34 -16.5 53.5t-48.5 19.5q-38 0 -77 -27.5
t-71 -58.5l-61 127q51 57 121.5 87t142.5 30q101 0 155 -54t54 -143q0 -71 -32.5 -135t-83 -121.5t-105.5 -109.5l-168 -170h293l-35 -166h-492z" />
    <glyph glyph-name="threequarters" unicode="&#xbe;" horiz-adv-x="1505" 
d="M281 570q-66 0 -116 15.5t-85 43.5v178q37 -35 89.5 -54.5t115.5 -19.5t100 36.5t37 97.5q0 44 -27 69t-73 25h-82l30 143h70q48 0 81 19t50 51.5t17 72.5q0 39 -20 58.5t-54 19.5q-37 0 -72 -16.5t-76 -48.5l-67 127q59 50 125.5 73t130.5 23q78 0 127 -26t72.5 -70.5
t23.5 -102.5q0 -81 -44.5 -143t-135.5 -94l-2 -8q47 -20 77.5 -62t30.5 -115q0 -92 -40 -157.5t-112.5 -100t-170.5 -34.5zM193 0l1014 1462h196l-1016 -1462h-194zM1067 0l37 166h-297l27 135l406 582h200l-121 -568h97l-33 -149h-94l-37 -166h-185zM996 315h139l47 219
q8 31 14 57.5t15 57.5q-16 -28 -29.5 -54t-32.5 -52z" />
    <glyph glyph-name="questiondown" unicode="&#xbf;" horiz-adv-x="682" 
d="M522 645q-20 -100 -41.5 -164.5t-53 -113t-83.5 -103.5q-53 -58 -97 -103t-70.5 -93t-26.5 -117q0 -52 25.5 -77.5t74.5 -25.5q60 0 116.5 27.5t106.5 63.5l37 -193q-79 -61 -161.5 -91t-162.5 -30q-138 0 -210 70t-72 192q0 97 34 176.5t90 148.5t122 132q59 60 89 99.5
t45.5 84t30.5 117.5h207zM508 1128q60 0 92.5 -28.5t32.5 -85.5q0 -80 -48 -142.5t-138 -62.5q-54 0 -84.5 30.5t-30.5 84.5q0 91 53 147.5t123 56.5z" />
    <glyph glyph-name="Agrave" unicode="&#xc0;" horiz-adv-x="963" 
d="M-127 0l623 1468h325l15 -1468h-271l6 373h-270l-147 -373h-281zM387 598h197l12 444q2 50 4 95.5t6 93.5h-6q-7 -45 -20.5 -89.5t-30.5 -94.5zM616 1622q-25 35 -62 92.5t-70.5 116.5t-51.5 100v19h276q11 -44 23.5 -92.5t29 -101t36.5 -109.5l-3 -25h-178z" />
    <glyph glyph-name="Aacute" unicode="&#xc1;" horiz-adv-x="963" 
d="M-127 0l623 1468h325l15 -1468h-271l6 373h-270l-147 -373h-281zM387 598h197l12 444q2 50 4 95.5t6 93.5h-6q-7 -45 -20.5 -89.5t-30.5 -94.5zM522 1622l4 21q42 52 80.5 104t73 103t64.5 100h278l-2 -17q-22 -27 -65 -70.5t-92.5 -91t-94 -88t-70.5 -61.5h-176z" />
    <glyph glyph-name="Acircumflex" unicode="&#xc2;" horiz-adv-x="963" 
d="M-127 0l623 1468h325l15 -1468h-271l6 373h-270l-147 -373h-281zM387 598h197l12 444q2 50 4 95.5t6 93.5h-6q-7 -45 -20.5 -89.5t-30.5 -94.5zM393 1622l4 23q46 47 88.5 97.5t82 103t73.5 104.5h221q10 -39 29 -95t42 -112t42 -96l-6 -25h-148q-16 22 -33 47
t-34.5 54.5t-36.5 62.5q-48 -52 -90.5 -93.5t-79.5 -70.5h-154z" />
    <glyph glyph-name="Atilde" unicode="&#xc3;" horiz-adv-x="963" 
d="M-127 0l623 1468h325l15 -1468h-271l6 373h-270l-147 -373h-281zM387 598h197l12 444q2 50 4 95.5t6 93.5h-6q-7 -45 -20.5 -89.5t-30.5 -94.5zM374 1622q18 86 45 154t71 107.5t112 39.5q46 0 79.5 -16.5t58.5 -37.5t47 -37.5t46 -16.5q29 0 48 23.5t32 86.5h143
q-19 -112 -54.5 -178t-79.5 -94.5t-91 -28.5q-45 0 -78 16.5t-58.5 38t-48.5 38t-48 16.5q-26 0 -47 -26t-33 -85h-144z" />
    <glyph glyph-name="Adieresis" unicode="&#xc4;" horiz-adv-x="963" 
d="M-127 0l623 1468h325l15 -1468h-271l6 373h-270l-147 -373h-281zM387 598h197l12 444q2 50 4 95.5t6 93.5h-6q-7 -45 -20.5 -89.5t-30.5 -94.5zM866 1655q-49 0 -75 24.5t-26 71.5q0 65 39 115.5t111 50.5q44 0 69 -24t25 -68q0 -76 -42 -123t-101 -47zM518 1655
q-49 0 -75 24.5t-26 71.5q0 65 39 115.5t111 50.5q29 0 49.5 -10.5t31.5 -31t11 -50.5q0 -76 -41.5 -123t-99.5 -47z" />
    <glyph glyph-name="Aring" unicode="&#xc5;" horiz-adv-x="963" 
d="M-127 0l623 1468h325l15 -1468h-271l6 373h-270l-147 -373h-281zM387 598h197l12 444q2 50 4 95.5t6 93.5h-6q-7 -45 -20.5 -89.5t-30.5 -94.5zM704 1569q-110 0 -171.5 62.5t-61.5 167.5q0 101 63 163t170 62q100 0 164.5 -61.5t64.5 -159.5q0 -103 -61.5 -168.5
t-167.5 -65.5zM704 1696q44 0 72 27t28 73q0 45 -26.5 74t-72.5 29q-50 0 -76.5 -29t-26.5 -74q0 -46 25 -73t77 -27z" />
    <glyph glyph-name="AE" unicode="&#xc6;" horiz-adv-x="1278" 
d="M-133 0l708 1462h801l-47 -223h-344l-78 -369h320l-47 -223h-320l-90 -422h344l-47 -225h-598l80 373h-234l-172 -373h-276zM420 600h178l135 639h-22z" />
    <glyph glyph-name="Ccedilla" unicode="&#xc7;" horiz-adv-x="881" 
d="M424 -20q-115 0 -193.5 55.5t-118.5 161t-40 254.5q0 134 27 277.5t80.5 278t132 242t181.5 171t230 63.5q81 0 157.5 -20.5t139.5 -67.5l-125 -205q-41 34 -82 50.5t-84 16.5q-80 0 -142.5 -59t-108.5 -153.5t-76.5 -203t-45 -208.5t-14.5 -168q0 -136 37 -197t113 -61
q56 0 113.5 17.5t115.5 45.5v-229q-67 -32 -146 -46.5t-151 -14.5zM299 -492q-39 0 -76 4.5t-74 14.5v143q22 -6 51.5 -10t63.5 -4q35 0 59.5 11t37.5 32t13 49q0 37 -30.5 59.5t-92.5 26.5l103 166h129l-55 -86q63 -12 103 -53t40 -109q0 -86 -36.5 -140t-98 -79
t-137.5 -25z" />
    <glyph glyph-name="Egrave" unicode="&#xc8;" horiz-adv-x="807" 
d="M-4 0l309 1462h600l-47 -223h-344l-78 -369h320l-47 -223h-320l-92 -422h346l-47 -225h-600zM555 1579q-25 35 -62 92.5t-70.5 116.5t-51.5 100v19h276q11 -44 23.5 -92.5t29 -101t36.5 -109.5l-3 -25h-178z" />
    <glyph glyph-name="Eacute" unicode="&#xc9;" horiz-adv-x="807" 
d="M-4 0l309 1462h600l-47 -223h-344l-78 -369h320l-47 -223h-320l-92 -422h346l-47 -225h-600zM469 1579l4 21q42 52 80.5 104t73 103t64.5 100h278l-2 -17q-22 -27 -65 -70.5t-92.5 -91t-94 -88t-70.5 -61.5h-176z" />
    <glyph glyph-name="Ecircumflex" unicode="&#xca;" horiz-adv-x="807" 
d="M-4 0l309 1462h600l-47 -223h-344l-78 -369h320l-47 -223h-320l-92 -422h346l-47 -225h-600zM333 1579l4 23q46 47 88.5 97.5t82 103t73.5 104.5h221q10 -39 29 -95t42 -112t42 -96l-6 -25h-148q-16 22 -33 47t-34.5 54.5t-36.5 62.5q-48 -52 -90.5 -93.5t-79.5 -70.5
h-154z" />
    <glyph glyph-name="Edieresis" unicode="&#xcb;" horiz-adv-x="807" 
d="M-4 0l309 1462h600l-47 -223h-344l-78 -369h320l-47 -223h-320l-92 -422h346l-47 -225h-600zM793 1612q-49 0 -75 24.5t-26 71.5q0 65 39 115.5t111 50.5q44 0 69 -24t25 -68q0 -76 -42 -123t-101 -47zM445 1612q-49 0 -75 24.5t-26 71.5q0 65 39 115.5t111 50.5
q29 0 49.5 -10.5t31.5 -31t11 -50.5q0 -76 -41.5 -123t-99.5 -47z" />
    <glyph glyph-name="Igrave" unicode="&#xcc;" horiz-adv-x="496" 
d="M-6 0l311 1462h254l-309 -1462h-256zM407 1618q-25 35 -62 92.5t-70.5 116.5t-51.5 100v19h276q11 -44 23.5 -92.5t29 -101t36.5 -109.5l-3 -25h-178z" />
    <glyph glyph-name="Iacute" unicode="&#xcd;" horiz-adv-x="496" 
d="M-6 0l311 1462h254l-309 -1462h-256zM338 1618l4 21q42 52 80.5 104t73 103t64.5 100h278l-2 -17q-22 -27 -65 -70.5t-92.5 -91t-94 -88t-70.5 -61.5h-176z" />
    <glyph glyph-name="Icircumflex" unicode="&#xce;" horiz-adv-x="496" 
d="M-6 0l311 1462h254l-309 -1462h-256zM176 1620l4 23q46 47 88.5 97.5t82 103t73.5 104.5h221q10 -39 29 -95t42 -112t42 -96l-6 -25h-148q-16 22 -33 47t-34.5 54.5t-36.5 62.5q-48 -52 -90.5 -93.5t-79.5 -70.5h-154z" />
    <glyph glyph-name="Idieresis" unicode="&#xcf;" horiz-adv-x="496" 
d="M-6 0l311 1462h254l-309 -1462h-256zM647 1655q-49 0 -75 24.5t-26 71.5q0 65 39 115.5t111 50.5q44 0 69 -24t25 -68q0 -76 -42 -123t-101 -47zM299 1655q-49 0 -75 24.5t-26 71.5q0 65 39 115.5t111 50.5q29 0 49.5 -10.5t31.5 -31t11 -50.5q0 -76 -41.5 -123
t-99.5 -47z" />
    <glyph glyph-name="Eth" unicode="&#xd0;" horiz-adv-x="1036" 
d="M-4 0l139 662h-104l41 196h104l129 604h289q209 0 318.5 -116.5t109.5 -331.5q0 -138 -26.5 -281.5t-81 -274.5t-139.5 -234.5t-201.5 -163.5t-266.5 -60h-311zM299 229h45q91 0 159.5 54t116 141t76.5 189.5t42.5 201.5t13.5 174q0 128 -46 187t-137 59h-57l-80 -377
h150l-41 -196h-152z" />
    <glyph glyph-name="Ntilde" unicode="&#xd1;" horiz-adv-x="1149" 
d="M-4 0l309 1462h289l172 -993h6q11 63 21 123t19.5 112.5t16.5 90.5l144 667h241l-309 -1462h-289l-172 1016h-6q-7 -51 -15 -103t-17 -99.5t-16.5 -87.5t-12.5 -69l-141 -657h-240zM454 1579q18 86 45 154t71 107.5t112 39.5q46 0 79.5 -16.5t58.5 -37.5t47 -37.5
t46 -16.5q29 0 48 23.5t32 86.5h143q-19 -112 -54.5 -178t-79.5 -94.5t-91 -28.5q-45 0 -78 16.5t-58.5 38t-48.5 38t-48 16.5q-26 0 -47 -26t-33 -85h-144z" />
    <glyph glyph-name="Ograve" unicode="&#xd2;" horiz-adv-x="1098" 
d="M446 -20q-126 0 -209 49.5t-124 152.5t-41 262q0 113 18.5 233t54.5 237t90 220t125.5 182t160.5 124t194 45q192 0 280 -115t88 -342q0 -97 -15.5 -211.5t-48 -232t-83.5 -225.5t-121.5 -193.5t-162.5 -135.5t-206 -50zM467 209q58 0 106.5 41t87.5 110.5t68.5 156.5
t49.5 180t30 180.5t10 156.5q0 114 -31.5 168.5t-93.5 54.5q-60 0 -110 -42t-89 -113t-68.5 -158.5t-48.5 -179.5t-28.5 -175.5t-9.5 -146.5q0 -88 14 -139t42.5 -72.5t70.5 -21.5zM682 1579q-25 35 -62 92.5t-70.5 116.5t-51.5 100v19h276q11 -44 23.5 -92.5t29 -101
t36.5 -109.5l-3 -25h-178z" />
    <glyph glyph-name="Oacute" unicode="&#xd3;" horiz-adv-x="1098" 
d="M446 -20q-126 0 -209 49.5t-124 152.5t-41 262q0 113 18.5 233t54.5 237t90 220t125.5 182t160.5 124t194 45q192 0 280 -115t88 -342q0 -97 -15.5 -211.5t-48 -232t-83.5 -225.5t-121.5 -193.5t-162.5 -135.5t-206 -50zM467 209q58 0 106.5 41t87.5 110.5t68.5 156.5
t49.5 180t30 180.5t10 156.5q0 114 -31.5 168.5t-93.5 54.5q-60 0 -110 -42t-89 -113t-68.5 -158.5t-48.5 -179.5t-28.5 -175.5t-9.5 -146.5q0 -88 14 -139t42.5 -72.5t70.5 -21.5zM602 1579l4 21q42 52 80.5 104t73 103t64.5 100h278l-2 -17q-22 -27 -65 -70.5t-92.5 -91
t-94 -88t-70.5 -61.5h-176z" />
    <glyph glyph-name="Ocircumflex" unicode="&#xd4;" horiz-adv-x="1098" 
d="M446 -20q-126 0 -209 49.5t-124 152.5t-41 262q0 113 18.5 233t54.5 237t90 220t125.5 182t160.5 124t194 45q192 0 280 -115t88 -342q0 -97 -15.5 -211.5t-48 -232t-83.5 -225.5t-121.5 -193.5t-162.5 -135.5t-206 -50zM467 209q58 0 106.5 41t87.5 110.5t68.5 156.5
t49.5 180t30 180.5t10 156.5q0 114 -31.5 168.5t-93.5 54.5q-60 0 -110 -42t-89 -113t-68.5 -158.5t-48.5 -179.5t-28.5 -175.5t-9.5 -146.5q0 -88 14 -139t42.5 -72.5t70.5 -21.5zM434 1579l4 23q46 47 88.5 97.5t82 103t73.5 104.5h221q10 -39 29 -95t42 -112t42 -96
l-6 -25h-148q-16 22 -33 47t-34.5 54.5t-36.5 62.5q-48 -52 -90.5 -93.5t-79.5 -70.5h-154z" />
    <glyph glyph-name="Otilde" unicode="&#xd5;" horiz-adv-x="1098" 
d="M446 -20q-126 0 -209 49.5t-124 152.5t-41 262q0 113 18.5 233t54.5 237t90 220t125.5 182t160.5 124t194 45q192 0 280 -115t88 -342q0 -97 -15.5 -211.5t-48 -232t-83.5 -225.5t-121.5 -193.5t-162.5 -135.5t-206 -50zM467 209q58 0 106.5 41t87.5 110.5t68.5 156.5
t49.5 180t30 180.5t10 156.5q0 114 -31.5 168.5t-93.5 54.5q-60 0 -110 -42t-89 -113t-68.5 -158.5t-48.5 -179.5t-28.5 -175.5t-9.5 -146.5q0 -88 14 -139t42.5 -72.5t70.5 -21.5zM432 1579q18 86 45 154t71 107.5t112 39.5q46 0 79.5 -16.5t58.5 -37.5t47 -37.5t46 -16.5
q29 0 48 23.5t32 86.5h143q-19 -112 -54.5 -178t-79.5 -94.5t-91 -28.5q-45 0 -78 16.5t-58.5 38t-48.5 38t-48 16.5q-26 0 -47 -26t-33 -85h-144z" />
    <glyph glyph-name="Odieresis" unicode="&#xd6;" horiz-adv-x="1098" 
d="M446 -20q-126 0 -209 49.5t-124 152.5t-41 262q0 113 18.5 233t54.5 237t90 220t125.5 182t160.5 124t194 45q192 0 280 -115t88 -342q0 -97 -15.5 -211.5t-48 -232t-83.5 -225.5t-121.5 -193.5t-162.5 -135.5t-206 -50zM467 209q58 0 106.5 41t87.5 110.5t68.5 156.5
t49.5 180t30 180.5t10 156.5q0 114 -31.5 168.5t-93.5 54.5q-60 0 -110 -42t-89 -113t-68.5 -158.5t-48.5 -179.5t-28.5 -175.5t-9.5 -146.5q0 -88 14 -139t42.5 -72.5t70.5 -21.5zM916 1612q-49 0 -75 24.5t-26 71.5q0 65 39 115.5t111 50.5q44 0 69 -24t25 -68
q0 -76 -42 -123t-101 -47zM568 1612q-49 0 -75 24.5t-26 71.5q0 65 39 115.5t111 50.5q29 0 49.5 -10.5t31.5 -31t11 -50.5q0 -76 -41.5 -123t-99.5 -47z" />
    <glyph glyph-name="multiply" unicode="&#xd7;" horiz-adv-x="969" 
d="M766 1137l152 -150l-265 -264l260 -262l-149 -150l-262 260l-264 -260l-146 152l258 260l-258 260l148 152l262 -258z" />
    <glyph glyph-name="Oslash" unicode="&#xd8;" horiz-adv-x="1100" 
d="M123 -109l-119 70l123 193q-28 53 -41.5 126t-13.5 164q0 113 18 233t54 237t90 220t125.5 182t160 124t193.5 45q72 0 129 -18.5t98 -55.5l90 141l119 -69l-117 -183q26 -52 38.5 -120.5t12.5 -151.5q0 -97 -15.5 -211.5t-48 -232t-83.5 -225.5t-122 -193.5t-163 -135.5
t-207 -50q-69 0 -124 16.5t-97 50.5zM465 209q51 0 95 32t80 87t64.5 126t49.5 150t34 158t19 149q3 17 4 33.5t2 32.5l-448 -703q15 -34 40.5 -49.5t59.5 -15.5zM344 471l455 709q-16 40 -42.5 58.5t-64.5 18.5q-53 0 -97.5 -33.5t-80.5 -90.5t-64.5 -129.5t-48.5 -150.5
t-33.5 -153.5t-19.5 -138.5q-1 -25 -2.5 -47.5t-1.5 -42.5z" />
    <glyph glyph-name="Ugrave" unicode="&#xd9;" horiz-adv-x="1042" 
d="M408 -20q-105 0 -181 39t-116.5 113.5t-40.5 178.5q0 37 5.5 82.5t14.5 91.5l209 977h256l-209 -983q-9 -35 -12.5 -68t-3.5 -59q0 -73 28.5 -108t83.5 -35t93.5 29t66 90.5t47.5 160.5l209 973h256l-215 -1007q-31 -150 -91.5 -256.5t-158 -162.5t-241.5 -56zM655 1579
q-25 35 -62 92.5t-70.5 116.5t-51.5 100v19h276q11 -44 23.5 -92.5t29 -101t36.5 -109.5l-3 -25h-178z" />
    <glyph glyph-name="Uacute" unicode="&#xda;" horiz-adv-x="1042" 
d="M408 -20q-105 0 -181 39t-116.5 113.5t-40.5 178.5q0 37 5.5 82.5t14.5 91.5l209 977h256l-209 -983q-9 -35 -12.5 -68t-3.5 -59q0 -73 28.5 -108t83.5 -35t93.5 29t66 90.5t47.5 160.5l209 973h256l-215 -1007q-31 -150 -91.5 -256.5t-158 -162.5t-241.5 -56zM583 1579
l4 21q42 52 80.5 104t73 103t64.5 100h278l-2 -17q-22 -27 -65 -70.5t-92.5 -91t-94 -88t-70.5 -61.5h-176z" />
    <glyph glyph-name="Ucircumflex" unicode="&#xdb;" horiz-adv-x="1042" 
d="M408 -20q-105 0 -181 39t-116.5 113.5t-40.5 178.5q0 37 5.5 82.5t14.5 91.5l209 977h256l-209 -983q-9 -35 -12.5 -68t-3.5 -59q0 -73 28.5 -108t83.5 -35t93.5 29t66 90.5t47.5 160.5l209 973h256l-215 -1007q-31 -150 -91.5 -256.5t-158 -162.5t-241.5 -56zM432 1579
l4 23q46 47 88.5 97.5t82 103t73.5 104.5h221q10 -39 29 -95t42 -112t42 -96l-6 -25h-148q-16 22 -33 47t-34.5 54.5t-36.5 62.5q-48 -52 -90.5 -93.5t-79.5 -70.5h-154z" />
    <glyph glyph-name="Udieresis" unicode="&#xdc;" horiz-adv-x="1042" 
d="M408 -20q-105 0 -181 39t-116.5 113.5t-40.5 178.5q0 37 5.5 82.5t14.5 91.5l209 977h256l-209 -983q-9 -35 -12.5 -68t-3.5 -59q0 -73 28.5 -108t83.5 -35t93.5 29t66 90.5t47.5 160.5l209 973h256l-215 -1007q-31 -150 -91.5 -256.5t-158 -162.5t-241.5 -56zM899 1612
q-49 0 -75 24.5t-26 71.5q0 65 39 115.5t111 50.5q44 0 69 -24t25 -68q0 -76 -42 -123t-101 -47zM551 1612q-49 0 -75 24.5t-26 71.5q0 65 39 115.5t111 50.5q29 0 49.5 -10.5t31.5 -31t11 -50.5q0 -76 -41.5 -123t-99.5 -47z" />
    <glyph glyph-name="Yacute" unicode="&#xdd;" horiz-adv-x="870" 
d="M182 0l117 557l-117 905h267l45 -569l286 569h275l-496 -897l-121 -565h-256zM499 1579l4 21q42 52 80.5 104t73 103t64.5 100h278l-2 -17q-22 -27 -65 -70.5t-92.5 -91t-94 -88t-70.5 -61.5h-176z" />
    <glyph glyph-name="Thorn" unicode="&#xde;" horiz-adv-x="907" 
d="M-4 0l309 1462h256l-49 -231h35q125 0 205.5 -41.5t119.5 -117t39 -177.5q0 -112 -31.5 -219t-95.5 -193t-160 -137t-225 -51h-86l-61 -295h-256zM358 518h43q78 0 132.5 43.5t83 121t28.5 177.5q0 79 -34.5 112.5t-108.5 33.5h-39z" />
    <glyph glyph-name="germandbls" unicode="&#xdf;" horiz-adv-x="987" 
d="M-137 -492q-34 0 -65.5 4.5t-63.5 14.5v217q18 -7 46 -12.5t48 -5.5q56 0 84.5 42t48.5 142l262 1231q28 132 85 227.5t144.5 147t206.5 51.5q161 0 247.5 -75.5t86.5 -195.5q0 -64 -15.5 -116t-46.5 -98t-77 -93q-57 -53 -96 -99t-39 -114q0 -22 8 -46.5t23 -50.5
t36 -56q44 -54 73.5 -114.5t29.5 -152.5q0 -112 -48 -197t-133.5 -132t-199.5 -47q-61 0 -118 13t-101 42l41 231q46 -40 93.5 -55.5t88.5 -15.5q59 0 90 38.5t31 96.5q0 30 -9 55.5t-28.5 57.5t-52.5 79q-43 62 -62.5 110.5t-19.5 106.5q0 52 17 99.5t49 92.5t77 89
q41 40 71 75t46 73.5t16 88.5q0 45 -22.5 72t-69.5 27q-46 0 -80 -26.5t-58.5 -80t-43.5 -133.5l-262 -1225q-24 -116 -61 -202.5t-102 -133.5t-175 -47z" />
    <glyph glyph-name="agrave" unicode="&#xe0;" horiz-adv-x="932" 
d="M264 -20q-70 0 -120.5 38.5t-77.5 111t-27 173.5q0 90 17 200.5t51 222t87 204.5t125 150t164 57q45 0 82.5 -16.5t66.5 -51t46 -90.5h6l49 137h213l-237 -1116h-199l2 145h-6q-36 -49 -72 -86t-77 -58t-93 -21zM367 188q55 0 95 52t67.5 128.5t45.5 149.5q23 97 31 158
t8 110q0 66 -22 101t-64 35q-43 0 -79.5 -41.5t-65 -108.5t-49 -146t-31 -155.5t-10.5 -134.5q0 -73 18.5 -110.5t55.5 -37.5zM547 1249q-25 35 -62 92.5t-70.5 116.5t-51.5 100v19h276q11 -44 23.5 -92.5t29 -101t36.5 -109.5l-3 -25h-178z" />
    <glyph glyph-name="aacute" unicode="&#xe1;" horiz-adv-x="932" 
d="M264 -20q-70 0 -120.5 38.5t-77.5 111t-27 173.5q0 90 17 200.5t51 222t87 204.5t125 150t164 57q45 0 82.5 -16.5t66.5 -51t46 -90.5h6l49 137h213l-237 -1116h-199l2 145h-6q-36 -49 -72 -86t-77 -58t-93 -21zM367 188q55 0 95 52t67.5 128.5t45.5 149.5q23 97 31 158
t8 110q0 66 -22 101t-64 35q-43 0 -79.5 -41.5t-65 -108.5t-49 -146t-31 -155.5t-10.5 -134.5q0 -73 18.5 -110.5t55.5 -37.5zM450 1249l4 21q42 52 80.5 104t73 103t64.5 100h278l-2 -17q-22 -27 -65 -70.5t-92.5 -91t-94 -88t-70.5 -61.5h-176z" />
    <glyph glyph-name="acircumflex" unicode="&#xe2;" horiz-adv-x="932" 
d="M264 -20q-70 0 -120.5 38.5t-77.5 111t-27 173.5q0 90 17 200.5t51 222t87 204.5t125 150t164 57q45 0 82.5 -16.5t66.5 -51t46 -90.5h6l49 137h213l-237 -1116h-199l2 145h-6q-36 -49 -72 -86t-77 -58t-93 -21zM367 188q55 0 95 52t67.5 128.5t45.5 149.5q23 97 31 158
t8 110q0 66 -22 101t-64 35q-43 0 -79.5 -41.5t-65 -108.5t-49 -146t-31 -155.5t-10.5 -134.5q0 -73 18.5 -110.5t55.5 -37.5zM321 1249l4 23q46 47 88.5 97.5t82 103t73.5 104.5h221q10 -39 29 -95t42 -112t42 -96l-6 -25h-148q-16 22 -33 47t-34.5 54.5t-36.5 62.5
q-48 -52 -90.5 -93.5t-79.5 -70.5h-154z" />
    <glyph glyph-name="atilde" unicode="&#xe3;" horiz-adv-x="932" 
d="M264 -20q-70 0 -120.5 38.5t-77.5 111t-27 173.5q0 90 17 200.5t51 222t87 204.5t125 150t164 57q45 0 82.5 -16.5t66.5 -51t46 -90.5h6l49 137h213l-237 -1116h-199l2 145h-6q-36 -49 -72 -86t-77 -58t-93 -21zM367 188q55 0 95 52t67.5 128.5t45.5 149.5q23 97 31 158
t8 110q0 66 -22 101t-64 35q-43 0 -79.5 -41.5t-65 -108.5t-49 -146t-31 -155.5t-10.5 -134.5q0 -73 18.5 -110.5t55.5 -37.5zM305 1249q18 86 45 154t71 107.5t112 39.5q46 0 79.5 -16.5t58.5 -37.5t47 -37.5t46 -16.5q29 0 48 23.5t32 86.5h143q-19 -112 -54.5 -178
t-79.5 -94.5t-91 -28.5q-45 0 -78 16.5t-58.5 38t-48.5 38t-48 16.5q-26 0 -47 -26t-33 -85h-144z" />
    <glyph glyph-name="adieresis" unicode="&#xe4;" horiz-adv-x="932" 
d="M264 -20q-70 0 -120.5 38.5t-77.5 111t-27 173.5q0 90 17 200.5t51 222t87 204.5t125 150t164 57q45 0 82.5 -16.5t66.5 -51t46 -90.5h6l49 137h213l-237 -1116h-199l2 145h-6q-36 -49 -72 -86t-77 -58t-93 -21zM367 188q55 0 95 52t67.5 128.5t45.5 149.5q23 97 31 158
t8 110q0 66 -22 101t-64 35q-43 0 -79.5 -41.5t-65 -108.5t-49 -146t-31 -155.5t-10.5 -134.5q0 -73 18.5 -110.5t55.5 -37.5zM795 1282q-49 0 -75 24.5t-26 71.5q0 65 39 115.5t111 50.5q44 0 69 -24t25 -68q0 -76 -42 -123t-101 -47zM447 1282q-49 0 -75 24.5t-26 71.5
q0 65 39 115.5t111 50.5q29 0 49.5 -10.5t31.5 -31t11 -50.5q0 -76 -41.5 -123t-99.5 -47z" />
    <glyph glyph-name="aring" unicode="&#xe5;" horiz-adv-x="932" 
d="M264 -20q-70 0 -120.5 38.5t-77.5 111t-27 173.5q0 90 17 200.5t51 222t87 204.5t125 150t164 57q45 0 82.5 -16.5t66.5 -51t46 -90.5h6l49 137h213l-237 -1116h-199l2 145h-6q-36 -49 -72 -86t-77 -58t-93 -21zM367 188q55 0 95 52t67.5 128.5t45.5 149.5q23 97 31 158
t8 110q0 66 -22 101t-64 35q-43 0 -79.5 -41.5t-65 -108.5t-49 -146t-31 -155.5t-10.5 -134.5q0 -73 18.5 -110.5t55.5 -37.5zM643 1243q-110 0 -171.5 62.5t-61.5 167.5q0 101 63 163t170 62q100 0 164.5 -61.5t64.5 -159.5q0 -103 -61.5 -168.5t-167.5 -65.5zM643 1370
q44 0 72 27t28 73q0 45 -26.5 74t-72.5 29q-50 0 -76.5 -29t-26.5 -74q0 -46 25 -73t77 -27z" />
    <glyph glyph-name="ae" unicode="&#xe6;" horiz-adv-x="1360" 
d="M250 -20q-63 0 -110.5 38.5t-74 111t-26.5 173.5q0 111 19.5 227.5t57 225t91.5 194.5t123.5 136.5t152.5 50.5q40 0 77 -14t67 -43.5t47 -75.5h4l29 112h174l-17 -90q42 44 95.5 76.5t130.5 32.5q116 0 183.5 -71t67.5 -190q0 -98 -37 -172.5t-106.5 -124.5t-167 -75
t-217.5 -25h-18q-7 -28 -9 -56.5t-2 -55.5q0 -92 34.5 -138.5t113.5 -46.5q63 0 127 21t143 65l-41 -211q-72 -41 -136 -58t-142 -17q-80 0 -129 29.5t-68 78.5l-20 -88h-172l20 137h-4q-35 -48 -75 -83t-86 -54.5t-99 -19.5zM367 188q41 0 73.5 30.5t57 79.5t42 106.5
t29.5 111.5q22 95 30.5 158.5t8.5 113.5q0 67 -20.5 100.5t-59.5 33.5t-74 -37.5t-64.5 -100t-51 -139.5t-33.5 -158t-12 -153t18.5 -109t55.5 -37zM831 655h7q105 0 165.5 25.5t86.5 70.5t26 101q0 40 -22 64t-62 24q-49 0 -87.5 -41.5t-66.5 -107t-47 -136.5z" />
    <glyph glyph-name="ccedilla" unicode="&#xe7;" horiz-adv-x="735" 
d="M340 -20q-95 0 -161 41.5t-100 119.5t-34 189q0 100 18 211t56 217t98.5 191.5t146 136.5t197.5 51q69 0 127.5 -17.5t110.5 -52.5l-101 -197q-29 23 -65 37.5t-70 14.5q-70 0 -120.5 -59t-82 -148.5t-46.5 -184t-15 -165.5q0 -57 11.5 -95.5t35 -57.5t57.5 -19
q42 0 92 19.5t105 59.5v-213q-47 -32 -116.5 -55.5t-143.5 -23.5zM197 -492q-39 0 -76 4.5t-74 14.5v143q22 -6 51.5 -10t63.5 -4q35 0 59.5 11t37.5 32t13 49q0 37 -30.5 59.5t-92.5 26.5l103 166h129l-55 -86q63 -12 103 -53t40 -109q0 -86 -36.5 -140t-98 -79t-137.5 -25
z" />
    <glyph glyph-name="egrave" unicode="&#xe8;" horiz-adv-x="864" 
d="M373 -20q-102 0 -176 42.5t-114 123t-40 192.5q0 148 34 290t100 256.5t164.5 182.5t227.5 68q123 0 199 -69t76 -192q0 -97 -37 -171.5t-107 -124.5t-167.5 -75.5t-219.5 -25.5h-16q-6 -28 -9 -56.5t-3 -55.5q0 -99 37 -142t110 -43q65 0 119 16.5t127 57.5v-191
q-73 -47 -148.5 -65t-156.5 -18zM332 655h6q105 0 165.5 25.5t86.5 70.5t26 101q0 40 -20.5 64t-60.5 24q-41 0 -79 -34t-69.5 -97.5t-54.5 -153.5zM528 1241q-25 35 -62 92.5t-70.5 116.5t-51.5 100v19h276q11 -44 23.5 -92.5t29 -101t36.5 -109.5l-3 -25h-178z" />
    <glyph glyph-name="eacute" unicode="&#xe9;" horiz-adv-x="864" 
d="M373 -20q-102 0 -176 42.5t-114 123t-40 192.5q0 148 34 290t100 256.5t164.5 182.5t227.5 68q123 0 199 -69t76 -192q0 -97 -37 -171.5t-107 -124.5t-167.5 -75.5t-219.5 -25.5h-16q-6 -28 -9 -56.5t-3 -55.5q0 -99 37 -142t110 -43q65 0 119 16.5t127 57.5v-191
q-73 -47 -148.5 -65t-156.5 -18zM332 655h6q105 0 165.5 25.5t86.5 70.5t26 101q0 40 -20.5 64t-60.5 24q-41 0 -79 -34t-69.5 -97.5t-54.5 -153.5zM418 1241l4 21q42 52 80.5 104t73 103t64.5 100h278l-2 -17q-22 -27 -65 -70.5t-92.5 -91t-94 -88t-70.5 -61.5h-176z" />
    <glyph glyph-name="ecircumflex" unicode="&#xea;" horiz-adv-x="864" 
d="M373 -20q-102 0 -176 42.5t-114 123t-40 192.5q0 148 34 290t100 256.5t164.5 182.5t227.5 68q123 0 199 -69t76 -192q0 -97 -37 -171.5t-107 -124.5t-167.5 -75.5t-219.5 -25.5h-16q-6 -28 -9 -56.5t-3 -55.5q0 -99 37 -142t110 -43q65 0 119 16.5t127 57.5v-191
q-73 -47 -148.5 -65t-156.5 -18zM332 655h6q105 0 165.5 25.5t86.5 70.5t26 101q0 40 -20.5 64t-60.5 24q-41 0 -79 -34t-69.5 -97.5t-54.5 -153.5zM295 1241l4 23q46 47 88.5 97.5t82 103t73.5 104.5h221q10 -39 29 -95t42 -112t42 -96l-6 -25h-148q-16 22 -33 47
t-34.5 54.5t-36.5 62.5q-48 -52 -90.5 -93.5t-79.5 -70.5h-154z" />
    <glyph glyph-name="edieresis" unicode="&#xeb;" horiz-adv-x="864" 
d="M373 -20q-102 0 -176 42.5t-114 123t-40 192.5q0 148 34 290t100 256.5t164.5 182.5t227.5 68q123 0 199 -69t76 -192q0 -97 -37 -171.5t-107 -124.5t-167.5 -75.5t-219.5 -25.5h-16q-6 -28 -9 -56.5t-3 -55.5q0 -99 37 -142t110 -43q65 0 119 16.5t127 57.5v-191
q-73 -47 -148.5 -65t-156.5 -18zM332 655h6q105 0 165.5 25.5t86.5 70.5t26 101q0 40 -20.5 64t-60.5 24q-41 0 -79 -34t-69.5 -97.5t-54.5 -153.5zM770 1274q-49 0 -75 24.5t-26 71.5q0 65 39 115.5t111 50.5q44 0 69 -24t25 -68q0 -76 -42 -123t-101 -47zM422 1274
q-49 0 -75 24.5t-26 71.5q0 65 39 115.5t111 50.5q29 0 49.5 -10.5t31.5 -31t11 -50.5q0 -76 -41.5 -123t-99.5 -47z" />
    <glyph glyph-name="igrave" unicode="&#xec;" horiz-adv-x="457" 
d="M-12 0l237 1116h244l-238 -1116h-243zM309 1241q-25 35 -62 92.5t-70.5 116.5t-51.5 100v19h276q11 -44 23.5 -92.5t29 -101t36.5 -109.5l-3 -25h-178z" />
    <glyph glyph-name="iacute" unicode="&#xed;" horiz-adv-x="457" 
d="M-12 0l237 1116h244l-238 -1116h-243zM219 1241l4 21q42 52 80.5 104t73 103t64.5 100h278l-2 -17q-22 -27 -65 -70.5t-92.5 -91t-94 -88t-70.5 -61.5h-176z" />
    <glyph glyph-name="icircumflex" unicode="&#xee;" horiz-adv-x="457" 
d="M-12 0l237 1116h244l-238 -1116h-243zM71 1241l4 23q46 47 88.5 97.5t82 103t73.5 104.5h221q10 -39 29 -95t42 -112t42 -96l-6 -25h-148q-16 22 -33 47t-34.5 54.5t-36.5 62.5q-48 -52 -90.5 -93.5t-79.5 -70.5h-154z" />
    <glyph glyph-name="idieresis" unicode="&#xef;" horiz-adv-x="457" 
d="M-12 0l237 1116h244l-238 -1116h-243zM545 1274q-49 0 -75 24.5t-26 71.5q0 65 39 115.5t111 50.5q44 0 69 -24t25 -68q0 -76 -42 -123t-101 -47zM197 1274q-49 0 -75 24.5t-26 71.5q0 65 39 115.5t111 50.5q29 0 49.5 -10.5t31.5 -31t11 -50.5q0 -76 -41.5 -123
t-99.5 -47z" />
    <glyph glyph-name="eth" unicode="&#xf0;" horiz-adv-x="907" 
d="M342 -20q-102 0 -173 41t-107.5 119.5t-36.5 191.5q0 99 27.5 213.5t84 216t143 166.5t203.5 65q54 0 87 -29t55 -69h2q0 95 -15.5 169t-56.5 140l-158 -108l-82 114l172 117q-21 25 -49.5 52t-62.5 55l125 137q41 -26 79.5 -56t75.5 -67l166 119l84 -115l-166 -117
q42 -66 69 -140t40.5 -153.5t13.5 -164.5q0 -107 -15 -229t-50.5 -240.5t-95 -215t-148.5 -154.5t-211 -58zM369 188q39 0 72 29t60 77t46 106.5t29 118.5t10 112q0 37 -6 65t-17.5 47t-29 29t-41.5 10q-50 0 -90.5 -43t-69 -111t-43.5 -144t-15 -142q0 -76 24.5 -115
t70.5 -39z" />
    <glyph glyph-name="ntilde" unicode="&#xf1;" horiz-adv-x="926" 
d="M-14 0l237 1116h197l-10 -139h6q31 50 68.5 86t81 55t91.5 19q59 0 110 -23t82.5 -75t31.5 -140q0 -37 -7 -84t-18 -102l-152 -713h-245l139 655q9 48 17 94t8 80q0 41 -16.5 62.5t-53.5 21.5q-48 0 -84.5 -40.5t-63.5 -113.5t-49 -171l-123 -588h-247zM305 1249
q18 86 45 154t71 107.5t112 39.5q46 0 79.5 -16.5t58.5 -37.5t47 -37.5t46 -16.5q29 0 48 23.5t32 86.5h143q-19 -112 -54.5 -178t-79.5 -94.5t-91 -28.5q-45 0 -78 16.5t-58.5 38t-48.5 38t-48 16.5q-26 0 -47 -26t-33 -85h-144z" />
    <glyph glyph-name="ograve" unicode="&#xf2;" horiz-adv-x="909" 
d="M354 -20q-98 0 -167.5 43t-106.5 124t-37 195q0 87 17.5 192.5t54.5 211.5t97.5 194.5t146.5 142.5t200 54q97 0 165.5 -44t105 -125.5t36.5 -195.5q0 -98 -18.5 -207t-57.5 -213t-99.5 -188t-144.5 -134t-192 -50zM383 188q43 0 80 40t65.5 106t48.5 144.5t30.5 156
t10.5 139.5q0 49 -9.5 83.5t-30 52.5t-52.5 18q-46 0 -83.5 -42t-66 -110t-47.5 -147.5t-28.5 -155.5t-9.5 -133q0 -72 23 -112t69 -40zM512 1241q-25 35 -62 92.5t-70.5 116.5t-51.5 100v19h276q11 -44 23.5 -92.5t29 -101t36.5 -109.5l-3 -25h-178z" />
    <glyph glyph-name="oacute" unicode="&#xf3;" horiz-adv-x="909" 
d="M354 -20q-98 0 -167.5 43t-106.5 124t-37 195q0 87 17.5 192.5t54.5 211.5t97.5 194.5t146.5 142.5t200 54q97 0 165.5 -44t105 -125.5t36.5 -195.5q0 -98 -18.5 -207t-57.5 -213t-99.5 -188t-144.5 -134t-192 -50zM383 188q43 0 80 40t65.5 106t48.5 144.5t30.5 156
t10.5 139.5q0 49 -9.5 83.5t-30 52.5t-52.5 18q-46 0 -83.5 -42t-66 -110t-47.5 -147.5t-28.5 -155.5t-9.5 -133q0 -72 23 -112t69 -40zM446 1241l4 21q42 52 80.5 104t73 103t64.5 100h278l-2 -17q-22 -27 -65 -70.5t-92.5 -91t-94 -88t-70.5 -61.5h-176z" />
    <glyph glyph-name="ocircumflex" unicode="&#xf4;" horiz-adv-x="909" 
d="M354 -20q-98 0 -167.5 43t-106.5 124t-37 195q0 87 17.5 192.5t54.5 211.5t97.5 194.5t146.5 142.5t200 54q97 0 165.5 -44t105 -125.5t36.5 -195.5q0 -98 -18.5 -207t-57.5 -213t-99.5 -188t-144.5 -134t-192 -50zM383 188q43 0 80 40t65.5 106t48.5 144.5t30.5 156
t10.5 139.5q0 49 -9.5 83.5t-30 52.5t-52.5 18q-46 0 -83.5 -42t-66 -110t-47.5 -147.5t-28.5 -155.5t-9.5 -133q0 -72 23 -112t69 -40zM286 1241l4 23q46 47 88.5 97.5t82 103t73.5 104.5h221q10 -39 29 -95t42 -112t42 -96l-6 -25h-148q-16 22 -33 47t-34.5 54.5
t-36.5 62.5q-48 -52 -90.5 -93.5t-79.5 -70.5h-154z" />
    <glyph glyph-name="otilde" unicode="&#xf5;" horiz-adv-x="909" 
d="M354 -20q-98 0 -167.5 43t-106.5 124t-37 195q0 87 17.5 192.5t54.5 211.5t97.5 194.5t146.5 142.5t200 54q97 0 165.5 -44t105 -125.5t36.5 -195.5q0 -98 -18.5 -207t-57.5 -213t-99.5 -188t-144.5 -134t-192 -50zM383 188q43 0 80 40t65.5 106t48.5 144.5t30.5 156
t10.5 139.5q0 49 -9.5 83.5t-30 52.5t-52.5 18q-46 0 -83.5 -42t-66 -110t-47.5 -147.5t-28.5 -155.5t-9.5 -133q0 -72 23 -112t69 -40zM272 1241q18 86 45 154t71 107.5t112 39.5q46 0 79.5 -16.5t58.5 -37.5t47 -37.5t46 -16.5q29 0 48 23.5t32 86.5h143
q-19 -112 -54.5 -178t-79.5 -94.5t-91 -28.5q-45 0 -78 16.5t-58.5 38t-48.5 38t-48 16.5q-26 0 -47 -26t-33 -85h-144z" />
    <glyph glyph-name="odieresis" unicode="&#xf6;" horiz-adv-x="909" 
d="M354 -20q-98 0 -167.5 43t-106.5 124t-37 195q0 87 17.5 192.5t54.5 211.5t97.5 194.5t146.5 142.5t200 54q97 0 165.5 -44t105 -125.5t36.5 -195.5q0 -98 -18.5 -207t-57.5 -213t-99.5 -188t-144.5 -134t-192 -50zM383 188q43 0 80 40t65.5 106t48.5 144.5t30.5 156
t10.5 139.5q0 49 -9.5 83.5t-30 52.5t-52.5 18q-46 0 -83.5 -42t-66 -110t-47.5 -147.5t-28.5 -155.5t-9.5 -133q0 -72 23 -112t69 -40zM753 1274q-49 0 -75 24.5t-26 71.5q0 65 39 115.5t111 50.5q44 0 69 -24t25 -68q0 -76 -42 -123t-101 -47zM405 1274q-49 0 -75 24.5
t-26 71.5q0 65 39 115.5t111 50.5q29 0 49.5 -10.5t31.5 -31t11 -50.5q0 -76 -41.5 -123t-99.5 -47z" />
    <glyph glyph-name="divide" unicode="&#xf7;" horiz-adv-x="969" 
d="M88 614v217h834v-217h-834zM506 176q-66 0 -103.5 40.5t-37.5 117.5q0 75 36 115t105 40q66 0 100.5 -40t34.5 -115q0 -77 -36 -117.5t-99 -40.5zM506 954q-66 0 -103.5 40.5t-37.5 115.5q0 77 36 117.5t105 40.5q66 0 100.5 -40.5t34.5 -117.5q0 -75 -36 -115.5
t-99 -40.5z" />
    <glyph glyph-name="oslash" unicode="&#xf8;" horiz-adv-x="909" 
d="M96 -127l-112 70l112 176q-25 43 -38 99.5t-13 123.5q0 84 17 189.5t54 211.5t97 195.5t146.5 144t201.5 54.5q48 0 89 -13.5t73 -36.5l84 130l115 -72l-103 -158q23 -43 36 -96.5t13 -118.5q0 -90 -18 -197t-56 -211.5t-98.5 -191.5t-144.5 -139.5t-195 -52.5
q-47 0 -87 10.5t-74 32.5zM381 180q40 0 74.5 30t62.5 81t49.5 115t35.5 131.5t20 130.5q2 14 2 27.5v25.5l-318 -500q14 -19 32.5 -30t41.5 -11zM285 381l323 508q-13 23 -32.5 35t-47.5 12q-39 0 -72.5 -31.5t-61.5 -84t-49.5 -117.5t-35.5 -133t-20 -130q-1 -15 -2.5 -30
t-1.5 -29z" />
    <glyph glyph-name="ugrave" unicode="&#xf9;" horiz-adv-x="926" 
d="M266 -20q-71 0 -120.5 28.5t-75 82t-25.5 128.5q0 37 6.5 83.5t14.5 90.5l155 723h244l-139 -663q-11 -46 -17 -89t-6 -77q0 -40 16.5 -63t51.5 -23q48 0 84.5 41t64 115t47.5 173l127 586h244l-236 -1116h-196l8 135h-6q-32 -48 -70 -82.5t-81 -53.5t-91 -19zM518 1241
q-25 35 -62 92.5t-70.5 116.5t-51.5 100v19h276q11 -44 23.5 -92.5t29 -101t36.5 -109.5l-3 -25h-178z" />
    <glyph glyph-name="uacute" unicode="&#xfa;" horiz-adv-x="926" 
d="M266 -20q-71 0 -120.5 28.5t-75 82t-25.5 128.5q0 37 6.5 83.5t14.5 90.5l155 723h244l-139 -663q-11 -46 -17 -89t-6 -77q0 -40 16.5 -63t51.5 -23q48 0 84.5 41t64 115t47.5 173l127 586h244l-236 -1116h-196l8 135h-6q-32 -48 -70 -82.5t-81 -53.5t-91 -19zM473 1241
l4 21q42 52 80.5 104t73 103t64.5 100h278l-2 -17q-22 -27 -65 -70.5t-92.5 -91t-94 -88t-70.5 -61.5h-176z" />
    <glyph glyph-name="ucircumflex" unicode="&#xfb;" horiz-adv-x="926" 
d="M266 -20q-71 0 -120.5 28.5t-75 82t-25.5 128.5q0 37 6.5 83.5t14.5 90.5l155 723h244l-139 -663q-11 -46 -17 -89t-6 -77q0 -40 16.5 -63t51.5 -23q48 0 84.5 41t64 115t47.5 173l127 586h244l-236 -1116h-196l8 135h-6q-32 -48 -70 -82.5t-81 -53.5t-91 -19zM305 1241
l4 23q46 47 88.5 97.5t82 103t73.5 104.5h221q10 -39 29 -95t42 -112t42 -96l-6 -25h-148q-16 22 -33 47t-34.5 54.5t-36.5 62.5q-48 -52 -90.5 -93.5t-79.5 -70.5h-154z" />
    <glyph glyph-name="udieresis" unicode="&#xfc;" horiz-adv-x="926" 
d="M266 -20q-71 0 -120.5 28.5t-75 82t-25.5 128.5q0 37 6.5 83.5t14.5 90.5l155 723h244l-139 -663q-11 -46 -17 -89t-6 -77q0 -40 16.5 -63t51.5 -23q48 0 84.5 41t64 115t47.5 173l127 586h244l-236 -1116h-196l8 135h-6q-32 -48 -70 -82.5t-81 -53.5t-91 -19zM764 1274
q-49 0 -75 24.5t-26 71.5q0 65 39 115.5t111 50.5q44 0 69 -24t25 -68q0 -76 -42 -123t-101 -47zM416 1274q-49 0 -75 24.5t-26 71.5q0 65 39 115.5t111 50.5q29 0 49.5 -10.5t31.5 -31t11 -50.5q0 -76 -41.5 -123t-99.5 -47z" />
    <glyph glyph-name="yacute" unicode="&#xfd;" horiz-adv-x="823" 
d="M-23 -492q-41 0 -74 5t-59 14l41 221q23 -9 45 -13.5t41 -4.5q51 0 81 34t59 97l69 153l-49 1102h248l2 -526q0 -35 -0.5 -71t-2 -72t-3.5 -72h6q11 38 23.5 77t25 73t21.5 57l225 534h258l-584 -1284q-44 -95 -93 -168t-115.5 -114.5t-164.5 -41.5zM425 1241l4 21
q42 52 80.5 104t73 103t64.5 100h278l-2 -17q-22 -27 -65 -70.5t-92.5 -91t-94 -88t-70.5 -61.5h-176z" />
    <glyph glyph-name="thorn" unicode="&#xfe;" horiz-adv-x="928" 
d="M-115 -483l432 2042h244l-98 -463q-6 -26 -11.5 -47.5t-13.5 -42.5h8q27 40 61 69t75 45.5t88 16.5q104 0 163.5 -80t59.5 -246q0 -96 -18 -208t-54 -222t-89.5 -201t-125 -145.5t-160.5 -54.5q-46 0 -83.5 18t-64.5 51t-42 78h-6q-6 -48 -13.5 -92t-13.5 -72l-94 -446
h-244zM403 195q45 0 82 42t66 110.5t48.5 147.5t29.5 154.5t10 130.5q0 76 -18.5 112t-53.5 36q-50 0 -91 -49t-71.5 -125.5t-50.5 -157.5q-18 -75 -27.5 -146t-9.5 -118q0 -69 21.5 -103t64.5 -34z" />
    <glyph glyph-name="ydieresis" unicode="&#xff;" horiz-adv-x="823" 
d="M-23 -492q-41 0 -74 5t-59 14l41 221q23 -9 45 -13.5t41 -4.5q51 0 81 34t59 97l69 153l-49 1102h248l2 -526q0 -35 -0.5 -71t-2 -72t-3.5 -72h6q11 38 23.5 77t25 73t21.5 57l225 534h258l-584 -1284q-44 -95 -93 -168t-115.5 -114.5t-164.5 -41.5zM721 1274
q-49 0 -75 24.5t-26 71.5q0 65 39 115.5t111 50.5q44 0 69 -24t25 -68q0 -76 -42 -123t-101 -47zM373 1274q-49 0 -75 24.5t-26 71.5q0 65 39 115.5t111 50.5q29 0 49.5 -10.5t31.5 -31t11 -50.5q0 -76 -41.5 -123t-99.5 -47z" />
    <glyph glyph-name="Amacron" unicode="&#x100;" horiz-adv-x="963" 
d="M-127 0l623 1468h325l15 -1468h-271l6 373h-270l-147 -373h-281zM387 598h197l12 444q2 50 4 95.5t6 93.5h-6q-7 -45 -20.5 -89.5t-30.5 -94.5zM413 1626l37 180h535l-37 -180h-535z" />
    <glyph glyph-name="amacron" unicode="&#x101;" horiz-adv-x="932" 
d="M264 -20q-70 0 -120.5 38.5t-77.5 111t-27 173.5q0 90 17 200.5t51 222t87 204.5t125 150t164 57q45 0 82.5 -16.5t66.5 -51t46 -90.5h6l49 137h213l-237 -1116h-199l2 145h-6q-36 -49 -72 -86t-77 -58t-93 -21zM367 188q55 0 95 52t67.5 128.5t45.5 149.5q23 97 31 158
t8 110q0 66 -22 101t-64 35q-43 0 -79.5 -41.5t-65 -108.5t-49 -146t-31 -155.5t-10.5 -134.5q0 -73 18.5 -110.5t55.5 -37.5zM344 1253l37 180h535l-37 -180h-535z" />
    <glyph glyph-name="Abreve" unicode="&#x102;" horiz-adv-x="963" 
d="M-127 0l623 1468h325l15 -1468h-271l6 373h-270l-147 -373h-281zM387 598h197l12 444q2 50 4 95.5t6 93.5h-6q-7 -45 -20.5 -89.5t-30.5 -94.5zM686 1622q-86 0 -138.5 28.5t-76.5 79t-24 115.5q0 23 3 49t7 52h151q0 -46 8 -78.5t28.5 -50t56.5 -17.5q53 0 88 33t55 113
h156q-28 -157 -109.5 -240.5t-204.5 -83.5z" />
    <glyph glyph-name="abreve" unicode="&#x103;" horiz-adv-x="932" 
d="M264 -20q-70 0 -120.5 38.5t-77.5 111t-27 173.5q0 90 17 200.5t51 222t87 204.5t125 150t164 57q45 0 82.5 -16.5t66.5 -51t46 -90.5h6l49 137h213l-237 -1116h-199l2 145h-6q-36 -49 -72 -86t-77 -58t-93 -21zM367 188q55 0 95 52t67.5 128.5t45.5 149.5q23 97 31 158
t8 110q0 66 -22 101t-64 35q-43 0 -79.5 -41.5t-65 -108.5t-49 -146t-31 -155.5t-10.5 -134.5q0 -73 18.5 -110.5t55.5 -37.5zM616 1249q-86 0 -138.5 28.5t-76.5 79t-24 115.5q0 23 3 49t7 52h151q0 -46 8 -78.5t28.5 -50t56.5 -17.5q53 0 88 33t55 113h156
q-28 -157 -109.5 -240.5t-204.5 -83.5z" />
    <glyph glyph-name="Aogonek" unicode="&#x104;" horiz-adv-x="963" 
d="M-127 0l623 1468h325l15 -1468h-271l6 373h-270l-147 -373h-281zM387 598h197l12 444q2 50 4 95.5t6 93.5h-6q-7 -45 -20.5 -89.5t-30.5 -94.5zM596 -475q-88 0 -131 44.5t-43 115.5q0 61 25.5 115t72 103.5t109.5 96.5h153q-54 -52 -87 -94.5t-48.5 -80.5t-17.5 -75
q0 -26 14.5 -39.5t36.5 -13.5q17 0 39 4t45 10l-35 -166q-32 -13 -65.5 -16.5t-67.5 -3.5z" />
    <glyph glyph-name="aogonek" unicode="&#x105;" horiz-adv-x="932" 
d="M264 -20q-70 0 -120.5 38.5t-77.5 111t-27 173.5q0 90 17 200.5t51 222t87 204.5t125 150t164 57q45 0 82.5 -16.5t66.5 -51t46 -90.5h6l49 137h213l-237 -1116h-199l2 145h-6q-36 -49 -72 -86t-77 -58t-93 -21zM367 188q55 0 95 52t67.5 128.5t45.5 149.5q23 97 31 158
t8 110q0 66 -22 101t-64 35q-43 0 -79.5 -41.5t-65 -108.5t-49 -146t-31 -155.5t-10.5 -134.5q0 -73 18.5 -110.5t55.5 -37.5zM494 -475q-88 0 -131 44.5t-43 115.5q0 61 25.5 115t72 103.5t109.5 96.5h153q-54 -52 -87 -94.5t-48.5 -80.5t-17.5 -75q0 -26 14.5 -39.5
t36.5 -13.5q17 0 39 4t45 10l-35 -166q-32 -13 -65.5 -16.5t-67.5 -3.5z" />
    <glyph glyph-name="Cacute" unicode="&#x106;" horiz-adv-x="881" 
d="M424 -20q-115 0 -193.5 55.5t-118.5 161t-40 254.5q0 134 27 277.5t80.5 278t132 242t181.5 171t230 63.5q81 0 157.5 -20.5t139.5 -67.5l-125 -205q-41 34 -82 50.5t-84 16.5q-80 0 -142.5 -59t-108.5 -153.5t-76.5 -203t-45 -208.5t-14.5 -168q0 -136 37 -197t113 -61
q56 0 113.5 17.5t115.5 45.5v-229q-67 -32 -146 -46.5t-151 -14.5zM575 1579l4 21q42 52 80.5 104t73 103t64.5 100h278l-2 -17q-22 -27 -65 -70.5t-92.5 -91t-94 -88t-70.5 -61.5h-176z" />
    <glyph glyph-name="cacute" unicode="&#x107;" horiz-adv-x="735" 
d="M340 -20q-95 0 -161 41.5t-100 119.5t-34 189q0 100 18 211t56 217t98.5 191.5t146 136.5t197.5 51q69 0 127.5 -17.5t110.5 -52.5l-101 -197q-29 23 -65 37.5t-70 14.5q-70 0 -120.5 -59t-82 -148.5t-46.5 -184t-15 -165.5q0 -57 11.5 -95.5t35 -57.5t57.5 -19
q42 0 92 19.5t105 59.5v-213q-47 -32 -116.5 -55.5t-143.5 -23.5zM446 1241l4 21q42 52 80.5 104t73 103t64.5 100h278l-2 -17q-22 -27 -65 -70.5t-92.5 -91t-94 -88t-70.5 -61.5h-176z" />
    <glyph glyph-name="Ccircumflex" unicode="&#x108;" horiz-adv-x="881" 
d="M424 -20q-115 0 -193.5 55.5t-118.5 161t-40 254.5q0 134 27 277.5t80.5 278t132 242t181.5 171t230 63.5q81 0 157.5 -20.5t139.5 -67.5l-125 -205q-41 34 -82 50.5t-84 16.5q-80 0 -142.5 -59t-108.5 -153.5t-76.5 -203t-45 -208.5t-14.5 -168q0 -136 37 -197t113 -61
q56 0 113.5 17.5t115.5 45.5v-229q-67 -32 -146 -46.5t-151 -14.5zM440 1579l4 23q46 47 88.5 97.5t82 103t73.5 104.5h221q10 -39 29 -95t42 -112t42 -96l-6 -25h-148q-16 22 -33 47t-34.5 54.5t-36.5 62.5q-48 -52 -90.5 -93.5t-79.5 -70.5h-154z" />
    <glyph glyph-name="ccircumflex" unicode="&#x109;" horiz-adv-x="735" 
d="M340 -20q-95 0 -161 41.5t-100 119.5t-34 189q0 100 18 211t56 217t98.5 191.5t146 136.5t197.5 51q69 0 127.5 -17.5t110.5 -52.5l-101 -197q-29 23 -65 37.5t-70 14.5q-70 0 -120.5 -59t-82 -148.5t-46.5 -184t-15 -165.5q0 -57 11.5 -95.5t35 -57.5t57.5 -19
q42 0 92 19.5t105 59.5v-213q-47 -32 -116.5 -55.5t-143.5 -23.5zM272 1241l4 23q46 47 88.5 97.5t82 103t73.5 104.5h221q10 -39 29 -95t42 -112t42 -96l-6 -25h-148q-16 22 -33 47t-34.5 54.5t-36.5 62.5q-48 -52 -90.5 -93.5t-79.5 -70.5h-154z" />
    <glyph glyph-name="Cdot" unicode="&#x10a;" horiz-adv-x="881" 
d="M424 -20q-115 0 -193.5 55.5t-118.5 161t-40 254.5q0 134 27 277.5t80.5 278t132 242t181.5 171t230 63.5q81 0 157.5 -20.5t139.5 -67.5l-125 -205q-41 34 -82 50.5t-84 16.5q-80 0 -142.5 -59t-108.5 -153.5t-76.5 -203t-45 -208.5t-14.5 -168q0 -136 37 -197t113 -61
q56 0 113.5 17.5t115.5 45.5v-229q-67 -32 -146 -46.5t-151 -14.5zM762 1604q-60 0 -90.5 31t-30.5 83q0 68 41 121t121 53q41 0 67.5 -13t39 -38t12.5 -63q0 -70 -41 -122t-119 -52z" />
    <glyph glyph-name="cdot" unicode="&#x10b;" horiz-adv-x="735" 
d="M340 -20q-95 0 -161 41.5t-100 119.5t-34 189q0 100 18 211t56 217t98.5 191.5t146 136.5t197.5 51q69 0 127.5 -17.5t110.5 -52.5l-101 -197q-29 23 -65 37.5t-70 14.5q-70 0 -120.5 -59t-82 -148.5t-46.5 -184t-15 -165.5q0 -57 11.5 -95.5t35 -57.5t57.5 -19
q42 0 92 19.5t105 59.5v-213q-47 -32 -116.5 -55.5t-143.5 -23.5zM598 1262q-60 0 -90.5 31t-30.5 83q0 68 41 121t121 53q41 0 67.5 -13t39 -38t12.5 -63q0 -70 -41 -122t-119 -52z" />
    <glyph glyph-name="Ccaron" unicode="&#x10c;" horiz-adv-x="881" 
d="M424 -20q-115 0 -193.5 55.5t-118.5 161t-40 254.5q0 134 27 277.5t80.5 278t132 242t181.5 171t230 63.5q81 0 157.5 -20.5t139.5 -67.5l-125 -205q-41 34 -82 50.5t-84 16.5q-80 0 -142.5 -59t-108.5 -153.5t-76.5 -203t-45 -208.5t-14.5 -168q0 -136 37 -197t113 -61
q56 0 113.5 17.5t115.5 45.5v-229q-67 -32 -146 -46.5t-151 -14.5zM630 1579q-10 40 -29 95.5t-41 111t-42 96.5l6 25h147q15 -18 31.5 -42.5t35 -55t36.5 -66.5q49 53 92 94.5t78 69.5h155l-4 -23q-32 -33 -80.5 -90.5t-93.5 -116.5t-69 -98h-222z" />
    <glyph glyph-name="ccaron" unicode="&#x10d;" horiz-adv-x="735" 
d="M340 -20q-95 0 -161 41.5t-100 119.5t-34 189q0 100 18 211t56 217t98.5 191.5t146 136.5t197.5 51q69 0 127.5 -17.5t110.5 -52.5l-101 -197q-29 23 -65 37.5t-70 14.5q-70 0 -120.5 -59t-82 -148.5t-46.5 -184t-15 -165.5q0 -57 11.5 -95.5t35 -57.5t57.5 -19
q42 0 92 19.5t105 59.5v-213q-47 -32 -116.5 -55.5t-143.5 -23.5zM456 1241q-10 40 -29 95.5t-41 111t-42 96.5l6 25h147q15 -18 31.5 -42.5t35 -55t36.5 -66.5q49 53 92 94.5t78 69.5h155l-4 -23q-32 -33 -80.5 -90.5t-93.5 -116.5t-69 -98h-222z" />
    <glyph glyph-name="Dcaron" unicode="&#x10e;" horiz-adv-x="1034" 
d="M-4 0l309 1462h289q209 0 318.5 -116.5t109.5 -331.5q0 -135 -25.5 -277.5t-79.5 -274t-138 -236t-201.5 -165.5t-270.5 -61h-311zM299 229h45q88 0 155 51t115 135.5t78.5 185.5t45 202.5t14.5 185.5q0 128 -46 187t-137 59h-57zM526 1579q-10 40 -29 95.5t-41 111
t-42 96.5l6 25h147q15 -18 31.5 -42.5t35 -55t36.5 -66.5q49 53 92 94.5t78 69.5h155l-4 -23q-32 -33 -80.5 -90.5t-93.5 -116.5t-69 -98h-222z" />
    <glyph glyph-name="dcaron" unicode="&#x10f;" horiz-adv-x="1161" 
d="M261 -20q-69 0 -119 38.5t-77 111t-27 173.5q0 87 17 196.5t51 221.5t85.5 206t121 152t157.5 58q47 0 87.5 -15t71.5 -46t48 -79h6q5 37 10.5 71.5t10.5 64.5t10 53l80 370h245l-331 -1556h-199l2 133h-6q-39 -49 -75 -83t-76 -52t-93 -18zM366 188q42 0 76.5 32
t62 85.5t48 118.5t34 132.5t20 127.5t6.5 102q0 68 -21 102t-65 34q-46 0 -83 -44.5t-65.5 -115t-48 -151t-29 -154.5t-9.5 -123q0 -72 18.5 -109t55.5 -37zM1080 1229v20q23 53 42 104.5t34.5 102.5t27.5 100h236v-20q-22 -50 -52 -104t-62.5 -106.5t-64.5 -96.5h-161z" />
    <glyph glyph-name="Dcroat" unicode="&#x110;" horiz-adv-x="1036" 
d="M-4 0l139 662h-104l41 196h104l129 604h289q209 0 318.5 -116.5t109.5 -331.5q0 -138 -26.5 -281.5t-81 -274.5t-139.5 -234.5t-201.5 -163.5t-266.5 -60h-311zM299 229h45q91 0 159.5 54t116 141t76.5 189.5t42.5 201.5t13.5 174q0 128 -46 187t-137 59h-57l-80 -377
h150l-41 -196h-152z" />
    <glyph glyph-name="dcroat" unicode="&#x111;" horiz-adv-x="932" 
d="M262 -20q-69 0 -119 38.5t-77 111t-27 173.5q0 87 17 196.5t51 221.5t85.5 206t121 152t157.5 58q47 0 87.5 -15t71.5 -46t48 -79h6q4 31 8 59.5t9 55t10 49.5l10 51h-168l39 181h168l35 163h245l-34 -163h114l-39 -181h-114l-258 -1212h-199l2 133h-6q-39 -49 -75 -83
t-76 -52t-93 -18zM367 188q42 0 76.5 32t62 85.5t48 118.5t34 132.5t20 127.5t6.5 102q0 68 -21 102t-65 34q-46 0 -83 -44.5t-65.5 -115t-48 -151t-29 -154.5t-9.5 -123q0 -72 18.5 -109t55.5 -37z" />
    <glyph glyph-name="Emacron" unicode="&#x112;" horiz-adv-x="807" 
d="M-4 0l309 1462h600l-47 -223h-344l-78 -369h320l-47 -223h-320l-92 -422h346l-47 -225h-600zM350 1583l37 180h535l-37 -180h-535z" />
    <glyph glyph-name="emacron" unicode="&#x113;" horiz-adv-x="864" 
d="M373 -20q-102 0 -176 42.5t-114 123t-40 192.5q0 148 34 290t100 256.5t164.5 182.5t227.5 68q123 0 199 -69t76 -192q0 -97 -37 -171.5t-107 -124.5t-167.5 -75.5t-219.5 -25.5h-16q-6 -28 -9 -56.5t-3 -55.5q0 -99 37 -142t110 -43q65 0 119 16.5t127 57.5v-191
q-73 -47 -148.5 -65t-156.5 -18zM332 655h6q105 0 165.5 25.5t86.5 70.5t26 101q0 40 -20.5 64t-60.5 24q-41 0 -79 -34t-69.5 -97.5t-54.5 -153.5zM323 1245l37 180h535l-37 -180h-535z" />
    <glyph glyph-name="Ebreve" unicode="&#x114;" horiz-adv-x="807" 
d="M-4 0l309 1462h600l-47 -223h-344l-78 -369h320l-47 -223h-320l-92 -422h346l-47 -225h-600zM630 1579q-86 0 -138.5 28.5t-76.5 79t-24 115.5q0 23 3 49t7 52h151q0 -46 8 -78.5t28.5 -50t56.5 -17.5q53 0 88 33t55 113h156q-28 -157 -109.5 -240.5t-204.5 -83.5z" />
    <glyph glyph-name="ebreve" unicode="&#x115;" horiz-adv-x="864" 
d="M373 -20q-102 0 -176 42.5t-114 123t-40 192.5q0 148 34 290t100 256.5t164.5 182.5t227.5 68q123 0 199 -69t76 -192q0 -97 -37 -171.5t-107 -124.5t-167.5 -75.5t-219.5 -25.5h-16q-6 -28 -9 -56.5t-3 -55.5q0 -99 37 -142t110 -43q65 0 119 16.5t127 57.5v-191
q-73 -47 -148.5 -65t-156.5 -18zM332 655h6q105 0 165.5 25.5t86.5 70.5t26 101q0 40 -20.5 64t-60.5 24q-41 0 -79 -34t-69.5 -97.5t-54.5 -153.5zM622 1241q-86 0 -138.5 28.5t-76.5 79t-24 115.5q0 23 3 49t7 52h151q0 -46 8 -78.5t28.5 -50t56.5 -17.5q53 0 88 33
t55 113h156q-28 -157 -109.5 -240.5t-204.5 -83.5z" />
    <glyph glyph-name="Edotaccent" unicode="&#x116;" horiz-adv-x="807" 
d="M-4 0l309 1462h600l-47 -223h-344l-78 -369h320l-47 -223h-320l-92 -422h346l-47 -225h-600zM631 1571q-60 0 -90.5 31t-30.5 83q0 68 41 121t121 53q41 0 67.5 -13t39 -38t12.5 -63q0 -70 -41 -122t-119 -52z" />
    <glyph glyph-name="edotaccent" unicode="&#x117;" horiz-adv-x="864" 
d="M373 -20q-102 0 -176 42.5t-114 123t-40 192.5q0 148 34 290t100 256.5t164.5 182.5t227.5 68q123 0 199 -69t76 -192q0 -97 -37 -171.5t-107 -124.5t-167.5 -75.5t-219.5 -25.5h-16q-6 -28 -9 -56.5t-3 -55.5q0 -99 37 -142t110 -43q65 0 119 16.5t127 57.5v-191
q-73 -47 -148.5 -65t-156.5 -18zM332 655h6q105 0 165.5 25.5t86.5 70.5t26 101q0 40 -20.5 64t-60.5 24q-41 0 -79 -34t-69.5 -97.5t-54.5 -153.5zM619 1262q-60 0 -90.5 31t-30.5 83q0 68 41 121t121 53q41 0 67.5 -13t39 -38t12.5 -63q0 -70 -41 -122t-119 -52z" />
    <glyph glyph-name="Eogonek" unicode="&#x118;" horiz-adv-x="807" 
d="M-4 0l309 1462h600l-47 -223h-344l-78 -369h320l-47 -223h-320l-92 -422h346l-47 -225h-600zM352 -475q-88 0 -131 44.5t-43 115.5q0 61 25.5 115t72 103.5t109.5 96.5h153q-54 -52 -87 -94.5t-48.5 -80.5t-17.5 -75q0 -26 14.5 -39.5t36.5 -13.5q17 0 39 4t45 10
l-35 -166q-32 -13 -65.5 -16.5t-67.5 -3.5z" />
    <glyph glyph-name="eogonek" unicode="&#x119;" horiz-adv-x="864" 
d="M385 -455q-86 0 -129 45.5t-43 114.5q0 62 25.5 116t72.5 103.5t109 95.5l211 21q-76 -48 -121 -96.5t-65.5 -92.5t-22.5 -81q0 -26 13.5 -40t35.5 -14q16 0 37.5 4.5t46.5 8.5l-37 -164q-32 -14 -65.5 -17.5t-67.5 -3.5zM373 -20q-102 0 -176 42.5t-114 123t-40 192.5
q0 148 34 290t100 256.5t164.5 182.5t227.5 68q123 0 199 -69t76 -192q0 -97 -37 -171.5t-107 -124.5t-167.5 -75.5t-219.5 -25.5h-16q-6 -28 -9 -56.5t-3 -55.5q0 -99 37 -142t110 -43q65 0 119 16.5t127 57.5v-191q-73 -47 -148.5 -65t-156.5 -18zM332 655h6
q105 0 165.5 25.5t86.5 70.5t26 101q0 40 -20.5 64t-60.5 24q-41 0 -79 -34t-69.5 -97.5t-54.5 -153.5z" />
    <glyph glyph-name="Ecaron" unicode="&#x11a;" horiz-adv-x="807" 
d="M-4 0l309 1462h600l-47 -223h-344l-78 -369h320l-47 -223h-320l-92 -422h346l-47 -225h-600zM499 1579q-10 40 -29 95.5t-41 111t-42 96.5l6 25h147q15 -18 31.5 -42.5t35 -55t36.5 -66.5q49 53 92 94.5t78 69.5h155l-4 -23q-32 -33 -80.5 -90.5t-93.5 -116.5t-69 -98
h-222z" />
    <glyph glyph-name="ecaron" unicode="&#x11b;" horiz-adv-x="864" 
d="M373 -20q-102 0 -176 42.5t-114 123t-40 192.5q0 148 34 290t100 256.5t164.5 182.5t227.5 68q123 0 199 -69t76 -192q0 -97 -37 -171.5t-107 -124.5t-167.5 -75.5t-219.5 -25.5h-16q-6 -28 -9 -56.5t-3 -55.5q0 -99 37 -142t110 -43q65 0 119 16.5t127 57.5v-191
q-73 -47 -148.5 -65t-156.5 -18zM332 655h6q105 0 165.5 25.5t86.5 70.5t26 101q0 40 -20.5 64t-60.5 24q-41 0 -79 -34t-69.5 -97.5t-54.5 -153.5zM471 1241q-10 40 -29 95.5t-41 111t-42 96.5l6 25h147q15 -18 31.5 -42.5t35 -55t36.5 -66.5q49 53 92 94.5t78 69.5h155
l-4 -23q-32 -33 -80.5 -90.5t-93.5 -116.5t-69 -98h-222z" />
    <glyph glyph-name="Gcircumflex" unicode="&#x11c;" horiz-adv-x="1065" 
d="M496 -20q-215 0 -318.5 121.5t-103.5 349.5q0 154 30 303.5t89 281t145.5 232t200 158t252.5 57.5q100 0 186.5 -25.5t144.5 -66.5l-114 -217q-57 41 -117 62t-125 21q-97 0 -175.5 -72t-134.5 -189.5t-86 -254.5t-30 -268q0 -91 19.5 -150t59.5 -87.5t99 -28.5
q31 0 61.5 4.5t61.5 13.5l78 371h-160l45 219h414l-160 -758q-100 -38 -194 -57.5t-168 -19.5zM495 1579l4 23q46 47 88.5 97.5t82 103t73.5 104.5h221q10 -39 29 -95t42 -112t42 -96l-6 -25h-148q-16 22 -33 47t-34.5 54.5t-36.5 62.5q-48 -52 -90.5 -93.5t-79.5 -70.5
h-154z" />
    <glyph glyph-name="gcircumflex" unicode="&#x11d;" horiz-adv-x="911" 
d="M221 -492q-181 -1 -271.5 66.5t-89.5 196.5q1 113 72 197t194 126q-31 14 -54 50t-23 84q0 62 41 113.5t112 102.5q-38 26 -61.5 85.5t-23.5 135.5q0 117 52.5 228t152.5 175q45 30 102 48t115 18q55 0 93 -9.5t61 -18.5h310l-31 -146l-136 -38q8 -19 12 -43t4 -51
q0 -83 -34 -175.5t-90 -154.5q-55 -60 -131 -92t-171 -32q-36 0 -53.5 -1t-25.5 -4q-43 -19 -66 -50.5t-23 -60.5q0 -26 25 -34q11 -4 28 -5.5t41 -1.5h177q79 0 130.5 -27.5t77 -79t25.5 -123.5q0 -135 -60.5 -236.5t-163.5 -160.5q-66 -40 -147 -60.5t-170 -21.5z
M230 -307q54 0 104 14t89 41q44 29 71 73.5t27 98.5q0 17 -5 31.5t-19 24.5q-13 9 -37 14t-61 5h-142q-40 0 -78 -33.5t-62.5 -81t-24.5 -89.5q0 -56 35.5 -77.5t102.5 -20.5zM427 547q45 0 81 34.5t61 95t35 138.5q7 50 4 81.5t-17 47.5q-7 8 -18 13t-26 5q-38 0 -69 -24.5
t-54 -64.5t-37.5 -86.5t-20.5 -90.5q-5 -37 -5 -64.5t8 -46.5q17 -38 58 -38zM356 1250l4 23q46 47 88.5 97.5t82 103t73.5 104.5h221q10 -39 29 -95t42 -112t42 -96l-6 -25h-148q-16 22 -33 47t-34.5 54.5t-36.5 62.5q-48 -52 -90.5 -93.5t-79.5 -70.5h-154z" />
    <glyph glyph-name="Gbreve" unicode="&#x11e;" horiz-adv-x="1065" 
d="M496 -20q-215 0 -318.5 121.5t-103.5 349.5q0 154 30 303.5t89 281t145.5 232t200 158t252.5 57.5q100 0 186.5 -25.5t144.5 -66.5l-114 -217q-57 41 -117 62t-125 21q-97 0 -175.5 -72t-134.5 -189.5t-86 -254.5t-30 -268q0 -91 19.5 -150t59.5 -87.5t99 -28.5
q31 0 61.5 4.5t61.5 13.5l78 371h-160l45 219h414l-160 -758q-100 -38 -194 -57.5t-168 -19.5zM817 1579q-86 0 -138.5 28.5t-76.5 79t-24 115.5q0 23 3 49t7 52h151q0 -46 8 -78.5t28.5 -50t56.5 -17.5q53 0 88 33t55 113h156q-28 -157 -109.5 -240.5t-204.5 -83.5z" />
    <glyph glyph-name="gbreve" unicode="&#x11f;" horiz-adv-x="911" 
d="M221 -492q-181 -1 -271.5 66.5t-89.5 196.5q1 113 72 197t194 126q-31 14 -54 50t-23 84q0 62 41 113.5t112 102.5q-38 26 -61.5 85.5t-23.5 135.5q0 117 52.5 228t152.5 175q45 30 102 48t115 18q55 0 93 -9.5t61 -18.5h310l-31 -146l-136 -38q8 -19 12 -43t4 -51
q0 -83 -34 -175.5t-90 -154.5q-55 -60 -131 -92t-171 -32q-36 0 -53.5 -1t-25.5 -4q-43 -19 -66 -50.5t-23 -60.5q0 -26 25 -34q11 -4 28 -5.5t41 -1.5h177q79 0 130.5 -27.5t77 -79t25.5 -123.5q0 -135 -60.5 -236.5t-163.5 -160.5q-66 -40 -147 -60.5t-170 -21.5z
M230 -307q54 0 104 14t89 41q44 29 71 73.5t27 98.5q0 17 -5 31.5t-19 24.5q-13 9 -37 14t-61 5h-142q-40 0 -78 -33.5t-62.5 -81t-24.5 -89.5q0 -56 35.5 -77.5t102.5 -20.5zM427 547q45 0 81 34.5t61 95t35 138.5q7 50 4 81.5t-17 47.5q-7 8 -18 13t-26 5q-38 0 -69 -24.5
t-54 -64.5t-37.5 -86.5t-20.5 -90.5q-5 -37 -5 -64.5t8 -46.5q17 -38 58 -38zM609 1250q-86 0 -138.5 28.5t-76.5 79t-24 115.5q0 23 3 49t7 52h151q0 -46 8 -78.5t28.5 -50t56.5 -17.5q53 0 88 33t55 113h156q-28 -157 -109.5 -240.5t-204.5 -83.5z" />
    <glyph glyph-name="Gdot" unicode="&#x120;" horiz-adv-x="1065" 
d="M496 -20q-215 0 -318.5 121.5t-103.5 349.5q0 154 30 303.5t89 281t145.5 232t200 158t252.5 57.5q100 0 186.5 -25.5t144.5 -66.5l-114 -217q-57 41 -117 62t-125 21q-97 0 -175.5 -72t-134.5 -189.5t-86 -254.5t-30 -268q0 -91 19.5 -150t59.5 -87.5t99 -28.5
q31 0 61.5 4.5t61.5 13.5l78 371h-160l45 219h414l-160 -758q-100 -38 -194 -57.5t-168 -19.5zM819 1600q-60 0 -90.5 31t-30.5 83q0 68 41 121t121 53q41 0 67.5 -13t39 -38t12.5 -63q0 -70 -41 -122t-119 -52z" />
    <glyph glyph-name="gdot" unicode="&#x121;" horiz-adv-x="911" 
d="M221 -492q-181 -1 -271.5 66.5t-89.5 196.5q1 113 72 197t194 126q-31 14 -54 50t-23 84q0 62 41 113.5t112 102.5q-38 26 -61.5 85.5t-23.5 135.5q0 117 52.5 228t152.5 175q45 30 102 48t115 18q55 0 93 -9.5t61 -18.5h310l-31 -146l-136 -38q8 -19 12 -43t4 -51
q0 -83 -34 -175.5t-90 -154.5q-55 -60 -131 -92t-171 -32q-36 0 -53.5 -1t-25.5 -4q-43 -19 -66 -50.5t-23 -60.5q0 -26 25 -34q11 -4 28 -5.5t41 -1.5h177q79 0 130.5 -27.5t77 -79t25.5 -123.5q0 -135 -60.5 -236.5t-163.5 -160.5q-66 -40 -147 -60.5t-170 -21.5z
M230 -307q54 0 104 14t89 41q44 29 71 73.5t27 98.5q0 17 -5 31.5t-19 24.5q-13 9 -37 14t-61 5h-142q-40 0 -78 -33.5t-62.5 -81t-24.5 -89.5q0 -56 35.5 -77.5t102.5 -20.5zM427 547q45 0 81 34.5t61 95t35 138.5q7 50 4 81.5t-17 47.5q-7 8 -18 13t-26 5q-38 0 -69 -24.5
t-54 -64.5t-37.5 -86.5t-20.5 -90.5q-5 -37 -5 -64.5t8 -46.5q17 -38 58 -38zM627 1271q-60 0 -90.5 31t-30.5 83q0 68 41 121t121 53q41 0 67.5 -13t39 -38t12.5 -63q0 -70 -41 -122t-119 -52z" />
    <glyph glyph-name="uni0122" unicode="&#x122;" horiz-adv-x="1065" 
d="M496 -20q-215 0 -318.5 121.5t-103.5 349.5q0 154 30 303.5t89 281t145.5 232t200 158t252.5 57.5q100 0 186.5 -25.5t144.5 -66.5l-114 -217q-57 41 -117 62t-125 21q-97 0 -175.5 -72t-134.5 -189.5t-86 -254.5t-30 -268q0 -91 19.5 -150t59.5 -87.5t99 -28.5
q31 0 61.5 4.5t61.5 13.5l78 371h-160l45 219h414l-160 -758q-100 -38 -194 -57.5t-168 -19.5zM249 -453v27q19 38 42.5 91.5t45 109t33.5 100.5h234v-20q-19 -46 -52 -103t-70.5 -111.5t-70.5 -93.5h-162z" />
    <glyph glyph-name="uni0123" unicode="&#x123;" horiz-adv-x="911" 
d="M458 1241v21q21 47 53 103t69.5 109.5t72.5 94.5h158l2 -23q-18 -35 -42.5 -92.5t-46 -116t-32.5 -96.5h-234zM221 -492q-181 -1 -271.5 66.5t-89.5 196.5q1 113 72 197t194 126q-31 14 -54 50t-23 84q0 62 41 113.5t112 102.5q-38 26 -61.5 85.5t-23.5 135.5
q0 117 52.5 228t152.5 175q45 30 102 48t115 18q55 0 93 -9.5t61 -18.5h310l-31 -146l-136 -38q8 -19 12 -43t4 -51q0 -83 -34 -175.5t-90 -154.5q-55 -60 -131 -92t-171 -32q-36 0 -53.5 -1t-25.5 -4q-43 -19 -66 -50.5t-23 -60.5q0 -26 25 -34q11 -4 28 -5.5t41 -1.5h177
q79 0 130.5 -27.5t77 -79t25.5 -123.5q0 -135 -60.5 -236.5t-163.5 -160.5q-66 -40 -147 -60.5t-170 -21.5zM230 -307q54 0 104 14t89 41q44 29 71 73.5t27 98.5q0 17 -5 31.5t-19 24.5q-13 9 -37 14t-61 5h-142q-40 0 -78 -33.5t-62.5 -81t-24.5 -89.5q0 -56 35.5 -77.5
t102.5 -20.5zM427 547q45 0 81 34.5t61 95t35 138.5q7 50 4 81.5t-17 47.5q-7 8 -18 13t-26 5q-38 0 -69 -24.5t-54 -64.5t-37.5 -86.5t-20.5 -90.5q-5 -37 -5 -64.5t8 -46.5q17 -38 58 -38z" />
    <glyph glyph-name="Hcircumflex" unicode="&#x124;" horiz-adv-x="1075" 
d="M-4 0l309 1462h256l-125 -585h324l125 585h256l-312 -1462h-256l138 649h-322l-137 -649h-256zM446 1579l4 23q46 47 88.5 97.5t82 103t73.5 104.5h221q10 -39 29 -95t42 -112t42 -96l-6 -25h-148q-16 22 -33 47t-34.5 54.5t-36.5 62.5q-48 -52 -90.5 -93.5t-79.5 -70.5
h-154z" />
    <glyph glyph-name="hcircumflex" unicode="&#x125;" horiz-adv-x="926" 
d="M-12 0l329 1556h246l-74 -344q-7 -34 -17 -71.5t-21 -75.5t-23 -74h4q30 47 65 79.5t77.5 49.5t93.5 17q67 0 114.5 -29t73 -83t25.5 -130q0 -38 -8 -89t-17 -97l-149 -709h-246l137 649q11 48 18 93.5t7 86.5q0 38 -18 61t-56 23t-71 -28t-61 -91.5t-52 -172.5
l-132 -621h-245zM155 1700l4 23q46 47 88.5 97.5t82 103t73.5 104.5h221q10 -39 29 -95t42 -112t42 -96l-6 -25h-148q-16 22 -33 47t-34.5 54.5t-36.5 62.5q-48 -52 -90.5 -93.5t-79.5 -70.5h-154z" />
    <glyph glyph-name="Hbar" unicode="&#x126;" horiz-adv-x="1071" 
d="M-4 0l227 1077h-121l39 183h121l43 202h256l-43 -202h322l45 202h256l-43 -202h116l-38 -183h-117l-230 -1077h-256l138 649h-322l-137 -649h-256zM434 860h322l47 217h-324z" />
    <glyph glyph-name="hbar" unicode="&#x127;" horiz-adv-x="928" 
d="M-12 0l256 1212h-113l37 181h115l34 163h246l-35 -163h177l-37 -181h-179q-15 -70 -27 -115.5t-22 -76t-20 -57.5h6q30 46 65 78t77.5 48.5t93.5 16.5q67 0 114 -29t72.5 -83.5t25.5 -129.5q0 -40 -7.5 -90t-16.5 -96l-143 -678h-246l129 618q11 48 18.5 93.5t7.5 87.5
q0 41 -18.5 62.5t-52.5 21.5q-44 0 -78 -31.5t-60 -96t-47 -165.5l-127 -590h-245z" />
    <glyph glyph-name="Itilde" unicode="&#x128;" horiz-adv-x="496" 
d="M-6 0l311 1462h254l-309 -1462h-256zM163 1618q18 86 45 154t71 107.5t112 39.5q46 0 79.5 -16.5t58.5 -37.5t47 -37.5t46 -16.5q29 0 48 23.5t32 86.5h143q-19 -112 -54.5 -178t-79.5 -94.5t-91 -28.5q-45 0 -78 16.5t-58.5 38t-48.5 38t-48 16.5q-26 0 -47 -26t-33 -85
h-144z" />
    <glyph glyph-name="itilde" unicode="&#x129;" horiz-adv-x="457" 
d="M-12 0l237 1116h244l-238 -1116h-243zM53 1241q18 86 45 154t71 107.5t112 39.5q46 0 79.5 -16.5t58.5 -37.5t47 -37.5t46 -16.5q29 0 48 23.5t32 86.5h143q-19 -112 -54.5 -178t-79.5 -94.5t-91 -28.5q-45 0 -78 16.5t-58.5 38t-48.5 38t-48 16.5q-26 0 -47 -26t-33 -85
h-144z" />
    <glyph glyph-name="Imacron" unicode="&#x12a;" horiz-adv-x="496" 
d="M-6 0l311 1462h254l-309 -1462h-256zM204 1622l37 180h535l-37 -180h-535z" />
    <glyph glyph-name="imacron" unicode="&#x12b;" horiz-adv-x="457" 
d="M-12 0l237 1116h244l-238 -1116h-243zM98 1245l37 180h535l-37 -180h-535z" />
    <glyph glyph-name="Ibreve" unicode="&#x12c;" horiz-adv-x="496" 
d="M-6 0l311 1462h254l-309 -1462h-256zM469 1618q-86 0 -138.5 28.5t-76.5 79t-24 115.5q0 23 3 49t7 52h151q0 -46 8 -78.5t28.5 -50t56.5 -17.5q53 0 88 33t55 113h156q-28 -157 -109.5 -240.5t-204.5 -83.5z" />
    <glyph glyph-name="ibreve" unicode="&#x12d;" horiz-adv-x="457" 
d="M-12 0l237 1116h244l-238 -1116h-243zM383 1241q-86 0 -138.5 28.5t-76.5 79t-24 115.5q0 23 3 49t7 52h151q0 -46 8 -78.5t28.5 -50t56.5 -17.5q53 0 88 33t55 113h156q-28 -157 -109.5 -240.5t-204.5 -83.5z" />
    <glyph glyph-name="Iogonek" unicode="&#x12e;" horiz-adv-x="496" 
d="M-6 0l311 1462h254l-309 -1462h-256zM64 -475q-88 0 -131 44.5t-43 115.5q0 61 25.5 115t72 103.5t109.5 96.5h153q-54 -52 -87 -94.5t-48.5 -80.5t-17.5 -75q0 -26 14.5 -39.5t36.5 -13.5q17 0 39 4t45 10l-35 -166q-32 -13 -65.5 -16.5t-67.5 -3.5z" />
    <glyph glyph-name="iogonek" unicode="&#x12f;" horiz-adv-x="457" 
d="M-12 0l237 1116h244l-236 -1116h-245zM385 1262q-58 0 -87.5 26t-29.5 78q0 43 17.5 85.5t54 70.5t92.5 28t86.5 -24.5t30.5 -77.5q0 -76 -45 -131t-119 -55zM23 -475q-88 0 -131 44.5t-43 115.5q0 61 25.5 115t72 103.5t109.5 96.5h153q-54 -52 -87 -94.5t-48.5 -80.5
t-17.5 -75q0 -26 14.5 -39.5t36.5 -13.5q17 0 39 4t45 10l-35 -166q-32 -13 -65.5 -16.5t-67.5 -3.5z" />
    <glyph glyph-name="Idotaccent" unicode="&#x130;" horiz-adv-x="496" 
d="M-6 0l311 1462h254l-309 -1462h-256zM477 1639q-60 0 -90.5 31t-30.5 83q0 68 41 121t121 53q41 0 67.5 -13t39 -38t12.5 -63q0 -70 -41 -122t-119 -52z" />
    <glyph glyph-name="dotlessi" unicode="&#x131;" horiz-adv-x="457" 
d="M-12 0l237 1116h244l-238 -1116h-243z" />
    <glyph glyph-name="IJ" unicode="&#x132;" horiz-adv-x="988" 
d="M-6 0l311 1462h254l-309 -1462h-256zM349 -426q-55 0 -94.5 6t-71.5 19l51 223q26 -13 51 -19t51 -6q52 0 84 37t51.5 95t32.5 120l299 1413h256l-307 -1452q-33 -155 -90 -251.5t-135.5 -140.5t-177.5 -44z" />
    <glyph glyph-name="ij" unicode="&#x133;" horiz-adv-x="915" 
d="M-12 0l237 1116h244l-236 -1116h-245zM385 1262q-58 0 -87.5 26t-29.5 78q0 43 17.5 85.5t54 70.5t92.5 28t86.5 -24.5t30.5 -77.5q0 -76 -45 -131t-119 -55zM326 -492q-34 0 -65.5 3.5t-63.5 15.5v217q18 -9 46 -13.5t48 -4.5q41 0 66 19t41.5 62t31.5 115l252 1194h244
l-256 -1212q-26 -123 -64.5 -211.5t-104 -136.5t-175.5 -48zM844 1262q-58 0 -87.5 26t-29.5 78q0 43 17.5 85.5t54 70.5t92.5 28t86.5 -24.5t30.5 -77.5q0 -76 -45 -131t-119 -55z" />
    <glyph glyph-name="Jcircumflex" unicode="&#x134;" horiz-adv-x="492" 
d="M-147 -426q-55 0 -94.5 6t-71.5 19l51 223q26 -13 51 -19t51 -6q52 0 84 37t51.5 95t32.5 120l299 1413h256l-307 -1452q-33 -155 -90 -251.5t-135.5 -140.5t-177.5 -44zM151 1579l4 23q46 47 88.5 97.5t82 103t73.5 104.5h221q10 -39 29 -95t42 -112t42 -96l-6 -25h-148
q-16 22 -33 47t-34.5 54.5t-36.5 62.5q-48 -52 -90.5 -93.5t-79.5 -70.5h-154z" />
    <glyph glyph-name="jcircumflex" unicode="&#x135;" horiz-adv-x="457" 
d="M-131 -492q-34 0 -65.5 3.5t-63.5 15.5v217q18 -9 46 -13.5t48 -4.5q41 0 66 19t41.5 62t31.5 115l252 1194h244l-256 -1212q-26 -123 -64.5 -211.5t-104 -136.5t-175.5 -48zM64 1241l4 23q46 47 88.5 97.5t82 103t73.5 104.5h221q10 -39 29 -95t42 -112t42 -96l-6 -25
h-148q-16 22 -33 47t-34.5 54.5t-36.5 62.5q-48 -52 -90.5 -93.5t-79.5 -70.5h-154z" />
    <glyph glyph-name="uni0136" unicode="&#x136;" horiz-adv-x="944" 
d="M-4 0l309 1462h256l-139 -655l92 156l338 499h281l-461 -680l157 -782h-280l-100 598l-87 -76l-110 -522h-256zM147 -453v27q19 38 42.5 91.5t45 109t33.5 100.5h234v-20q-19 -46 -52 -103t-70.5 -111.5t-70.5 -93.5h-162z" />
    <glyph glyph-name="uni0137" unicode="&#x137;" horiz-adv-x="870" 
d="M-14 0l331 1556h246l-145 -673q-7 -34 -16 -70t-19 -75t-23 -81h5l340 459h268l-357 -469l142 -647h-266l-89 449l-102 -103l-70 -346h-245zM110 -453v27q19 38 42.5 91.5t45 109t33.5 100.5h234v-20q-19 -46 -52 -103t-70.5 -111.5t-70.5 -93.5h-162z" />
    <glyph glyph-name="kgreenlandic" unicode="&#x138;" horiz-adv-x="870" 
d="M-14 0l237 1116h246l-51 -233q-11 -52 -25 -107.5t-33 -118.5h5l340 459h268l-357 -469l142 -647h-266l-89 449l-102 -103l-70 -346h-245z" />
    <glyph glyph-name="Lacute" unicode="&#x139;" horiz-adv-x="758" 
d="M-4 0l309 1462h256l-264 -1237h352l-45 -225h-608zM346 1579l4 21q42 52 80.5 104t73 103t64.5 100h278l-2 -17q-22 -27 -65 -70.5t-92.5 -91t-94 -88t-70.5 -61.5h-176z" />
    <glyph glyph-name="lacute" unicode="&#x13a;" horiz-adv-x="453" 
d="M-14 0l331 1556h246l-332 -1556h-245zM319 1636l4 21q42 52 80.5 104t73 103t64.5 100h278l-2 -17q-22 -27 -65 -70.5t-92.5 -91t-94 -88t-70.5 -61.5h-176z" />
    <glyph glyph-name="uni013B" unicode="&#x13b;" horiz-adv-x="758" 
d="M-4 0l309 1462h256l-264 -1237h352l-45 -225h-608zM32 -453v27q19 38 42.5 91.5t45 109t33.5 100.5h234v-20q-19 -46 -52 -103t-70.5 -111.5t-70.5 -93.5h-162z" />
    <glyph glyph-name="uni013C" unicode="&#x13c;" horiz-adv-x="453" 
d="M-14 0l331 1556h246l-332 -1556h-245zM-150 -453v27q19 38 42.5 91.5t45 109t33.5 100.5h234v-20q-19 -46 -52 -103t-70.5 -111.5t-70.5 -93.5h-162z" />
    <glyph glyph-name="Lcaron" unicode="&#x13d;" horiz-adv-x="758" 
d="M-4 0l309 1462h256l-264 -1237h352l-45 -225h-608zM596 1137v20q23 53 42 104.5t34.5 102.5t27.5 100h236v-20q-22 -50 -52 -104t-62.5 -106.5t-64.5 -96.5h-161z" />
    <glyph glyph-name="lcaron" unicode="&#x13e;" horiz-adv-x="678" 
d="M-14 0l331 1556h246l-332 -1556h-245zM596 1229v20q23 53 42 104.5t34.5 102.5t27.5 100h236v-20q-22 -50 -52 -104t-62.5 -106.5t-64.5 -96.5h-161z" />
    <glyph glyph-name="Ldot" unicode="&#x13f;" horiz-adv-x="758" 
d="M-4 0l309 1462h256l-264 -1237h352l-45 -225h-608zM633 615q-60 0 -90.5 31t-30.5 83q0 68 41 121t121 53q41 0 67.5 -13t39 -38t12.5 -63q0 -70 -41 -122t-119 -52z" />
    <glyph glyph-name="ldot" unicode="&#x140;" horiz-adv-x="715" 
d="M-14 0l331 1556h246l-332 -1556h-245zM604 549q-60 0 -90.5 31t-30.5 83q0 68 41 121t121 53q41 0 67.5 -13t39 -38t12.5 -63q0 -70 -41 -122t-119 -52z" />
    <glyph glyph-name="Lslash" unicode="&#x141;" horiz-adv-x="784" 
d="M25 0l106 510l-86 -53l-100 151l241 166l148 688h256l-103 -479l160 104l103 -145l-318 -223l-106 -494h352l-45 -225h-608z" />
    <glyph glyph-name="lslash" unicode="&#x142;" horiz-adv-x="535" 
d="M23 0l133 623l-101 -50l-69 166l215 101l153 716h246l-131 -608l111 56l71 -164l-227 -109l-156 -731h-245z" />
    <glyph glyph-name="Nacute" unicode="&#x143;" horiz-adv-x="1149" 
d="M-4 0l309 1462h289l172 -993h6q11 63 21 123t19.5 112.5t16.5 90.5l144 667h241l-309 -1462h-289l-172 1016h-6q-7 -51 -15 -103t-17 -99.5t-16.5 -87.5t-12.5 -69l-141 -657h-240zM651 1579l4 21q42 52 80.5 104t73 103t64.5 100h278l-2 -17q-22 -27 -65 -70.5
t-92.5 -91t-94 -88t-70.5 -61.5h-176z" />
    <glyph glyph-name="nacute" unicode="&#x144;" horiz-adv-x="926" 
d="M-14 0l237 1116h197l-10 -139h6q31 50 68.5 86t81 55t91.5 19q59 0 110 -23t82.5 -75t31.5 -140q0 -37 -7 -84t-18 -102l-152 -713h-245l139 655q9 48 17 94t8 80q0 41 -16.5 62.5t-53.5 21.5q-48 0 -84.5 -40.5t-63.5 -113.5t-49 -171l-123 -588h-247zM473 1241l4 21
q42 52 80.5 104t73 103t64.5 100h278l-2 -17q-22 -27 -65 -70.5t-92.5 -91t-94 -88t-70.5 -61.5h-176z" />
    <glyph glyph-name="uni0145" unicode="&#x145;" horiz-adv-x="1149" 
d="M-4 0l309 1462h289l172 -993h6q11 63 21 123t19.5 112.5t16.5 90.5l144 667h241l-309 -1462h-289l-172 1016h-6q-7 -51 -15 -103t-17 -99.5t-16.5 -87.5t-12.5 -69l-141 -657h-240zM208 -453v27q19 38 42.5 91.5t45 109t33.5 100.5h234v-20q-19 -46 -52 -103
t-70.5 -111.5t-70.5 -93.5h-162z" />
    <glyph glyph-name="uni0146" unicode="&#x146;" horiz-adv-x="926" 
d="M-14 0l237 1116h197l-10 -139h6q31 50 68.5 86t81 55t91.5 19q59 0 110 -23t82.5 -75t31.5 -140q0 -37 -7 -84t-18 -102l-152 -713h-245l139 655q9 48 17 94t8 80q0 41 -16.5 62.5t-53.5 21.5q-48 0 -84.5 -40.5t-63.5 -113.5t-49 -171l-123 -588h-247zM90 -453v27
q19 38 42.5 91.5t45 109t33.5 100.5h234v-20q-19 -46 -52 -103t-70.5 -111.5t-70.5 -93.5h-162z" />
    <glyph glyph-name="Ncaron" unicode="&#x147;" horiz-adv-x="1149" 
d="M-4 0l309 1462h289l172 -993h6q11 63 21 123t19.5 112.5t16.5 90.5l144 667h241l-309 -1462h-289l-172 1016h-6q-7 -51 -15 -103t-17 -99.5t-16.5 -87.5t-12.5 -69l-141 -657h-240zM651 1579q-10 40 -29 95.5t-41 111t-42 96.5l6 25h147q15 -18 31.5 -42.5t35 -55
t36.5 -66.5q49 53 92 94.5t78 69.5h155l-4 -23q-32 -33 -80.5 -90.5t-93.5 -116.5t-69 -98h-222z" />
    <glyph glyph-name="ncaron" unicode="&#x148;" horiz-adv-x="926" 
d="M-14 0l237 1116h197l-10 -139h6q31 50 68.5 86t81 55t91.5 19q59 0 110 -23t82.5 -75t31.5 -140q0 -37 -7 -84t-18 -102l-152 -713h-245l139 655q9 48 17 94t8 80q0 41 -16.5 62.5t-53.5 21.5q-48 0 -84.5 -40.5t-63.5 -113.5t-49 -171l-123 -588h-247zM483 1241
q-10 40 -29 95.5t-41 111t-42 96.5l6 25h147q15 -18 31.5 -42.5t35 -55t36.5 -66.5q49 53 92 94.5t78 69.5h155l-4 -23q-32 -33 -80.5 -90.5t-93.5 -116.5t-69 -98h-222z" />
    <glyph glyph-name="napostrophe" unicode="&#x149;" horiz-adv-x="1137" 
d="M197 0l237 1116h197l-10 -139h6q31 50 68.5 86t81 55t91.5 19q59 0 110 -23t82.5 -75t31.5 -140q0 -37 -7 -84t-18 -102l-152 -713h-245l139 655q9 48 17 94t8 80q0 41 -16.5 62.5t-53.5 21.5q-48 0 -84.5 -40.5t-63.5 -113.5t-49 -171l-123 -588h-247zM23 920
q37 88 70.5 177.5t63.5 180.5t56 184h244l4 -20q-33 -96 -71.5 -187.5t-80 -175t-85.5 -159.5h-201z" />
    <glyph glyph-name="Eng" unicode="&#x14a;" horiz-adv-x="1149" 
d="M496 -426q-39 0 -76 6t-68 19l47 227q26 -12 53.5 -19.5t53.5 -7.5q42 0 71.5 23t48.5 67.5t31 108.5l-202 1059h-9q-4 -37 -9.5 -75.5t-12 -76.5t-13.5 -73.5t-14 -67.5l-161 -764h-240l309 1462h299l176 -932h6q8 50 15.5 96.5t15 90t14.5 82.5l142 663h241l-299 -1415
q-31 -143 -79 -249.5t-128.5 -165t-211.5 -58.5z" />
    <glyph glyph-name="eng" unicode="&#x14b;" horiz-adv-x="926" 
d="M338 -492q-41 0 -72.5 5t-54.5 14v217q19 -9 47 -13.5t47 -4.5q41 0 66 18t41.5 61t31.5 117l154 733q9 48 17 94t8 80q0 41 -16.5 62.5t-53.5 21.5q-48 0 -84 -39t-61.5 -106.5t-42.5 -151.5l-132 -616h-247l237 1116h197l-10 -139h6q31 50 68.5 86t81 55t91.5 19
q59 0 110 -23t82.5 -75t31.5 -140q0 -37 -7 -85t-18 -101l-172 -809q-31 -149 -75 -236t-109.5 -123.5t-161.5 -36.5z" />
    <glyph glyph-name="Omacron" unicode="&#x14c;" horiz-adv-x="1098" 
d="M446 -20q-126 0 -209 49.5t-124 152.5t-41 262q0 113 18.5 233t54.5 237t90 220t125.5 182t160.5 124t194 45q192 0 280 -115t88 -342q0 -97 -15.5 -211.5t-48 -232t-83.5 -225.5t-121.5 -193.5t-162.5 -135.5t-206 -50zM467 209q58 0 106.5 41t87.5 110.5t68.5 156.5
t49.5 180t30 180.5t10 156.5q0 114 -31.5 168.5t-93.5 54.5q-60 0 -110 -42t-89 -113t-68.5 -158.5t-48.5 -179.5t-28.5 -175.5t-9.5 -146.5q0 -88 14 -139t42.5 -72.5t70.5 -21.5zM475 1583l37 180h535l-37 -180h-535z" />
    <glyph glyph-name="omacron" unicode="&#x14d;" horiz-adv-x="909" 
d="M354 -20q-98 0 -167.5 43t-106.5 124t-37 195q0 87 17.5 192.5t54.5 211.5t97.5 194.5t146.5 142.5t200 54q97 0 165.5 -44t105 -125.5t36.5 -195.5q0 -98 -18.5 -207t-57.5 -213t-99.5 -188t-144.5 -134t-192 -50zM383 188q43 0 80 40t65.5 106t48.5 144.5t30.5 156
t10.5 139.5q0 49 -9.5 83.5t-30 52.5t-52.5 18q-46 0 -83.5 -42t-66 -110t-47.5 -147.5t-28.5 -155.5t-9.5 -133q0 -72 23 -112t69 -40zM306 1245l37 180h535l-37 -180h-535z" />
    <glyph glyph-name="Obreve" unicode="&#x14e;" horiz-adv-x="1098" 
d="M446 -20q-126 0 -209 49.5t-124 152.5t-41 262q0 113 18.5 233t54.5 237t90 220t125.5 182t160.5 124t194 45q192 0 280 -115t88 -342q0 -97 -15.5 -211.5t-48 -232t-83.5 -225.5t-121.5 -193.5t-162.5 -135.5t-206 -50zM467 209q58 0 106.5 41t87.5 110.5t68.5 156.5
t49.5 180t30 180.5t10 156.5q0 114 -31.5 168.5t-93.5 54.5q-60 0 -110 -42t-89 -113t-68.5 -158.5t-48.5 -179.5t-28.5 -175.5t-9.5 -146.5q0 -88 14 -139t42.5 -72.5t70.5 -21.5zM762 1579q-86 0 -138.5 28.5t-76.5 79t-24 115.5q0 23 3 49t7 52h151q0 -46 8 -78.5
t28.5 -50t56.5 -17.5q53 0 88 33t55 113h156q-28 -157 -109.5 -240.5t-204.5 -83.5z" />
    <glyph glyph-name="obreve" unicode="&#x14f;" horiz-adv-x="909" 
d="M354 -20q-98 0 -167.5 43t-106.5 124t-37 195q0 87 17.5 192.5t54.5 211.5t97.5 194.5t146.5 142.5t200 54q97 0 165.5 -44t105 -125.5t36.5 -195.5q0 -98 -18.5 -207t-57.5 -213t-99.5 -188t-144.5 -134t-192 -50zM383 188q43 0 80 40t65.5 106t48.5 144.5t30.5 156
t10.5 139.5q0 49 -9.5 83.5t-30 52.5t-52.5 18q-46 0 -83.5 -42t-66 -110t-47.5 -147.5t-28.5 -155.5t-9.5 -133q0 -72 23 -112t69 -40zM604 1241q-86 0 -138.5 28.5t-76.5 79t-24 115.5q0 23 3 49t7 52h151q0 -46 8 -78.5t28.5 -50t56.5 -17.5q53 0 88 33t55 113h156
q-28 -157 -109.5 -240.5t-204.5 -83.5z" />
    <glyph glyph-name="Ohungarumlaut" unicode="&#x150;" horiz-adv-x="1098" 
d="M446 -20q-126 0 -209 49.5t-124 152.5t-41 262q0 113 18.5 233t54.5 237t90 220t125.5 182t160.5 124t194 45q192 0 280 -115t88 -342q0 -97 -15.5 -211.5t-48 -232t-83.5 -225.5t-121.5 -193.5t-162.5 -135.5t-206 -50zM467 209q58 0 106.5 41t87.5 110.5t68.5 156.5
t49.5 180t30 180.5t10 156.5q0 114 -31.5 168.5t-93.5 54.5q-60 0 -110 -42t-89 -113t-68.5 -158.5t-48.5 -179.5t-28.5 -175.5t-9.5 -146.5q0 -88 14 -139t42.5 -72.5t70.5 -21.5zM805 1579l4 23q51 68 91 125t69.5 102.5t46.5 77.5h236l-2 -17q-21 -30 -58 -70.5
t-81.5 -84.5t-89.5 -85t-83 -71h-133zM469 1579l4 23q51 69 91 126.5t69.5 102.5t46.5 76h234l-2 -17q-18 -31 -54 -71t-81.5 -83t-94 -84t-92.5 -73h-121z" />
    <glyph glyph-name="ohungarumlaut" unicode="&#x151;" horiz-adv-x="909" 
d="M354 -20q-98 0 -167.5 43t-106.5 124t-37 195q0 87 17.5 192.5t54.5 211.5t97.5 194.5t146.5 142.5t200 54q97 0 165.5 -44t105 -125.5t36.5 -195.5q0 -98 -18.5 -207t-57.5 -213t-99.5 -188t-144.5 -134t-192 -50zM383 188q43 0 80 40t65.5 106t48.5 144.5t30.5 156
t10.5 139.5q0 49 -9.5 83.5t-30 52.5t-52.5 18q-46 0 -83.5 -42t-66 -110t-47.5 -147.5t-28.5 -155.5t-9.5 -133q0 -72 23 -112t69 -40zM649 1241l4 23q51 68 91 125t69.5 102.5t46.5 77.5h236l-2 -17q-21 -30 -58 -70.5t-81.5 -84.5t-89.5 -85t-83 -71h-133zM313 1241l4 23
q51 69 91 126.5t69.5 102.5t46.5 76h234l-2 -17q-18 -31 -54 -71t-81.5 -83t-94 -84t-92.5 -73h-121z" />
    <glyph glyph-name="OE" unicode="&#x152;" horiz-adv-x="1313" 
d="M420 -16q-121 0 -198 55t-113.5 152t-36.5 223t21 270.5t66 285t117.5 256t175.5 184.5t240 69q48 0 94 -4.5t74 -12.5h553l-47 -223h-342l-80 -369h320l-47 -223h-320l-90 -422h344l-47 -225h-551q-23 -4 -58 -10t-75 -6zM471 215q31 0 52.5 3t33.5 7l213 1008
q-15 8 -34 14t-42 6q-70 0 -126.5 -55.5t-99 -146.5t-71 -199t-43 -214.5t-14.5 -191.5q0 -81 13.5 -132t42.5 -75t75 -24z" />
    <glyph glyph-name="oe" unicode="&#x153;" horiz-adv-x="1382" 
d="M334 -20q-132 0 -211.5 95.5t-79.5 268.5q0 77 15.5 180t51 210t93.5 198.5t142.5 148t199.5 56.5q101 0 153 -45t80 -129q60 81 142.5 126.5t166.5 45.5q123 0 199 -69t76 -192q0 -97 -37 -171.5t-107 -124.5t-167.5 -75.5t-219.5 -25.5h-18q-4 -28 -7 -56.5t-3 -55.5
q0 -99 37 -142t110 -43q65 0 128 20t118 54v-188q-72 -43 -148 -64.5t-157 -21.5q-66 0 -116.5 19.5t-85.5 58.5t-56 96q-54 -80 -128 -127t-171 -47zM383 188q43 0 79.5 40.5t65 106t49 144.5t31 156.5t10.5 140.5q0 76 -22 113t-70 37q-43 0 -79.5 -40.5t-65 -106.5
t-49 -144.5t-31 -155.5t-10.5 -139q0 -75 23 -113.5t69 -38.5zM852 655h8q104 0 164.5 25.5t86.5 70.5t26 101q0 40 -22 64t-62 24q-47 0 -90 -45t-73 -111t-38 -129z" />
    <glyph glyph-name="Racute" unicode="&#x154;" horiz-adv-x="948" 
d="M-4 0l309 1462h277q195 0 291 -86t96 -246q0 -123 -35 -225t-99.5 -173t-152.5 -103l143 -629h-282l-103 578h-67l-121 -578h-256zM418 786h59q57 0 98.5 27t69 72t40.5 100t13 111q0 74 -36 110.5t-107 36.5h-41zM493 1579l4 21q42 52 80.5 104t73 103t64.5 100h278
l-2 -17q-22 -27 -65 -70.5t-92.5 -91t-94 -88t-70.5 -61.5h-176z" />
    <glyph glyph-name="racute" unicode="&#x155;" horiz-adv-x="645" 
d="M-14 0l237 1116h193l-15 -172h9q34 67 70.5 109.5t81 63t100.5 20.5q20 0 39.5 -3.5t43.5 -11.5l-73 -266q-20 8 -42 12t-46 4q-48 0 -86 -26t-66.5 -69t-48 -96.5t-31.5 -109.5l-121 -571h-245zM364 1241l4 21q42 52 80.5 104t73 103t64.5 100h278l-2 -17
q-22 -27 -65 -70.5t-92.5 -91t-94 -88t-70.5 -61.5h-176z" />
    <glyph glyph-name="uni0156" unicode="&#x156;" horiz-adv-x="948" 
d="M-4 0l309 1462h277q195 0 291 -86t96 -246q0 -123 -35 -225t-99.5 -173t-152.5 -103l143 -629h-282l-103 578h-67l-121 -578h-256zM418 786h59q57 0 98.5 27t69 72t40.5 100t13 111q0 74 -36 110.5t-107 36.5h-41zM151 -453v27q19 38 42.5 91.5t45 109t33.5 100.5h234
v-20q-19 -46 -52 -103t-70.5 -111.5t-70.5 -93.5h-162z" />
    <glyph glyph-name="uni0157" unicode="&#x157;" horiz-adv-x="645" 
d="M-14 0l237 1116h193l-15 -172h9q34 67 70.5 109.5t81 63t100.5 20.5q20 0 39.5 -3.5t43.5 -11.5l-73 -266q-20 8 -42 12t-46 4q-48 0 -86 -26t-66.5 -69t-48 -96.5t-31.5 -109.5l-121 -571h-245zM-144 -453v27q19 38 42.5 91.5t45 109t33.5 100.5h234v-20
q-19 -46 -52 -103t-70.5 -111.5t-70.5 -93.5h-162z" />
    <glyph glyph-name="Rcaron" unicode="&#x158;" horiz-adv-x="948" 
d="M-4 0l309 1462h277q195 0 291 -86t96 -246q0 -123 -35 -225t-99.5 -173t-152.5 -103l143 -629h-282l-103 578h-67l-121 -578h-256zM418 786h59q57 0 98.5 27t69 72t40.5 100t13 111q0 74 -36 110.5t-107 36.5h-41zM516 1579q-10 40 -29 95.5t-41 111t-42 96.5l6 25h147
q15 -18 31.5 -42.5t35 -55t36.5 -66.5q49 53 92 94.5t78 69.5h155l-4 -23q-32 -33 -80.5 -90.5t-93.5 -116.5t-69 -98h-222z" />
    <glyph glyph-name="rcaron" unicode="&#x159;" horiz-adv-x="645" 
d="M-14 0l237 1116h193l-15 -172h9q34 67 70.5 109.5t81 63t100.5 20.5q20 0 39.5 -3.5t43.5 -11.5l-73 -266q-20 8 -42 12t-46 4q-48 0 -86 -26t-66.5 -69t-48 -96.5t-31.5 -109.5l-121 -571h-245zM380 1241q-10 40 -29 95.5t-41 111t-42 96.5l6 25h147q15 -18 31.5 -42.5
t35 -55t36.5 -66.5q49 53 92 94.5t78 69.5h155l-4 -23q-32 -33 -80.5 -90.5t-93.5 -116.5t-69 -98h-222z" />
    <glyph glyph-name="Sacute" unicode="&#x15a;" horiz-adv-x="834" 
d="M274 -20q-100 0 -178.5 19t-138.5 62l51 265q53 -42 125.5 -73.5t142.5 -31.5q39 0 74.5 11.5t62.5 35.5t42.5 61.5t15.5 90.5q0 42 -10.5 77t-39.5 73t-83 89q-59 55 -99 109t-59.5 118t-19.5 148q0 97 29.5 179t87.5 142.5t143.5 94t197.5 33.5q79 0 163 -24t147 -70
l-117 -232q-55 41 -107.5 64.5t-99.5 23.5q-36 0 -68 -11.5t-56 -35t-38 -58t-14 -79.5q0 -42 14 -78t47 -74.5t89 -89.5q58 -51 94.5 -105.5t53.5 -119t17 -145.5q0 -95 -29.5 -180t-88 -150t-146.5 -102t-205 -37zM471 1579l4 21q42 52 80.5 104t73 103t64.5 100h278
l-2 -17q-22 -27 -65 -70.5t-92.5 -91t-94 -88t-70.5 -61.5h-176z" />
    <glyph glyph-name="sacute" unicode="&#x15b;" horiz-adv-x="724" 
d="M252 -20q-92 0 -154.5 15.5t-109.5 43.5v235q49 -37 114.5 -58t118.5 -21q41 0 72.5 14.5t49 42.5t17.5 70q0 28 -8 54t-31.5 57t-68.5 73q-53 48 -83.5 93.5t-43 92.5t-12.5 99q0 96 39.5 174.5t116.5 125t190 46.5q87 0 164 -24t131 -62l-99 -189q-44 37 -95.5 54.5
t-88.5 17.5q-49 0 -77.5 -28.5t-28.5 -78.5q0 -27 7 -50.5t29 -51t66 -66.5q51 -47 85.5 -89.5t51.5 -95t17 -128.5q0 -103 -43.5 -186t-126 -131.5t-199.5 -48.5zM379 1241l4 21q42 52 80.5 104t73 103t64.5 100h278l-2 -17q-22 -27 -65 -70.5t-92.5 -91t-94 -88
t-70.5 -61.5h-176z" />
    <glyph glyph-name="Scircumflex" unicode="&#x15c;" horiz-adv-x="834" 
d="M274 -20q-100 0 -178.5 19t-138.5 62l51 265q53 -42 125.5 -73.5t142.5 -31.5q39 0 74.5 11.5t62.5 35.5t42.5 61.5t15.5 90.5q0 42 -10.5 77t-39.5 73t-83 89q-59 55 -99 109t-59.5 118t-19.5 148q0 97 29.5 179t87.5 142.5t143.5 94t197.5 33.5q79 0 163 -24t147 -70
l-117 -232q-55 41 -107.5 64.5t-99.5 23.5q-36 0 -68 -11.5t-56 -35t-38 -58t-14 -79.5q0 -42 14 -78t47 -74.5t89 -89.5q58 -51 94.5 -105.5t53.5 -119t17 -145.5q0 -95 -29.5 -180t-88 -150t-146.5 -102t-205 -37zM329 1579l4 23q46 47 88.5 97.5t82 103t73.5 104.5h221
q10 -39 29 -95t42 -112t42 -96l-6 -25h-148q-16 22 -33 47t-34.5 54.5t-36.5 62.5q-48 -52 -90.5 -93.5t-79.5 -70.5h-154z" />
    <glyph glyph-name="scircumflex" unicode="&#x15d;" horiz-adv-x="724" 
d="M252 -20q-92 0 -154.5 15.5t-109.5 43.5v235q49 -37 114.5 -58t118.5 -21q41 0 72.5 14.5t49 42.5t17.5 70q0 28 -8 54t-31.5 57t-68.5 73q-53 48 -83.5 93.5t-43 92.5t-12.5 99q0 96 39.5 174.5t116.5 125t190 46.5q87 0 164 -24t131 -62l-99 -189q-44 37 -95.5 54.5
t-88.5 17.5q-49 0 -77.5 -28.5t-28.5 -78.5q0 -27 7 -50.5t29 -51t66 -66.5q51 -47 85.5 -89.5t51.5 -95t17 -128.5q0 -103 -43.5 -186t-126 -131.5t-199.5 -48.5zM192 1241l4 23q46 47 88.5 97.5t82 103t73.5 104.5h221q10 -39 29 -95t42 -112t42 -96l-6 -25h-148
q-16 22 -33 47t-34.5 54.5t-36.5 62.5q-48 -52 -90.5 -93.5t-79.5 -70.5h-154z" />
    <glyph glyph-name="Scedilla" unicode="&#x15e;" horiz-adv-x="834" 
d="M274 -20q-100 0 -178.5 19t-138.5 62l51 265q53 -42 125.5 -73.5t142.5 -31.5q39 0 74.5 11.5t62.5 35.5t42.5 61.5t15.5 90.5q0 42 -10.5 77t-39.5 73t-83 89q-59 55 -99 109t-59.5 118t-19.5 148q0 97 29.5 179t87.5 142.5t143.5 94t197.5 33.5q79 0 163 -24t147 -70
l-117 -232q-55 41 -107.5 64.5t-99.5 23.5q-36 0 -68 -11.5t-56 -35t-38 -58t-14 -79.5q0 -42 14 -78t47 -74.5t89 -89.5q58 -51 94.5 -105.5t53.5 -119t17 -145.5q0 -95 -29.5 -180t-88 -150t-146.5 -102t-205 -37zM173 -492q-39 0 -76 4.5t-74 14.5v143q22 -6 51.5 -10
t63.5 -4q35 0 59.5 11t37.5 32t13 49q0 37 -30.5 59.5t-92.5 26.5l103 166h129l-55 -86q63 -12 103 -53t40 -109q0 -86 -36.5 -140t-98 -79t-137.5 -25z" />
    <glyph glyph-name="scedilla" unicode="&#x15f;" horiz-adv-x="724" 
d="M252 -20q-92 0 -154.5 15.5t-109.5 43.5v235q49 -37 114.5 -58t118.5 -21q41 0 72.5 14.5t49 42.5t17.5 70q0 28 -8 54t-31.5 57t-68.5 73q-53 48 -83.5 93.5t-43 92.5t-12.5 99q0 96 39.5 174.5t116.5 125t190 46.5q87 0 164 -24t131 -62l-99 -189q-44 37 -95.5 54.5
t-88.5 17.5q-49 0 -77.5 -28.5t-28.5 -78.5q0 -27 7 -50.5t29 -51t66 -66.5q51 -47 85.5 -89.5t51.5 -95t17 -128.5q0 -103 -43.5 -186t-126 -131.5t-199.5 -48.5zM117 -492q-39 0 -76 4.5t-74 14.5v143q22 -6 51.5 -10t63.5 -4q35 0 59.5 11t37.5 32t13 49q0 37 -30.5 59.5
t-92.5 26.5l103 166h129l-55 -86q63 -12 103 -53t40 -109q0 -86 -36.5 -140t-98 -79t-137.5 -25z" />
    <glyph glyph-name="Scaron" unicode="&#x160;" horiz-adv-x="834" 
d="M274 -20q-100 0 -178.5 19t-138.5 62l51 265q53 -42 125.5 -73.5t142.5 -31.5q39 0 74.5 11.5t62.5 35.5t42.5 61.5t15.5 90.5q0 42 -10.5 77t-39.5 73t-83 89q-59 55 -99 109t-59.5 118t-19.5 148q0 97 29.5 179t87.5 142.5t143.5 94t197.5 33.5q79 0 163 -24t147 -70
l-117 -232q-55 41 -107.5 64.5t-99.5 23.5q-36 0 -68 -11.5t-56 -35t-38 -58t-14 -79.5q0 -42 14 -78t47 -74.5t89 -89.5q58 -51 94.5 -105.5t53.5 -119t17 -145.5q0 -95 -29.5 -180t-88 -150t-146.5 -102t-205 -37zM522 1579q-10 40 -29 95.5t-41 111t-42 96.5l6 25h147
q15 -18 31.5 -42.5t35 -55t36.5 -66.5q49 53 92 94.5t78 69.5h155l-4 -23q-32 -33 -80.5 -90.5t-93.5 -116.5t-69 -98h-222z" />
    <glyph glyph-name="scaron" unicode="&#x161;" horiz-adv-x="724" 
d="M252 -20q-92 0 -154.5 15.5t-109.5 43.5v235q49 -37 114.5 -58t118.5 -21q41 0 72.5 14.5t49 42.5t17.5 70q0 28 -8 54t-31.5 57t-68.5 73q-53 48 -83.5 93.5t-43 92.5t-12.5 99q0 96 39.5 174.5t116.5 125t190 46.5q87 0 164 -24t131 -62l-99 -189q-44 37 -95.5 54.5
t-88.5 17.5q-49 0 -77.5 -28.5t-28.5 -78.5q0 -27 7 -50.5t29 -51t66 -66.5q51 -47 85.5 -89.5t51.5 -95t17 -128.5q0 -103 -43.5 -186t-126 -131.5t-199.5 -48.5zM378 1241q-10 40 -29 95.5t-41 111t-42 96.5l6 25h147q15 -18 31.5 -42.5t35 -55t36.5 -66.5q49 53 92 94.5
t78 69.5h155l-4 -23q-32 -33 -80.5 -90.5t-93.5 -116.5t-69 -98h-222z" />
    <glyph glyph-name="uni0162" unicode="&#x162;" horiz-adv-x="795" 
d="M143 0l263 1235h-244l49 227h743l-49 -227h-243l-263 -1235h-256zM160 -492q-39 0 -76 4.5t-74 14.5v143q22 -6 51.5 -10t63.5 -4q35 0 59.5 11t37.5 32t13 49q0 37 -30.5 59.5t-92.5 26.5l103 166h129l-55 -86q63 -12 103 -53t40 -109q0 -86 -36.5 -140t-98 -79
t-137.5 -25z" />
    <glyph glyph-name="uni0163" unicode="&#x163;" horiz-adv-x="598" 
d="M266 -20q-109 0 -154.5 62.5t-45.5 162.5q0 34 5 74t15 92l115 538h-101l27 131l137 70l103 244h174l-52 -238h175l-43 -207h-175l-120 -569q-5 -23 -9 -43.5t-4 -36.5q0 -34 14 -48.5t46 -14.5q15 0 46 5.5t62 18.5v-198q-46 -23 -107 -33t-108 -10zM144 -492
q-39 0 -76 4.5t-74 14.5v143q22 -6 51.5 -10t63.5 -4q35 0 59.5 11t37.5 32t13 49q0 37 -30.5 59.5t-92.5 26.5l103 166h129l-55 -86q63 -12 103 -53t40 -109q0 -86 -36.5 -140t-98 -79t-137.5 -25z" />
    <glyph glyph-name="Tcaron" unicode="&#x164;" horiz-adv-x="795" 
d="M143 0l263 1235h-244l49 227h743l-49 -227h-243l-263 -1235h-256zM483 1579q-10 40 -29 95.5t-41 111t-42 96.5l6 25h147q15 -18 31.5 -42.5t35 -55t36.5 -66.5q49 53 92 94.5t78 69.5h155l-4 -23q-32 -33 -80.5 -90.5t-93.5 -116.5t-69 -98h-222z" />
    <glyph glyph-name="tcaron" unicode="&#x165;" horiz-adv-x="666" 
d="M266 -20q-109 0 -154.5 62.5t-45.5 162.5q0 34 5 74t15 92l115 538h-101l27 131l137 70l103 244h174l-52 -238h175l-43 -207h-175l-120 -569q-5 -23 -9 -43.5t-4 -36.5q0 -34 14 -48.5t46 -14.5q15 0 46 5.5t62 18.5v-198q-46 -23 -107 -33t-108 -10zM613 1241v20
q23 53 42 104.5t34.5 102.5t27.5 100h236v-20q-22 -50 -52 -104t-62.5 -106.5t-64.5 -96.5h-161z" />
    <glyph glyph-name="Tbar" unicode="&#x166;" horiz-adv-x="795" 
d="M143 0l133 631h-163l41 194h163l86 410h-241l47 227h743l-47 -227h-246l-86 -410h168l-39 -194h-170l-133 -631h-256z" />
    <glyph glyph-name="tbar" unicode="&#x167;" horiz-adv-x="596" 
d="M266 -20q-109 0 -154.5 62.5t-45.5 160.5q0 34 5 73t15 91l29 141h-101l39 178h101l47 223h-101l27 131l137 70l103 244h174l-52 -238h175l-43 -207h-175l-49 -223h170l-41 -178h-166l-34 -168q-5 -23 -9 -42.5t-4 -35.5q0 -35 14 -50t48 -15q15 0 44.5 5.5t61.5 18.5
v-198q-46 -23 -107 -33t-108 -10z" />
    <glyph glyph-name="Utilde" unicode="&#x168;" horiz-adv-x="1042" 
d="M408 -20q-105 0 -181 39t-116.5 113.5t-40.5 178.5q0 37 5.5 82.5t14.5 91.5l209 977h256l-209 -983q-9 -35 -12.5 -68t-3.5 -59q0 -73 28.5 -108t83.5 -35t93.5 29t66 90.5t47.5 160.5l209 973h256l-215 -1007q-31 -150 -91.5 -256.5t-158 -162.5t-241.5 -56zM415 1579
q18 86 45 154t71 107.5t112 39.5q46 0 79.5 -16.5t58.5 -37.5t47 -37.5t46 -16.5q29 0 48 23.5t32 86.5h143q-19 -112 -54.5 -178t-79.5 -94.5t-91 -28.5q-45 0 -78 16.5t-58.5 38t-48.5 38t-48 16.5q-26 0 -47 -26t-33 -85h-144z" />
    <glyph glyph-name="utilde" unicode="&#x169;" horiz-adv-x="926" 
d="M266 -20q-71 0 -120.5 28.5t-75 82t-25.5 128.5q0 37 6.5 83.5t14.5 90.5l155 723h244l-139 -663q-11 -46 -17 -89t-6 -77q0 -40 16.5 -63t51.5 -23q48 0 84.5 41t64 115t47.5 173l127 586h244l-236 -1116h-196l8 135h-6q-32 -48 -70 -82.5t-81 -53.5t-91 -19zM299 1241
q18 86 45 154t71 107.5t112 39.5q46 0 79.5 -16.5t58.5 -37.5t47 -37.5t46 -16.5q29 0 48 23.5t32 86.5h143q-19 -112 -54.5 -178t-79.5 -94.5t-91 -28.5q-45 0 -78 16.5t-58.5 38t-48.5 38t-48 16.5q-26 0 -47 -26t-33 -85h-144z" />
    <glyph glyph-name="Umacron" unicode="&#x16a;" horiz-adv-x="1042" 
d="M408 -20q-105 0 -181 39t-116.5 113.5t-40.5 178.5q0 37 5.5 82.5t14.5 91.5l209 977h256l-209 -983q-9 -35 -12.5 -68t-3.5 -59q0 -73 28.5 -108t83.5 -35t93.5 29t66 90.5t47.5 160.5l209 973h256l-215 -1007q-31 -150 -91.5 -256.5t-158 -162.5t-241.5 -56zM448 1583
l37 180h535l-37 -180h-535z" />
    <glyph glyph-name="umacron" unicode="&#x16b;" horiz-adv-x="928" 
d="M266 -20q-71 0 -120.5 28.5t-75 82t-25.5 128.5q0 37 6.5 83.5t14.5 90.5l155 723h244l-139 -663q-11 -46 -17 -89t-6 -77q0 -40 16.5 -63t51.5 -23q48 0 84.5 41t64 115t47.5 173l127 586h244l-236 -1116h-196l8 135h-6q-32 -48 -70 -82.5t-81 -53.5t-91 -19zM327 1245
l37 180h535l-37 -180h-535z" />
    <glyph glyph-name="Ubreve" unicode="&#x16c;" horiz-adv-x="1042" 
d="M408 -20q-105 0 -181 39t-116.5 113.5t-40.5 178.5q0 37 5.5 82.5t14.5 91.5l209 977h256l-209 -983q-9 -35 -12.5 -68t-3.5 -59q0 -73 28.5 -108t83.5 -35t93.5 29t66 90.5t47.5 160.5l209 973h256l-215 -1007q-31 -150 -91.5 -256.5t-158 -162.5t-241.5 -56zM733 1579
q-86 0 -138.5 28.5t-76.5 79t-24 115.5q0 23 3 49t7 52h151q0 -46 8 -78.5t28.5 -50t56.5 -17.5q53 0 88 33t55 113h156q-28 -157 -109.5 -240.5t-204.5 -83.5z" />
    <glyph glyph-name="ubreve" unicode="&#x16d;" horiz-adv-x="926" 
d="M266 -20q-71 0 -120.5 28.5t-75 82t-25.5 128.5q0 37 6.5 83.5t14.5 90.5l155 723h244l-139 -663q-11 -46 -17 -89t-6 -77q0 -40 16.5 -63t51.5 -23q48 0 84.5 41t64 115t47.5 173l127 586h244l-236 -1116h-196l8 135h-6q-32 -48 -70 -82.5t-81 -53.5t-91 -19zM616 1241
q-86 0 -138.5 28.5t-76.5 79t-24 115.5q0 23 3 49t7 52h151q0 -46 8 -78.5t28.5 -50t56.5 -17.5q53 0 88 33t55 113h156q-28 -157 -109.5 -240.5t-204.5 -83.5z" />
    <glyph glyph-name="Uring" unicode="&#x16e;" horiz-adv-x="1042" 
d="M408 -20q-105 0 -181 39t-116.5 113.5t-40.5 178.5q0 37 5.5 82.5t14.5 91.5l209 977h256l-209 -983q-9 -35 -12.5 -68t-3.5 -59q0 -73 28.5 -108t83.5 -35t93.5 29t66 90.5t47.5 160.5l209 973h256l-215 -1007q-31 -150 -91.5 -256.5t-158 -162.5t-241.5 -56zM739 1581
q-110 0 -171.5 62.5t-61.5 167.5q0 101 63 163t170 62q100 0 164.5 -61.5t64.5 -159.5q0 -103 -61.5 -168.5t-167.5 -65.5zM739 1708q44 0 72 27t28 73q0 45 -26.5 74t-72.5 29q-50 0 -76.5 -29t-26.5 -74q0 -46 25 -73t77 -27z" />
    <glyph glyph-name="uring" unicode="&#x16f;" horiz-adv-x="926" 
d="M266 -20q-71 0 -120.5 28.5t-75 82t-25.5 128.5q0 37 6.5 83.5t14.5 90.5l155 723h244l-139 -663q-11 -46 -17 -89t-6 -77q0 -40 16.5 -63t51.5 -23q48 0 84.5 41t64 115t47.5 173l127 586h244l-236 -1116h-196l8 135h-6q-32 -48 -70 -82.5t-81 -53.5t-91 -19zM641 1243
q-110 0 -171.5 62.5t-61.5 167.5q0 101 63 163t170 62q100 0 164.5 -61.5t64.5 -159.5q0 -103 -61.5 -168.5t-167.5 -65.5zM641 1370q44 0 72 27t28 73q0 45 -26.5 74t-72.5 29q-50 0 -76.5 -29t-26.5 -74q0 -46 25 -73t77 -27z" />
    <glyph glyph-name="Uhungarumlaut" unicode="&#x170;" horiz-adv-x="1042" 
d="M408 -20q-105 0 -181 39t-116.5 113.5t-40.5 178.5q0 37 5.5 82.5t14.5 91.5l209 977h256l-209 -983q-9 -35 -12.5 -68t-3.5 -59q0 -73 28.5 -108t83.5 -35t93.5 29t66 90.5t47.5 160.5l209 973h256l-215 -1007q-31 -150 -91.5 -256.5t-158 -162.5t-241.5 -56zM788 1579
l4 23q51 68 91 125t69.5 102.5t46.5 77.5h236l-2 -17q-21 -30 -58 -70.5t-81.5 -84.5t-89.5 -85t-83 -71h-133zM452 1579l4 23q51 69 91 126.5t69.5 102.5t46.5 76h234l-2 -17q-18 -31 -54 -71t-81.5 -83t-94 -84t-92.5 -73h-121z" />
    <glyph glyph-name="uhungarumlaut" unicode="&#x171;" horiz-adv-x="926" 
d="M266 -20q-71 0 -120.5 28.5t-75 82t-25.5 128.5q0 37 6.5 83.5t14.5 90.5l155 723h244l-139 -663q-11 -46 -17 -89t-6 -77q0 -40 16.5 -63t51.5 -23q48 0 84.5 41t64 115t47.5 173l127 586h244l-236 -1116h-196l8 135h-6q-32 -48 -70 -82.5t-81 -53.5t-91 -19zM651 1241
l4 23q51 68 91 125t69.5 102.5t46.5 77.5h236l-2 -17q-21 -30 -58 -70.5t-81.5 -84.5t-89.5 -85t-83 -71h-133zM315 1241l4 23q51 69 91 126.5t69.5 102.5t46.5 76h234l-2 -17q-18 -31 -54 -71t-81.5 -83t-94 -84t-92.5 -73h-121z" />
    <glyph glyph-name="Uogonek" unicode="&#x172;" horiz-adv-x="1042" 
d="M408 -20q-105 0 -181 39t-116.5 113.5t-40.5 178.5q0 37 5.5 82.5t14.5 91.5l209 977h256l-209 -983q-9 -35 -12.5 -68t-3.5 -59q0 -73 28.5 -108t83.5 -35t93.5 29t66 90.5t47.5 160.5l209 973h256l-215 -1007q-31 -150 -91.5 -256.5t-158 -162.5t-241.5 -56zM357 -475
q-88 0 -131 44.5t-43 115.5q0 61 25.5 115t72 103.5t109.5 96.5h153q-54 -52 -87 -94.5t-48.5 -80.5t-17.5 -75q0 -26 14.5 -39.5t36.5 -13.5q17 0 39 4t45 10l-35 -166q-32 -13 -65.5 -16.5t-67.5 -3.5z" />
    <glyph glyph-name="uogonek" unicode="&#x173;" horiz-adv-x="926" 
d="M266 -20q-71 0 -120.5 28.5t-75 82t-25.5 128.5q0 37 6.5 83.5t14.5 90.5l155 723h244l-139 -663q-11 -46 -17 -89t-6 -77q0 -40 16.5 -63t51.5 -23q48 0 84.5 41t64 115t47.5 173l127 586h244l-236 -1116h-196l8 135h-6q-32 -48 -70 -82.5t-81 -53.5t-91 -19zM514 -475
q-88 0 -131 44.5t-43 115.5q0 61 25.5 115t72 103.5t109.5 96.5h153q-54 -52 -87 -94.5t-48.5 -80.5t-17.5 -75q0 -26 14.5 -39.5t36.5 -13.5q17 0 39 4t45 10l-35 -166q-32 -13 -65.5 -16.5t-67.5 -3.5z" />
    <glyph glyph-name="Wcircumflex" unicode="&#x174;" horiz-adv-x="1434" 
d="M139 0l45 1462h248l-29 -760q-4 -84 -9 -150t-11 -116h4q23 66 48 132.5t52 133.5l301 760h218l-27 -747q-4 -86 -7.5 -148.5t-8.5 -128.5h4q14 45 29 88.5t32.5 89t36.5 95.5l287 751h258l-568 -1462h-294l22 713q0 30 1.5 63.5t4.5 70t6 73.5h-4q-15 -48 -31 -95
t-34 -94l-283 -731h-291zM616 1579l4 23q46 47 88.5 97.5t82 103t73.5 104.5h221q10 -39 29 -95t42 -112t42 -96l-6 -25h-148q-16 22 -33 47t-34.5 54.5t-36.5 62.5q-48 -52 -90.5 -93.5t-79.5 -70.5h-154z" />
    <glyph glyph-name="wcircumflex" unicode="&#x175;" horiz-adv-x="1255" 
d="M106 0l25 1116h240l-19 -485q-4 -63 -9.5 -122.5t-10.5 -115.5h6q9 33 21 70t25.5 75t25.5 72l194 506h279l-23 -498q-3 -59 -8 -121t-8 -118h4q15 43 29 87.5t29.5 89t31.5 87.5l178 473h246l-449 -1116h-284l30 592q3 32 5.5 63.5t5 64t4.5 64.5h-4q-9 -28 -18.5 -54.5
t-18.5 -52.5t-19 -54l-235 -623h-273zM475 1241l4 23q46 47 88.5 97.5t82 103t73.5 104.5h221q10 -39 29 -95t42 -112t42 -96l-6 -25h-148q-16 22 -33 47t-34.5 54.5t-36.5 62.5q-48 -52 -90.5 -93.5t-79.5 -70.5h-154z" />
    <glyph glyph-name="Ycircumflex" unicode="&#x176;" horiz-adv-x="870" 
d="M182 0l117 557l-117 905h267l45 -569l286 569h275l-496 -897l-121 -565h-256zM331 1579l4 23q46 47 88.5 97.5t82 103t73.5 104.5h221q10 -39 29 -95t42 -112t42 -96l-6 -25h-148q-16 22 -33 47t-34.5 54.5t-36.5 62.5q-48 -52 -90.5 -93.5t-79.5 -70.5h-154z" />
    <glyph glyph-name="ycircumflex" unicode="&#x177;" horiz-adv-x="823" 
d="M-23 -492q-41 0 -74 5t-59 14l41 221q23 -9 45 -13.5t41 -4.5q51 0 81 34t59 97l69 153l-49 1102h248l2 -526q0 -35 -0.5 -71t-2 -72t-3.5 -72h6q11 38 23.5 77t25 73t21.5 57l225 534h258l-584 -1284q-44 -95 -93 -168t-115.5 -114.5t-164.5 -41.5zM245 1241l4 23
q46 47 88.5 97.5t82 103t73.5 104.5h221q10 -39 29 -95t42 -112t42 -96l-6 -25h-148q-16 22 -33 47t-34.5 54.5t-36.5 62.5q-48 -52 -90.5 -93.5t-79.5 -70.5h-154z" />
    <glyph glyph-name="Ydieresis" unicode="&#x178;" horiz-adv-x="870" 
d="M182 0l117 557l-117 905h267l45 -569l286 569h275l-496 -897l-121 -565h-256zM801 1612q-49 0 -75 24.5t-26 71.5q0 65 39 115.5t111 50.5q44 0 69 -24t25 -68q0 -76 -42 -123t-101 -47zM453 1612q-49 0 -75 24.5t-26 71.5q0 65 39 115.5t111 50.5q29 0 49.5 -10.5
t31.5 -31t11 -50.5q0 -76 -41.5 -123t-99.5 -47z" />
    <glyph glyph-name="Zacute" unicode="&#x179;" horiz-adv-x="797" 
d="M-82 0l39 184l639 1055h-406l48 223h696l-39 -186l-641 -1051h428l-47 -225h-717zM442 1579l4 21q42 52 80.5 104t73 103t64.5 100h278l-2 -17q-22 -27 -65 -70.5t-92.5 -91t-94 -88t-70.5 -61.5h-176z" />
    <glyph glyph-name="zacute" unicode="&#x17a;" horiz-adv-x="694" 
d="M-80 0l33 152l483 755h-303l45 209h582l-35 -166l-471 -741h328l-45 -209h-617zM352 1241l4 21q42 52 80.5 104t73 103t64.5 100h278l-2 -17q-22 -27 -65 -70.5t-92.5 -91t-94 -88t-70.5 -61.5h-176z" />
    <glyph glyph-name="Zdotaccent" unicode="&#x17b;" horiz-adv-x="797" 
d="M-82 0l39 184l639 1055h-406l48 223h696l-39 -186l-641 -1051h428l-47 -225h-717zM610 1600q-60 0 -90.5 31t-30.5 83q0 68 41 121t121 53q41 0 67.5 -13t39 -38t12.5 -63q0 -70 -41 -122t-119 -52z" />
    <glyph glyph-name="zdotaccent" unicode="&#x17c;" horiz-adv-x="694" 
d="M-80 0l33 152l483 755h-303l45 209h582l-35 -166l-471 -741h328l-45 -209h-617zM496 1262q-60 0 -90.5 31t-30.5 83q0 68 41 121t121 53q41 0 67.5 -13t39 -38t12.5 -63q0 -70 -41 -122t-119 -52z" />
    <glyph glyph-name="Zcaron" unicode="&#x17d;" horiz-adv-x="797" 
d="M-82 0l39 184l639 1055h-406l48 223h696l-39 -186l-641 -1051h428l-47 -225h-717zM483 1579q-10 40 -29 95.5t-41 111t-42 96.5l6 25h147q15 -18 31.5 -42.5t35 -55t36.5 -66.5q49 53 92 94.5t78 69.5h155l-4 -23q-32 -33 -80.5 -90.5t-93.5 -116.5t-69 -98h-222z" />
    <glyph glyph-name="zcaron" unicode="&#x17e;" horiz-adv-x="694" 
d="M-80 0l33 152l483 755h-303l45 209h582l-35 -166l-471 -741h328l-45 -209h-617zM358 1241q-10 40 -29 95.5t-41 111t-42 96.5l6 25h147q15 -18 31.5 -42.5t35 -55t36.5 -66.5q49 53 92 94.5t78 69.5h155l-4 -23q-32 -33 -80.5 -90.5t-93.5 -116.5t-69 -98h-222z" />
    <glyph glyph-name="longs" unicode="&#x17f;" horiz-adv-x="516" 
d="M-113 -492q-34 0 -65.5 3.5t-63.5 15.5v217q17 -9 46 -13.5t49 -4.5q66 0 90 47.5t43 136.5l276 1296q20 100 56 181.5t100.5 130.5t167.5 49q50 0 100.5 -10.5t99.5 -34.5l-86 -191q-19 13 -42 19t-42 6q-35 0 -57.5 -25.5t-36.5 -69.5t-24 -102l-271 -1270
q-25 -116 -63.5 -202t-104 -132.5t-172.5 -46.5z" />
    <glyph glyph-name="florin" unicode="&#x192;" horiz-adv-x="889" 
d="M51 -492q-49 0 -84 8.5t-61 18.5v211q28 -12 64 -19.5t53 -7.5q46 0 67.5 39t40.5 129l195 910h-125l26 129l140 71l30 129q32 134 74 212t103 111.5t151 33.5q51 0 99.5 -11.5t103.5 -37.5l-90 -189q-31 16 -53 21.5t-42 5.5q-46 0 -66.5 -42t-37.5 -114l-25 -112h168
l-43 -207h-168l-192 -895q-28 -136 -69 -223.5t-103 -129t-156 -41.5z" />
    <glyph glyph-name="Ohorn" unicode="&#x1a0;" horiz-adv-x="1128" 
d="M446 -20q-126 0 -209 49.5t-124 152.5t-41 262q0 117 19 239t56 238.5t91.5 218.5t126 179.5t159.5 121.5t191 44q116 0 195 -46.5t120 -138.5q53 41 83 108t42 148h225l9 -20q-28 -149 -100 -258t-208 -168q2 -19 2 -39.5v-42.5q0 -119 -18.5 -242.5t-55 -241
t-90.5 -219.5t-125 -179.5t-158 -121.5t-190 -44zM467 209q57 0 105.5 41.5t87.5 112t69 158.5t50 180.5t30 179t10 153.5q0 114 -31.5 168.5t-93.5 54.5q-56 0 -103.5 -39.5t-87 -106.5t-70 -151.5t-51.5 -176t-31.5 -180t-10.5 -161.5q0 -88 14 -139t42.5 -72.5
t70.5 -21.5z" />
    <glyph glyph-name="ohorn" unicode="&#x1a1;" horiz-adv-x="995" 
d="M350 -20q-97 0 -166.5 43t-107 124t-37.5 195q0 109 21.5 222t63.5 215.5t104 183t144 127.5t183 47q89 0 154.5 -39t103.5 -113q44 28 74.5 71.5t49 100.5t26.5 123h225l6 -20q-22 -115 -64 -203t-108 -146t-162 -84q2 -15 2 -29v-26q0 -111 -21.5 -224t-64 -215
t-104.5 -181.5t-143 -125.5t-179 -46zM379 188q43 0 79.5 40.5t65 106.5t49 144.5t31 156.5t10.5 140q0 51 -9.5 84t-30 49.5t-52.5 16.5q-43 0 -80 -42.5t-65.5 -111t-48.5 -148t-30.5 -155.5t-10.5 -131q0 -73 23 -111.5t69 -38.5z" />
    <glyph glyph-name="Uhorn" unicode="&#x1af;" horiz-adv-x="1202" 
d="M408 -20q-105 0 -181 39t-116.5 113.5t-40.5 178.5q0 37 5.5 82.5t14.5 91.5l209 977h256l-209 -983q-9 -35 -12.5 -68t-3.5 -59q0 -73 28.5 -108t83.5 -35t93.5 29t66 90.5t47.5 160.5l209 973h256l-45 -209q46 10 79.5 52.5t55.5 108t33 142.5h227l6 -20
q-19 -100 -55 -181t-90 -140t-127 -92.5t-166 -39.5l-133 -628q-31 -151 -92 -257.5t-159 -162t-240 -55.5z" />
    <glyph glyph-name="uhorn" unicode="&#x1b0;" horiz-adv-x="1092" 
d="M262 -20q-70 0 -119 28.5t-74.5 82t-25.5 128.5q0 38 6.5 84.5t16.5 93.5l151 719h246l-141 -663q-10 -46 -15.5 -88.5t-5.5 -73.5q0 -43 16.5 -65.5t51.5 -22.5q47 0 83.5 40.5t64.5 114t48 172.5l125 586h246l-29 -137q51 14 83.5 57.5t52 107t30.5 136.5h225l7 -20
q-18 -91 -51 -170t-84.5 -140.5t-125.5 -98.5t-174 -44l-170 -807h-196l8 135h-6q-32 -48 -70 -82.5t-81.5 -53.5t-92.5 -19z" />
    <glyph glyph-name="uni01EA" unicode="&#x1ea;" horiz-adv-x="1098" 
d="M446 -20q-126 0 -209 49.5t-124 152.5t-41 262q0 113 18.5 233t54.5 237t90 220t125.5 182t160.5 124t194 45q192 0 280 -115t88 -342q0 -97 -15.5 -211.5t-48 -232t-83.5 -225.5t-121.5 -193.5t-162.5 -135.5t-206 -50zM467 209q58 0 106.5 41t87.5 110.5t68.5 156.5
t49.5 180t30 180.5t10 156.5q0 114 -31.5 168.5t-93.5 54.5q-60 0 -110 -42t-89 -113t-68.5 -158.5t-48.5 -179.5t-28.5 -175.5t-9.5 -146.5q0 -88 14 -139t42.5 -72.5t70.5 -21.5zM371 -475q-88 0 -131 44.5t-43 115.5q0 61 25.5 115t72 103.5t109.5 96.5h153
q-54 -52 -87 -94.5t-48.5 -80.5t-17.5 -75q0 -26 14.5 -39.5t36.5 -13.5q17 0 39 4t45 10l-35 -166q-32 -13 -65.5 -16.5t-67.5 -3.5z" />
    <glyph glyph-name="uni01EB" unicode="&#x1eb;" horiz-adv-x="909" 
d="M354 -20q-98 0 -167.5 43t-106.5 124t-37 195q0 87 17.5 192.5t54.5 211.5t97.5 194.5t146.5 142.5t200 54q97 0 165.5 -44t105 -125.5t36.5 -195.5q0 -98 -18.5 -207t-57.5 -213t-99.5 -188t-144.5 -134t-192 -50zM383 188q43 0 80 40t65.5 106t48.5 144.5t30.5 156
t10.5 139.5q0 49 -9.5 83.5t-30 52.5t-52.5 18q-46 0 -83.5 -42t-66 -110t-47.5 -147.5t-28.5 -155.5t-9.5 -133q0 -72 23 -112t69 -40zM275 -475q-88 0 -131 44.5t-43 115.5q0 61 25.5 115t72 103.5t109.5 96.5h153q-54 -52 -87 -94.5t-48.5 -80.5t-17.5 -75
q0 -26 14.5 -39.5t36.5 -13.5q17 0 39 4t45 10l-35 -166q-32 -13 -65.5 -16.5t-67.5 -3.5z" />
    <glyph glyph-name="uni01EC" unicode="&#x1ec;" horiz-adv-x="1098" 
d="M446 -20q-126 0 -209 49.5t-124 152.5t-41 262q0 113 18.5 233t54.5 237t90 220t125.5 182t160.5 124t194 45q192 0 280 -115t88 -342q0 -97 -15.5 -211.5t-48 -232t-83.5 -225.5t-121.5 -193.5t-162.5 -135.5t-206 -50zM467 209q58 0 106.5 41t87.5 110.5t68.5 156.5
t49.5 180t30 180.5t10 156.5q0 114 -31.5 168.5t-93.5 54.5q-60 0 -110 -42t-89 -113t-68.5 -158.5t-48.5 -179.5t-28.5 -175.5t-9.5 -146.5q0 -88 14 -139t42.5 -72.5t70.5 -21.5zM489 1610l37 180h535l-37 -180h-535zM371 -475q-88 0 -131 44.5t-43 115.5q0 61 25.5 115
t72 103.5t109.5 96.5h153q-54 -52 -87 -94.5t-48.5 -80.5t-17.5 -75q0 -26 14.5 -39.5t36.5 -13.5q17 0 39 4t45 10l-35 -166q-32 -13 -65.5 -16.5t-67.5 -3.5z" />
    <glyph glyph-name="uni01ED" unicode="&#x1ed;" horiz-adv-x="909" 
d="M354 -20q-98 0 -167.5 43t-106.5 124t-37 195q0 87 17.5 192.5t54.5 211.5t97.5 194.5t146.5 142.5t200 54q97 0 165.5 -44t105 -125.5t36.5 -195.5q0 -98 -18.5 -207t-57.5 -213t-99.5 -188t-144.5 -134t-192 -50zM383 188q43 0 80 40t65.5 106t48.5 144.5t30.5 156
t10.5 139.5q0 49 -9.5 83.5t-30 52.5t-52.5 18q-46 0 -83.5 -42t-66 -110t-47.5 -147.5t-28.5 -155.5t-9.5 -133q0 -72 23 -112t69 -40zM316 1245l37 180h535l-37 -180h-535zM275 -475q-88 0 -131 44.5t-43 115.5q0 61 25.5 115t72 103.5t109.5 96.5h153q-54 -52 -87 -94.5
t-48.5 -80.5t-17.5 -75q0 -26 14.5 -39.5t36.5 -13.5q17 0 39 4t45 10l-35 -166q-32 -13 -65.5 -16.5t-67.5 -3.5z" />
    <glyph glyph-name="uni01F0" unicode="&#x1f0;" horiz-adv-x="457" 
d="M-131 -492q-34 0 -65.5 3.5t-63.5 15.5v217q18 -9 46 -13.5t48 -4.5q41 0 66 19t41.5 62t31.5 115l252 1194h244l-256 -1212q-26 -123 -64.5 -211.5t-104 -136.5t-175.5 -48zM250 1241q-10 40 -29 95.5t-41 111t-42 96.5l6 25h147q15 -18 31.5 -42.5t35 -55t36.5 -66.5
q49 53 92 94.5t78 69.5h155l-4 -23q-32 -33 -80.5 -90.5t-93.5 -116.5t-69 -98h-222z" />
    <glyph glyph-name="Aringacute" unicode="&#x1fa;" horiz-adv-x="963" 
d="M-125 0l578 1343q-19 20 -29 49t-10 64q0 101 63 163t170 62q103 0 167.5 -63.5t64.5 -157.5q0 -50 -18 -89t-50 -62l29 -1309h-271l-2 362h-264l-147 -362h-281zM389 590h193l8 409q0 44 1 87.5t5 91.5h-4q-9 -45 -22.5 -87.5t-28.5 -86.5zM647 1354q45 0 73 27t28 73
q0 44 -27 72t-74 28t-73.5 -28t-26.5 -72q0 -46 24 -73t76 -27zM578 1737l2 12q31 33 62.5 67.5t62 71t55.5 74.5h293l-2 -10q-32 -30 -83 -71.5t-104 -80.5t-90 -63h-196z" />
    <glyph glyph-name="aringacute" unicode="&#x1fb;" horiz-adv-x="934" 
d="M266 -20q-72 0 -123 38t-77.5 109.5t-26.5 171.5q0 89 17 200t51 223t87.5 206t125.5 151.5t165 57.5q43 0 80 -16t66 -49.5t47 -88.5h6l49 133h213l-237 -1116h-199v143h-6q-36 -49 -72.5 -85.5t-77 -57t-88.5 -20.5zM365 190q56 0 96.5 51.5t68 127.5t45.5 149
q23 97 32 157.5t9 110.5q0 66 -23 101t-65 35q-43 0 -79.5 -41.5t-65 -109.5t-49 -147.5t-31 -157t-10.5 -136.5q0 -69 16.5 -104.5t55.5 -35.5zM627 1200q-108 0 -170 61.5t-62 165.5t63 166t169 62q100 0 164 -61t67 -162q0 -103 -62 -167.5t-169 -64.5zM629 1327
q44 0 73 27t29 73q0 45 -27.5 74t-74.5 29q-48 0 -74.5 -29t-26.5 -74q0 -49 24.5 -74.5t76.5 -25.5zM575 1720l3 15q30 34 60.5 70t61 75t58.5 82h297l-2 -12q-31 -31 -83.5 -75t-107 -86.5t-92.5 -68.5h-195z" />
    <glyph glyph-name="AEacute" unicode="&#x1fc;" horiz-adv-x="1278" 
d="M-133 0l708 1462h801l-47 -223h-344l-78 -369h320l-47 -223h-320l-90 -422h344l-47 -225h-598l80 373h-234l-172 -373h-276zM420 600h178l135 639h-22zM762 1579l4 21q42 52 80.5 104t73 103t64.5 100h278l-2 -17q-22 -27 -65 -70.5t-92.5 -91t-94 -88t-70.5 -61.5h-176z
" />
    <glyph glyph-name="aeacute" unicode="&#x1fd;" horiz-adv-x="1360" 
d="M250 -20q-63 0 -110.5 38.5t-74 111t-26.5 173.5q0 111 19.5 227.5t57 225t91.5 194.5t123.5 136.5t152.5 50.5q40 0 77 -14t67 -43.5t47 -75.5h4l29 112h174l-17 -90q42 44 95.5 76.5t130.5 32.5q116 0 183.5 -71t67.5 -190q0 -98 -37 -172.5t-106.5 -124.5t-167 -75
t-217.5 -25h-18q-7 -28 -9 -56.5t-2 -55.5q0 -92 34.5 -138.5t113.5 -46.5q63 0 127 21t143 65l-41 -211q-72 -41 -136 -58t-142 -17q-80 0 -129 29.5t-68 78.5l-20 -88h-172l20 137h-4q-35 -48 -75 -83t-86 -54.5t-99 -19.5zM367 188q41 0 73.5 30.5t57 79.5t42 106.5
t29.5 111.5q22 95 30.5 158.5t8.5 113.5q0 67 -20.5 100.5t-59.5 33.5t-74 -37.5t-64.5 -100t-51 -139.5t-33.5 -158t-12 -153t18.5 -109t55.5 -37zM831 655h7q105 0 165.5 25.5t86.5 70.5t26 101q0 40 -22 64t-62 24q-49 0 -87.5 -41.5t-66.5 -107t-47 -136.5zM651 1241
l4 21q42 52 80.5 104t73 103t64.5 100h278l-2 -17q-22 -27 -65 -70.5t-92.5 -91t-94 -88t-70.5 -61.5h-176z" />
    <glyph glyph-name="Oslashacute" unicode="&#x1fe;" horiz-adv-x="1100" 
d="M123 -109l-119 70l123 193q-28 53 -41.5 126t-13.5 164q0 113 18 233t54 237t90 220t125.5 182t160 124t193.5 45q72 0 129 -18.5t98 -55.5l90 141l119 -69l-117 -183q26 -52 38.5 -120.5t12.5 -151.5q0 -97 -15.5 -211.5t-48 -232t-83.5 -225.5t-122 -193.5t-163 -135.5
t-207 -50q-69 0 -124 16.5t-97 50.5zM465 209q51 0 95 32t80 87t64.5 126t49.5 150t34 158t19 149q3 17 4 33.5t2 32.5l-448 -703q15 -34 40.5 -49.5t59.5 -15.5zM344 471l455 709q-16 40 -42.5 58.5t-64.5 18.5q-53 0 -97.5 -33.5t-80.5 -90.5t-64.5 -129.5t-48.5 -150.5
t-33.5 -153.5t-19.5 -138.5q-1 -25 -2.5 -47.5t-1.5 -42.5zM604 1579l4 21q42 52 80.5 104t73 103t64.5 100h278l-2 -17q-22 -27 -65 -70.5t-92.5 -91t-94 -88t-70.5 -61.5h-176z" />
    <glyph glyph-name="oslashacute" unicode="&#x1ff;" horiz-adv-x="909" 
d="M96 -127l-112 70l112 176q-25 43 -38 99.5t-13 123.5q0 84 17 189.5t54 211.5t97 195.5t146.5 144t201.5 54.5q48 0 89 -13.5t73 -36.5l84 130l115 -72l-103 -158q23 -43 36 -96.5t13 -118.5q0 -90 -18 -197t-56 -211.5t-98.5 -191.5t-144.5 -139.5t-195 -52.5
q-47 0 -87 10.5t-74 32.5zM381 180q40 0 74.5 30t62.5 81t49.5 115t35.5 131.5t20 130.5q2 14 2 27.5v25.5l-318 -500q14 -19 32.5 -30t41.5 -11zM285 381l323 508q-13 23 -32.5 35t-47.5 12q-39 0 -72.5 -31.5t-61.5 -84t-49.5 -117.5t-35.5 -133t-20 -130q-1 -15 -2.5 -30
t-1.5 -29zM448 1241l4 21q42 52 80.5 104t73 103t64.5 100h278l-2 -17q-22 -27 -65 -70.5t-92.5 -91t-94 -88t-70.5 -61.5h-176z" />
    <glyph glyph-name="uni0218" unicode="&#x218;" horiz-adv-x="834" 
d="M274 -20q-100 0 -178.5 19t-138.5 62l51 265q53 -42 125.5 -73.5t142.5 -31.5q39 0 74.5 11.5t62.5 35.5t42.5 61.5t15.5 90.5q0 42 -10.5 77t-39.5 73t-83 89q-59 55 -99 109t-59.5 118t-19.5 148q0 97 29.5 179t87.5 142.5t143.5 94t197.5 33.5q79 0 163 -24t147 -70
l-117 -232q-55 41 -107.5 64.5t-99.5 23.5q-36 0 -68 -11.5t-56 -35t-38 -58t-14 -79.5q0 -42 14 -78t47 -74.5t89 -89.5q58 -51 94.5 -105.5t53.5 -119t17 -145.5q0 -95 -29.5 -180t-88 -150t-146.5 -102t-205 -37zM10 -453v27q19 38 42.5 91.5t45 109t33.5 100.5h234v-20
q-19 -46 -52 -103t-70.5 -111.5t-70.5 -93.5h-162z" />
    <glyph glyph-name="uni0219" unicode="&#x219;" horiz-adv-x="724" 
d="M252 -20q-92 0 -154.5 15.5t-109.5 43.5v235q49 -37 114.5 -58t118.5 -21q41 0 72.5 14.5t49 42.5t17.5 70q0 28 -8 54t-31.5 57t-68.5 73q-53 48 -83.5 93.5t-43 92.5t-12.5 99q0 96 39.5 174.5t116.5 125t190 46.5q87 0 164 -24t131 -62l-99 -189q-44 37 -95.5 54.5
t-88.5 17.5q-49 0 -77.5 -28.5t-28.5 -78.5q0 -27 7 -50.5t29 -51t66 -66.5q51 -47 85.5 -89.5t51.5 -95t17 -128.5q0 -103 -43.5 -186t-126 -131.5t-199.5 -48.5zM-17 -453v27q19 38 42.5 91.5t45 109t33.5 100.5h234v-20q-19 -46 -52 -103t-70.5 -111.5t-70.5 -93.5h-162z
" />
    <glyph glyph-name="uni021A" unicode="&#x21a;" horiz-adv-x="795" 
d="M143 0l263 1235h-244l49 227h743l-49 -227h-243l-263 -1235h-256zM10 -453v27q19 38 42.5 91.5t45 109t33.5 100.5h234v-20q-19 -46 -52 -103t-70.5 -111.5t-70.5 -93.5h-162z" />
    <glyph glyph-name="uni021B" unicode="&#x21b;" horiz-adv-x="598" 
d="M266 -20q-109 0 -154.5 62.5t-45.5 162.5q0 34 5 74t15 92l115 538h-101l27 131l137 70l103 244h174l-52 -238h175l-43 -207h-175l-120 -569q-5 -23 -9 -43.5t-4 -36.5q0 -34 14 -48.5t46 -14.5q15 0 46 5.5t62 18.5v-198q-46 -23 -107 -33t-108 -10zM-5 -453v27
q19 38 42.5 91.5t45 109t33.5 100.5h234v-20q-19 -46 -52 -103t-70.5 -111.5t-70.5 -93.5h-162z" />
    <glyph glyph-name="uni0237" unicode="&#x237;" horiz-adv-x="457" 
d="M-131 -492q-34 0 -65.5 3.5t-63.5 15.5v217q18 -9 46 -13.5t48 -4.5q41 0 66 19t41.5 62t31.5 115l252 1194h244l-256 -1212q-26 -123 -64.5 -211.5t-104 -136.5t-175.5 -48z" />
    <glyph glyph-name="uni0259" unicode="&#x259;" horiz-adv-x="864" 
d="M289 -20q-124 0 -200.5 68.5t-76.5 191.5q0 98 37.5 172t107.5 124t168.5 75.5t219.5 25.5h16q6 29 8 58t2 55q0 100 -36.5 142t-110.5 42q-63 0 -125 -20t-143 -66l41 215q69 40 137 56t149 16q104 0 177.5 -42t113 -122.5t39.5 -194.5q0 -149 -34.5 -291t-101 -256
t-164 -181.5t-224.5 -67.5zM326 176q40 0 77.5 33.5t69 97t53.5 152.5h-12q-102 0 -161.5 -25.5t-85 -70t-25.5 -101.5q0 -40 22.5 -63t61.5 -23z" />
    <glyph glyph-name="uni02BC" unicode="&#x2bc;" horiz-adv-x="444" 
d="M123 920q37 88 70.5 177.5t63.5 180.5t56 184h244l4 -20q-33 -96 -71.5 -187.5t-80 -175t-85.5 -159.5h-201z" />
    <glyph glyph-name="circumflex" unicode="&#x2c6;" horiz-adv-x="741" 
d="M227 1241l4 23q46 47 88.5 97.5t82 103t73.5 104.5h221q10 -39 29 -95t42 -112t42 -96l-6 -25h-148q-16 22 -33 47t-34.5 54.5t-36.5 62.5q-48 -52 -90.5 -93.5t-79.5 -70.5h-154z" />
    <glyph glyph-name="caron" unicode="&#x2c7;" horiz-adv-x="739" 
d="M403 1241q-10 40 -29 95.5t-41 111t-42 96.5l6 25h147q15 -18 31.5 -42.5t35 -55t36.5 -66.5q49 53 92 94.5t78 69.5h155l-4 -23q-32 -33 -80.5 -90.5t-93.5 -116.5t-69 -98h-222z" />
    <glyph glyph-name="macron" unicode="&#x2c9;" horiz-adv-x="700" 
d="M229 1245l37 180h535l-37 -180h-535z" />
    <glyph glyph-name="breve" unicode="&#x2d8;" horiz-adv-x="707" 
d="M524 1241q-86 0 -138.5 28.5t-76.5 79t-24 115.5q0 23 3 49t7 52h151q0 -46 8 -78.5t28.5 -50t56.5 -17.5q53 0 88 33t55 113h156q-28 -157 -109.5 -240.5t-204.5 -83.5z" />
    <glyph glyph-name="dotaccent" unicode="&#x2d9;" horiz-adv-x="440" 
d="M381 1262q-60 0 -90.5 31t-30.5 83q0 68 41 121t121 53q41 0 67.5 -13t39 -38t12.5 -63q0 -70 -41 -122t-119 -52z" />
    <glyph glyph-name="ring" unicode="&#x2da;" horiz-adv-x="639" 
d="M516 1243q-110 0 -171.5 62.5t-61.5 167.5q0 101 63 163t170 62q100 0 164.5 -61.5t64.5 -159.5q0 -103 -61.5 -168.5t-167.5 -65.5zM516 1370q44 0 72 27t28 73q0 45 -26.5 74t-72.5 29q-50 0 -76.5 -29t-26.5 -74q0 -46 25 -73t77 -27z" />
    <glyph glyph-name="ogonek" unicode="&#x2db;" horiz-adv-x="506" 
d="M76 -475q-88 0 -131 44.5t-43 115.5q0 61 25.5 115t72 103.5t109.5 96.5h153q-54 -52 -87 -94.5t-48.5 -80.5t-17.5 -75q0 -26 14.5 -39.5t36.5 -13.5q17 0 39 4t45 10l-35 -166q-32 -13 -65.5 -16.5t-67.5 -3.5z" />
    <glyph glyph-name="tilde" unicode="&#x2dc;" horiz-adv-x="782" 
d="M227 1241q18 86 45 154t71 107.5t112 39.5q46 0 79.5 -16.5t58.5 -37.5t47 -37.5t46 -16.5q29 0 48 23.5t32 86.5h143q-19 -112 -54.5 -178t-79.5 -94.5t-91 -28.5q-45 0 -78 16.5t-58.5 38t-48.5 38t-48 16.5q-26 0 -47 -26t-33 -85h-144z" />
    <glyph glyph-name="hungarumlaut" unicode="&#x2dd;" horiz-adv-x="879" 
d="M563 1241l4 23q51 68 91 125t69.5 102.5t46.5 77.5h236l-2 -17q-21 -30 -58 -70.5t-81.5 -84.5t-89.5 -85t-83 -71h-133zM227 1241l4 23q51 69 91 126.5t69.5 102.5t46.5 76h234l-2 -17q-18 -31 -54 -71t-81.5 -83t-94 -84t-92.5 -73h-121z" />
    <glyph glyph-name="uni02F3" unicode="&#x2f3;" horiz-adv-x="735" 
d="M199 -563q-109 0 -170.5 62t-61.5 165t63 165t169 62q95 0 163 -61t68 -162t-62 -166t-169 -65zM197 -436q47 0 74.5 28t27.5 72q0 45 -27.5 74t-74.5 29q-48 0 -74.5 -29t-26.5 -74q0 -46 24.5 -73t76.5 -27z" />
    <glyph glyph-name="gravecomb" unicode="&#x300;" 
d="M-404 1241q-25 35 -62 92.5t-70.5 116.5t-51.5 100v19h276q11 -44 23.5 -92.5t29 -101t36.5 -109.5l-3 -25h-178z" />
    <glyph glyph-name="acutecomb" unicode="&#x301;" 
d="M-555 1241l4 21q42 52 80.5 104t73 103t64.5 100h278l-2 -17q-22 -27 -65 -70.5t-92.5 -91t-94 -88t-70.5 -61.5h-176z" />
    <glyph glyph-name="uni0302" unicode="&#x302;" 
d="M-154 1241l4 23q46 47 88.5 97.5t82 103t73.5 104.5h221q10 -39 29 -95t42 -112t42 -96l-6 -25h-148q-16 22 -33 47t-34.5 54.5t-36.5 62.5q-48 -52 -90.5 -93.5t-79.5 -70.5h-154z" />
    <glyph glyph-name="tildecomb" unicode="&#x303;" 
d="M-744 1241q18 86 45 154t71 107.5t112 39.5q46 0 79.5 -16.5t58.5 -37.5t47 -37.5t46 -16.5q29 0 48 23.5t32 86.5h143q-19 -112 -54.5 -178t-79.5 -94.5t-91 -28.5q-45 0 -78 16.5t-58.5 38t-48.5 38t-48 16.5q-26 0 -47 -26t-33 -85h-144z" />
    <glyph glyph-name="uni0304" unicode="&#x304;" 
d="M-115 1245l37 180h535l-37 -180h-535z" />
    <glyph glyph-name="uni0306" unicode="&#x306;" 
d="M162 1241q-86 0 -138.5 28.5t-76.5 79t-24 115.5q0 23 3 49t7 52h151q0 -46 8 -78.5t28.5 -50t56.5 -17.5q53 0 88 33t55 113h156q-28 -157 -109.5 -240.5t-204.5 -83.5z" />
    <glyph glyph-name="uni0307" unicode="&#x307;" 
d="M160 1262q-60 0 -90.5 31t-30.5 83q0 68 41 121t121 53q41 0 67.5 -13t39 -38t12.5 -63q0 -70 -41 -122t-119 -52z" />
    <glyph glyph-name="uni0308" unicode="&#x308;" 
d="M338 1274q-49 0 -75 24.5t-26 71.5q0 65 39 115.5t111 50.5q44 0 69 -24t25 -68q0 -76 -42 -123t-101 -47zM-10 1274q-49 0 -75 24.5t-26 71.5q0 65 39 115.5t111 50.5q29 0 49.5 -10.5t31.5 -31t11 -50.5q0 -76 -41.5 -123t-99.5 -47z" />
    <glyph glyph-name="hookabovecomb" unicode="&#x309;" 
d="M-420 1219l22 145q40 5 67.5 19.5t41.5 37t14 52.5q0 35 -19.5 51t-47.5 16q-17 0 -40 -5t-40 -13v145q34 16 75 24.5t83 8.5q92 0 143 -50.5t51 -138.5q0 -78 -50 -138.5t-151 -80.5l-26 -73h-123z" />
    <glyph glyph-name="uni030A" unicode="&#x30a;" 
d="M190 1243q-110 0 -171.5 62.5t-61.5 167.5q0 101 63 163t170 62q100 0 164.5 -61.5t64.5 -159.5q0 -103 -61.5 -168.5t-167.5 -65.5zM190 1370q44 0 72 27t28 73q0 45 -26.5 74t-72.5 29q-50 0 -76.5 -29t-26.5 -74q0 -46 25 -73t77 -27z" />
    <glyph glyph-name="uni030B" unicode="&#x30b;" 
d="M141 1241l4 23q51 68 91 125t69.5 102.5t46.5 77.5h236l-2 -17q-21 -30 -58 -70.5t-81.5 -84.5t-89.5 -85t-83 -71h-133zM-195 1241l4 23q51 69 91 126.5t69.5 102.5t46.5 76h234l-2 -17q-18 -31 -54 -71t-81.5 -83t-94 -84t-92.5 -73h-121z" />
    <glyph glyph-name="uni030C" unicode="&#x30c;" 
d="M34 1241q-10 40 -29 95.5t-41 111t-42 96.5l6 25h147q15 -18 31.5 -42.5t35 -55t36.5 -66.5q49 53 92 94.5t78 69.5h155l-4 -23q-32 -33 -80.5 -90.5t-93.5 -116.5t-69 -98h-222z" />
    <glyph glyph-name="uni030F" unicode="&#x30f;" 
d="M-268 1241q-40 46 -78 102.5t-66 111t-39 93.5l5 21h229q8 -38 19 -84t26 -100.5t33 -118.5l-6 -25h-123zM-592 1241q-35 42 -72.5 100t-66 114.5t-37.5 92.5l4 21h229q9 -45 21.5 -98.5t27.5 -107t31 -97.5l-6 -25h-131z" />
    <glyph glyph-name="uni0312" unicode="&#x312;" 
d="M-70 920l-6 20q36 99 74.5 190.5t80 175t85.5 156.5h200q-21 -51 -48 -122t-54.5 -148.5t-50.5 -149t-37 -122.5h-244z" />
    <glyph glyph-name="dotbelowcomb" unicode="&#x323;" 
d="M-659 -422q-60 0 -90.5 31.5t-30.5 83.5q0 68 41 121t121 53q41 0 67 -13t38.5 -38.5t12.5 -63.5q0 -69 -40.5 -121.5t-118.5 -52.5z" />
    <glyph glyph-name="uni0326" unicode="&#x326;" 
d="M61 -453v27q19 38 42.5 91.5t45 109t33.5 100.5h234v-20q-19 -46 -52 -103t-70.5 -111.5t-70.5 -93.5h-162z" />
    <glyph glyph-name="uni0327" unicode="&#x327;" 
d="M-249 -492q-39 0 -76 4.5t-74 14.5v143q22 -6 51.5 -10t63.5 -4q35 0 59.5 11t37.5 32t13 49q0 37 -30.5 59.5t-92.5 26.5l103 166h129l-55 -86q63 -12 103 -53t40 -109q0 -86 -36.5 -140t-98 -79t-137.5 -25z" />
    <glyph glyph-name="uni0328" unicode="&#x328;" 
d="M-176 -477q-88 0 -131 44.5t-43 115.5q0 61 25.5 115t72 103.5t109.5 96.5h153q-54 -52 -87 -94.5t-48.5 -80.5t-17.5 -75q0 -26 14.5 -39.5t36.5 -13.5q17 0 39 4t45 10l-35 -166q-32 -13 -65.5 -16.5t-67.5 -3.5z" />
    <glyph glyph-name="tonos" unicode="&#x384;" horiz-adv-x="889" 
d="M446 1241l7 27q13 24 32 66.5t39.5 90t37.5 90t26 66.5h227l-4 -20q-17 -28 -44 -71t-58 -90.5t-59.5 -89.5t-49.5 -69h-154z" />
    <glyph glyph-name="dieresistonos" unicode="&#x385;" horiz-adv-x="909" 
d="M512 1409v18q15 34 36.5 90.5t41.5 112.5t28 86h207l-4 -16q-16 -35 -51 -92t-72.5 -112.5t-62.5 -86.5h-123zM336 1274q-46 0 -70 24.5t-24 71.5q0 65 36 115.5t103 50.5q41 0 64.5 -24t23.5 -68q0 -76 -39.5 -123t-93.5 -47zM815 1274q-44 0 -68 24.5t-24 71.5
q0 65 36 115.5t103 50.5q40 0 63 -24t23 -68q0 -76 -38.5 -123t-94.5 -47z" />
    <glyph glyph-name="Alphatonos" unicode="&#x386;" horiz-adv-x="997" 
d="M-93 0l623 1468h325l15 -1468h-271l6 373h-270l-147 -373h-281zM421 598h197l12 444q2 50 4 95.5t6 93.5h-6q-7 -45 -20.5 -89.5t-30.5 -94.5zM59 1122l7 27q13 24 32 66.5t39.5 90t37.5 90t26 66.5h227l-4 -20q-17 -28 -44 -71t-58 -90.5t-59.5 -89.5t-49.5 -69h-154z
" />
    <glyph glyph-name="anoteleia" unicode="&#x387;" horiz-adv-x="478" 
d="M301 807q-60 0 -92.5 28.5t-32.5 85.5q0 80 48 142.5t136 62.5q56 0 86.5 -30.5t30.5 -84.5q0 -91 -53.5 -147.5t-122.5 -56.5z" />
    <glyph glyph-name="Epsilontonos" unicode="&#x388;" horiz-adv-x="1042" 
d="M232 0l309 1462h600l-47 -223h-344l-78 -369h320l-47 -223h-320l-92 -422h346l-47 -225h-600zM100 1122l7 27q13 24 32 66.5t39.5 90t37.5 90t26 66.5h227l-4 -20q-17 -28 -44 -71t-58 -90.5t-59.5 -89.5t-49.5 -69h-154z" />
    <glyph glyph-name="Etatonos" unicode="&#x389;" horiz-adv-x="1311" 
d="M232 0l309 1462h256l-125 -585h324l125 585h256l-312 -1462h-256l138 649h-322l-137 -649h-256zM100 1122l7 27q13 24 32 66.5t39.5 90t37.5 90t26 66.5h227l-4 -20q-17 -28 -44 -71t-58 -90.5t-59.5 -89.5t-49.5 -69h-154z" />
    <glyph glyph-name="Iotatonos" unicode="&#x38a;" horiz-adv-x="727" 
d="M225 0l311 1462h254l-309 -1462h-256zM100 1122l7 27q13 24 32 66.5t39.5 90t37.5 90t26 66.5h227l-4 -20q-17 -28 -44 -71t-58 -90.5t-59.5 -89.5t-49.5 -69h-154z" />
    <glyph glyph-name="Omicrontonos" unicode="&#x38c;" horiz-adv-x="1233" 
d="M581 -20q-126 0 -209 49.5t-124 152.5t-41 262q0 113 18.5 233t54.5 237t90 220t125.5 182t160.5 124t194 45q192 0 280 -115t88 -342q0 -97 -15.5 -211.5t-48 -232t-83.5 -225.5t-121.5 -193.5t-162.5 -135.5t-206 -50zM602 209q58 0 106.5 41t87.5 110.5t68.5 156.5
t49.5 180t30 180.5t10 156.5q0 114 -31.5 168.5t-93.5 54.5q-60 0 -110 -42t-89 -113t-68.5 -158.5t-48.5 -179.5t-28.5 -175.5t-9.5 -146.5q0 -88 14 -139t42.5 -72.5t70.5 -21.5zM100 1122l7 27q13 24 32 66.5t39.5 90t37.5 90t26 66.5h227l-4 -20q-17 -28 -44 -71
t-58 -90.5t-59.5 -89.5t-49.5 -69h-154z" />
    <glyph glyph-name="Upsilontonos" unicode="&#x38e;" horiz-adv-x="1176" 
d="M487 0l117 557l-117 905h267l45 -569l286 569h275l-496 -897l-121 -565h-256zM79 1122l7 27q13 24 32 66.5t39.5 90t37.5 90t26 66.5h227l-4 -20q-17 -28 -44 -71t-58 -90.5t-59.5 -89.5t-49.5 -69h-154z" />
    <glyph glyph-name="Omegatonos" unicode="&#x38f;" horiz-adv-x="1262" 
d="M100 1122l7 27q13 24 32 66.5t39.5 90t37.5 90t26 66.5h227l-4 -20q-17 -28 -44 -71t-58 -90.5t-59.5 -89.5t-49.5 -69h-154zM76 0l47 225h258q-44 47 -71.5 109.5t-40.5 134.5t-13 147q0 123 27 247t79 235.5t126.5 198.5t169.5 137.5t209 50.5q127 0 214 -53
t132 -149.5t45 -225.5q0 -124 -25 -244.5t-73 -230t-118 -200.5t-161 -157h260l-49 -225h-459l51 242q74 60 130.5 152.5t95 202t58 221t19.5 208.5q0 76 -16.5 127.5t-49.5 77.5t-81 26q-69 0 -123.5 -51.5t-94.5 -134.5t-67 -181t-40 -193.5t-13 -168.5q0 -91 19 -162
t57 -124l-51 -242h-451z" />
    <glyph glyph-name="iotadieresistonos" unicode="&#x390;" horiz-adv-x="561" 
d="M246 -20q-98 0 -150.5 53.5t-52.5 150.5q0 32 5.5 75t14.5 83l164 774h246l-170 -801q-3 -16 -5.5 -32t-2.5 -33q0 -25 11 -39t34 -14q19 0 45 8t49 20v-194q-43 -25 -94 -38t-94 -13zM315 1409v18q15 34 36.5 90.5t41.5 112.5t28 86h207l-4 -16q-16 -35 -51 -92
t-72.5 -112.5t-62.5 -86.5h-123zM139 1274q-46 0 -70 24.5t-24 71.5q0 65 36 115.5t103 50.5q41 0 64.5 -24t23.5 -68q0 -76 -39.5 -123t-93.5 -47zM618 1274q-44 0 -68 24.5t-24 71.5q0 65 36 115.5t103 50.5q40 0 63 -24t23 -68q0 -76 -38.5 -123t-94.5 -47z" />
    <glyph glyph-name="Alpha" unicode="&#x391;" horiz-adv-x="963" 
d="M-127 0l623 1468h325l15 -1468h-271l6 373h-270l-147 -373h-281zM387 598h197l12 444q2 50 4 95.5t6 93.5h-6q-7 -45 -20.5 -89.5t-30.5 -94.5z" />
    <glyph glyph-name="Beta" unicode="&#x392;" horiz-adv-x="973" 
d="M-6 0l309 1462h336q94 0 174.5 -30.5t130 -96.5t49.5 -174q0 -88 -28.5 -167.5t-88.5 -138.5t-153 -87v-8q72 -26 113 -97.5t41 -168.5q0 -130 -55.5 -243t-164 -182t-268.5 -69h-395zM297 219h92q77 0 126.5 39.5t73 105t23.5 142.5q0 75 -34.5 112t-96.5 37h-92z
M434 864h84q65 0 110.5 36.5t70 95.5t24.5 124q0 63 -32.5 95t-98.5 32h-76z" />
    <glyph glyph-name="Gamma" unicode="&#x393;" horiz-adv-x="758" 
d="M-4 0l309 1462h610l-47 -225h-354l-262 -1237h-256z" />
    <glyph glyph-name="uni0394" unicode="&#x394;" horiz-adv-x="963" 
d="M-70 0v158l576 1310h323l25 -1310l-31 -158h-893zM227 227h363l10 772q1 25 1.5 49t1 49.5t1.5 55.5t2 66q-7 -28 -18.5 -67t-25 -79.5t-27.5 -73.5z" />
    <glyph glyph-name="Epsilon" unicode="&#x395;" horiz-adv-x="807" 
d="M-4 0l309 1462h600l-47 -223h-344l-78 -369h320l-47 -223h-320l-92 -422h346l-47 -225h-600z" />
    <glyph glyph-name="Zeta" unicode="&#x396;" horiz-adv-x="797" 
d="M-82 0l39 184l639 1055h-406l48 223h696l-39 -186l-641 -1051h428l-47 -225h-717z" />
    <glyph glyph-name="Eta" unicode="&#x397;" horiz-adv-x="1075" 
d="M-4 0l309 1462h256l-125 -585h324l125 585h256l-312 -1462h-256l138 649h-322l-137 -649h-256z" />
    <glyph glyph-name="Theta" unicode="&#x398;" horiz-adv-x="1133" 
d="M459 -20q-132 0 -217.5 49.5t-127.5 152.5t-42 262q0 106 18 223t54.5 234t91 222t128 186.5t166 128.5t203.5 47q194 0 287.5 -114t93.5 -343q0 -120 -19.5 -244t-57.5 -241.5t-94 -219t-128.5 -179t-161.5 -121t-194 -43.5zM475 209q66 0 120 45.5t96 120.5t73.5 166.5
t51.5 184.5t30 174t10 134q0 114 -36.5 168.5t-104.5 54.5q-65 0 -118.5 -42.5t-95.5 -114t-73 -159.5t-51.5 -179.5t-30.5 -175t-10 -144.5q0 -88 16.5 -139t47.5 -72.5t75 -21.5zM446 641l46 213h253l-45 -213h-254z" />
    <glyph glyph-name="Iota" unicode="&#x399;" horiz-adv-x="496" 
d="M-6 0l311 1462h254l-309 -1462h-256z" />
    <glyph glyph-name="Kappa" unicode="&#x39a;" horiz-adv-x="944" 
d="M-4 0l309 1462h256l-139 -655l92 156l338 499h281l-461 -680l157 -782h-280l-100 598l-87 -76l-110 -522h-256z" />
    <glyph glyph-name="Lambda" unicode="&#x39b;" horiz-adv-x="946" 
d="M-125 0l635 1468h297l16 -1468h-270l12 846q2 52 3.5 113t4.5 118q-25 -78 -49 -141t-49 -123l-332 -813h-268z" />
    <glyph glyph-name="Mu" unicode="&#x39c;" horiz-adv-x="1425" 
d="M-4 0l309 1462h340l31 -1013h6l446 1013h363l-311 -1462h-250l174 821q6 28 13.5 56t15 56.5t14.5 57.5h-4l-447 -991h-223l-29 985h-6q-7 -42 -13 -80t-12 -73t-14 -68l-161 -764h-242z" />
    <glyph glyph-name="Nu" unicode="&#x39d;" horiz-adv-x="1149" 
d="M-4 0l309 1462h289l172 -993h6q11 63 21 123t19.5 112.5t16.5 90.5l144 667h241l-309 -1462h-289l-172 1016h-6q-7 -51 -15 -103t-17 -99.5t-16.5 -87.5t-12.5 -69l-141 -657h-240z" />
    <glyph glyph-name="Xi" unicode="&#x39e;" horiz-adv-x="813" 
d="M-59 0l47 225h684l-47 -225h-684zM150 655l47 224h544l-49 -224h-542zM227 1239l47 223h639l-47 -223h-639z" />
    <glyph glyph-name="Omicron" unicode="&#x39f;" horiz-adv-x="1098" 
d="M446 -20q-126 0 -209 49.5t-124 152.5t-41 262q0 113 18.5 233t54.5 237t90 220t125.5 182t160.5 124t194 45q192 0 280 -115t88 -342q0 -97 -15.5 -211.5t-48 -232t-83.5 -225.5t-121.5 -193.5t-162.5 -135.5t-206 -50zM467 209q58 0 106.5 41t87.5 110.5t68.5 156.5
t49.5 180t30 180.5t10 156.5q0 114 -31.5 168.5t-93.5 54.5q-60 0 -110 -42t-89 -113t-68.5 -158.5t-48.5 -179.5t-28.5 -175.5t-9.5 -146.5q0 -88 14 -139t42.5 -72.5t70.5 -21.5z" />
    <glyph glyph-name="Pi" unicode="&#x3a0;" horiz-adv-x="1055" 
d="M-4 0l309 1462h815l-309 -1462h-256l262 1235h-305l-260 -1235h-256z" />
    <glyph glyph-name="Rho" unicode="&#x3a1;" horiz-adv-x="909" 
d="M-4 0l309 1462h291q126 0 207 -41.5t119.5 -117t38.5 -177.5q0 -113 -31 -219.5t-94.5 -192t-159.5 -136t-227 -50.5h-87l-110 -528h-256zM410 752h41q79 0 133.5 43t83 120t28.5 179q0 77 -35.5 111t-107.5 34h-39z" />
    <glyph glyph-name="Sigma" unicode="&#x3a3;" horiz-adv-x="834" 
d="M-66 0l43 211l414 555l-176 489l43 207h676l-47 -223h-385l164 -471l-400 -543h439l-50 -225h-721z" />
    <glyph glyph-name="Tau" unicode="&#x3a4;" horiz-adv-x="795" 
d="M143 0l263 1235h-244l49 227h743l-49 -227h-243l-263 -1235h-256z" />
    <glyph glyph-name="Upsilon" unicode="&#x3a5;" horiz-adv-x="870" 
d="M182 0l117 557l-117 905h267l45 -569l286 569h275l-496 -897l-121 -565h-256z" />
    <glyph glyph-name="Phi" unicode="&#x3a6;" horiz-adv-x="1294" 
d="M389 -20l49 225q-108 5 -187.5 50t-123 131.5t-43.5 215.5q0 134 36 257.5t108.5 222t183 157.5t258.5 64l39 180h247l-36 -180q107 -5 186 -54.5t122.5 -137t43.5 -206.5q0 -137 -37.5 -262.5t-111.5 -223.5t-183.5 -155t-253.5 -59l-49 -225h-248zM483 422l142 663
q-73 -1 -127 -44.5t-89 -114t-52 -152t-17 -158.5q0 -65 16 -107.5t48 -63.5t79 -23zM731 422q66 1 118.5 41.5t89 108t56 149t19.5 164.5q0 66 -16.5 110t-48 66.5t-77.5 23.5z" />
    <glyph glyph-name="Chi" unicode="&#x3a7;" horiz-adv-x="897" 
d="M-119 0l455 750l-121 712h266l56 -448l235 448h275l-420 -717l139 -745h-277l-57 483l-278 -483h-273z" />
    <glyph glyph-name="Psi" unicode="&#x3a8;" horiz-adv-x="1315" 
d="M403 0l89 416h-3q-113 3 -188.5 41.5t-113 113t-37.5 183.5q0 47 7.5 105.5t20.5 119.5l103 483h256l-111 -516q-10 -49 -16.5 -89.5t-6.5 -72.5q0 -54 17 -84.5t47 -43t70 -13.5h4l172 819h250l-175 -819h5q79 0 123.5 40t69.5 107.5t42 149.5l111 522h256l-113 -534
q-26 -124 -63 -219.5t-96 -160.5t-150 -98.5t-225 -33.5h-7l-88 -416h-250z" />
    <glyph glyph-name="uni03A9" unicode="&#x3a9;" horiz-adv-x="1106" 
d="M-80 0l47 225h258q-44 47 -71.5 109.5t-40.5 134.5t-13 147q0 123 27 247t79 235.5t126.5 198.5t169.5 137.5t209 50.5q127 0 214 -53t132 -149.5t45 -225.5q0 -124 -25 -244.5t-73 -230t-118 -200.5t-161 -157h260l-49 -225h-459l51 242q74 60 130.5 152.5t95 202
t58 221t19.5 208.5q0 76 -16.5 127.5t-49.5 77.5t-81 26q-69 0 -123.5 -51.5t-94.5 -134.5t-67 -181t-40 -193.5t-13 -168.5q0 -91 19 -162t57 -124l-51 -242h-451z" />
    <glyph glyph-name="Iotadieresis" unicode="&#x3aa;" horiz-adv-x="496" 
d="M-6 0l311 1462h254l-309 -1462h-256zM649 1655q-49 0 -75 24.5t-26 71.5q0 65 39 115.5t111 50.5q44 0 69 -24t25 -68q0 -76 -42 -123t-101 -47zM301 1655q-49 0 -75 24.5t-26 71.5q0 65 39 115.5t111 50.5q29 0 49.5 -10.5t31.5 -31t11 -50.5q0 -76 -41.5 -123
t-99.5 -47z" />
    <glyph glyph-name="Upsilondieresis" unicode="&#x3ab;" horiz-adv-x="870" 
d="M182 0l117 557l-117 905h267l45 -569l286 569h275l-496 -897l-121 -565h-256zM801 1612q-49 0 -75 24.5t-26 71.5q0 65 39 115.5t111 50.5q44 0 69 -24t25 -68q0 -76 -42 -123t-101 -47zM453 1612q-49 0 -75 24.5t-26 71.5q0 65 39 115.5t111 50.5q29 0 49.5 -10.5
t31.5 -31t11 -50.5q0 -76 -41.5 -123t-99.5 -47z" />
    <glyph glyph-name="alphatonos" unicode="&#x3ac;" horiz-adv-x="983" 
d="M270 -20q-106 0 -168.5 85.5t-62.5 237.5q0 110 19.5 226.5t57.5 224.5t93 194.5t125 137.5t155 51q71 0 129 -40t82 -124h7q12 29 25.5 55t27 49t26.5 39h215q-28 -60 -53 -128t-45.5 -142.5t-38.5 -155.5l-73 -346q-7 -28 -11 -56t-4 -46q0 -28 10.5 -37.5t28.5 -9.5
q11 0 26 4t33 14v-201q-34 -12 -79.5 -22t-73.5 -10q-85 0 -126 28t-53.5 67t-11.5 70h-6q-35 -51 -74.5 -88t-83.5 -57t-96 -20zM367 188q57 0 98.5 52t70 128.5t44.5 147.5q21 97 29.5 158.5t8.5 107.5q0 71 -22.5 105.5t-67.5 34.5q-44 0 -81 -43.5t-65.5 -113t-48 -149
t-30 -153.5t-10.5 -125q0 -75 18.5 -112.5t55.5 -37.5zM516 1241l7 27q13 24 32 66.5t39.5 90t37.5 90t26 66.5h227l-4 -20q-17 -28 -44 -71t-58 -90.5t-59.5 -89.5t-49.5 -69h-154z" />
    <glyph glyph-name="epsilontonos" unicode="&#x3ad;" horiz-adv-x="762" 
d="M315 -20q-104 0 -175 30.5t-106.5 91.5t-35.5 152q0 73 29 142.5t87.5 121t147.5 68.5l2 8q-49 23 -79.5 76t-30.5 139q0 92 45 166.5t126.5 118t190.5 43.5q83 0 157 -20t138 -66l-111 -185q-40 32 -85 48t-87 16q-64 0 -100.5 -41.5t-36.5 -110.5q0 -55 30 -80.5
t91 -25.5h74l-39 -185h-90q-60 0 -105.5 -23t-70.5 -63.5t-25 -95.5t29 -86t96 -31q53 0 108.5 17.5t118.5 52.5v-207q-67 -37 -143.5 -54t-149.5 -17zM434 1241l7 27q13 24 32 66.5t39.5 90t37.5 90t26 66.5h227l-4 -20q-17 -28 -44 -71t-58 -90.5t-59.5 -89.5t-49.5 -69
h-154z" />
    <glyph glyph-name="etatonos" unicode="&#x3ae;" horiz-adv-x="928" 
d="M354 -492l244 1147q9 48 17 94t8 80q0 41 -16.5 62.5t-53.5 21.5q-48 0 -84.5 -40.5t-63.5 -113.5t-49 -171l-123 -588h-247l237 1116h197l-10 -139h6q31 50 68.5 86t81 55t91.5 19q59 0 110 -23t82.5 -75t31.5 -140q0 -37 -7 -84t-18 -102l-256 -1205h-246zM501 1241
l7 27q13 24 32 66.5t39.5 90t37.5 90t26 66.5h227l-4 -20q-17 -28 -44 -71t-58 -90.5t-59.5 -89.5t-49.5 -69h-154z" />
    <glyph glyph-name="iotatonos" unicode="&#x3af;" horiz-adv-x="557" 
d="M246 -20q-98 0 -150.5 53.5t-52.5 150.5q0 32 5.5 75t14.5 83l164 774h246l-170 -801q-3 -16 -5.5 -32t-2.5 -33q0 -25 11 -39t34 -14q19 0 45 8t49 20v-194q-43 -25 -94 -38t-94 -13zM278 1241l7 27q13 24 32 66.5t39.5 90t37.5 90t26 66.5h227l-4 -20q-17 -28 -44 -71
t-58 -90.5t-59.5 -89.5t-49.5 -69h-154z" />
    <glyph glyph-name="upsilondieresistonos" unicode="&#x3b0;" horiz-adv-x="930" 
d="M352 -18q-155 0 -225 76t-70 212q0 48 9 109.5t22 128.5l129 608h246l-137 -647q-10 -43 -15.5 -85.5t-5.5 -74.5q0 -55 19.5 -81.5t54.5 -26.5q50 0 89.5 45t69.5 122t51.5 173t36 199t22 200.5t9.5 175.5h244q-2 -152 -17.5 -311.5t-52 -306.5t-98.5 -263.5
t-155.5 -184.5t-225.5 -68zM528 1409v18q15 34 36.5 90.5t41.5 112.5t28 86h207l-4 -16q-16 -35 -51 -92t-72.5 -112.5t-62.5 -86.5h-123zM352 1274q-46 0 -70 24.5t-24 71.5q0 65 36 115.5t103 50.5q41 0 64.5 -24t23.5 -68q0 -76 -39.5 -123t-93.5 -47zM831 1274
q-44 0 -68 24.5t-24 71.5q0 65 36 115.5t103 50.5q40 0 63 -24t23 -68q0 -76 -38.5 -123t-94.5 -47z" />
    <glyph glyph-name="alpha" unicode="&#x3b1;" horiz-adv-x="983" 
d="M270 -20q-106 0 -168.5 85.5t-62.5 237.5q0 110 19.5 226.5t57.5 224.5t93 194.5t125 137.5t155 51q71 0 129 -40t82 -124h7q12 29 25.5 55t27 49t26.5 39h215q-28 -60 -53 -128t-45.5 -142.5t-38.5 -155.5l-73 -346q-7 -28 -11 -56t-4 -46q0 -28 10.5 -37.5t28.5 -9.5
q11 0 26 4t33 14v-201q-34 -12 -79.5 -22t-73.5 -10q-85 0 -126 28t-53.5 67t-11.5 70h-6q-35 -51 -74.5 -88t-83.5 -57t-96 -20zM367 188q57 0 98.5 52t70 128.5t44.5 147.5q21 97 29.5 158.5t8.5 107.5q0 71 -22.5 105.5t-67.5 34.5q-44 0 -81 -43.5t-65.5 -113t-48 -149
t-30 -153.5t-10.5 -125q0 -75 18.5 -112.5t55.5 -37.5z" />
    <glyph glyph-name="beta" unicode="&#x3b2;" horiz-adv-x="948" 
d="M-117 -492l344 1629q30 136 83 232t138.5 147t213.5 51q99 0 168.5 -40t106 -110t36.5 -160q0 -107 -31.5 -197.5t-95.5 -152t-164 -84.5q94 -18 143 -98.5t49 -189.5q0 -99 -27.5 -197.5t-82 -179.5t-134 -129.5t-184.5 -48.5q-61 0 -116.5 15t-89.5 40l-115 -527h-242z
M408 197q60 0 101 34.5t66 88t36.5 110.5t11.5 102q0 80 -31 124t-90 44h-43l45 211h33q46 0 79.5 31.5t55.5 81t32.5 105.5t10.5 104q0 60 -23 91.5t-69 31.5q-37 0 -65 -23.5t-48 -69t-35 -112.5l-190 -895q20 -28 56 -43.5t67 -15.5z" />
    <glyph glyph-name="gamma" unicode="&#x3b3;" horiz-adv-x="821" 
d="M0 -492q19 83 44 166.5t55.5 166t64.5 163.5l-37 1112h248v-442q0 -35 -0.5 -76t-2 -82t-3.5 -77.5t-4 -63.5h8q21 69 47.5 142.5t60.5 150.5l187 448h262l-490 -1077q-37 -84 -73 -179t-64 -186.5t-45 -165.5h-258z" />
    <glyph glyph-name="delta" unicode="&#x3b4;" horiz-adv-x="911" 
d="M365 -20q-114 0 -188.5 42.5t-111 121.5t-36.5 190q0 131 48.5 246t137 202.5t209.5 135.5q-55 68 -87 138t-32 158q0 106 49 185t135.5 123.5t198.5 44.5q107 0 192 -28.5t136 -70.5l-117 -194q-58 44 -112.5 64t-104.5 20q-60 0 -94.5 -34.5t-34.5 -94.5q0 -44 24 -86
t58.5 -83t64.5 -83q48 -63 78 -127.5t44 -133t14 -143.5q0 -121 -29.5 -228.5t-88 -189.5t-147 -128.5t-206.5 -46.5zM385 188q53 0 90.5 39.5t61 99t34.5 122t11 108.5q0 75 -17 132.5t-51 105.5q-49 -25 -91 -75.5t-73.5 -115.5t-49 -133.5t-17.5 -130.5q0 -66 25.5 -109
t76.5 -43z" />
    <glyph glyph-name="epsilon" unicode="&#x3b5;" horiz-adv-x="762" 
d="M315 -20q-104 0 -175 30.5t-106.5 91.5t-35.5 152q0 73 29 142.5t87.5 121t147.5 68.5l2 8q-49 23 -79.5 76t-30.5 139q0 92 45 166.5t126.5 118t190.5 43.5q83 0 157 -20t138 -66l-111 -185q-40 32 -85 48t-87 16q-64 0 -100.5 -41.5t-36.5 -110.5q0 -55 30 -80.5
t91 -25.5h74l-39 -185h-90q-60 0 -105.5 -23t-70.5 -63.5t-25 -95.5t29 -86t96 -31q53 0 108.5 17.5t118.5 52.5v-207q-67 -37 -143.5 -54t-149.5 -17z" />
    <glyph glyph-name="zeta" unicode="&#x3b6;" horiz-adv-x="727" 
d="M156 -385q32 36 66.5 84t58.5 99.5t24 97.5q0 49 -36 81t-83 64q-48 35 -83.5 72t-55.5 87t-20 124q0 143 48.5 283.5t130 273.5t180.5 253.5t200 223.5q-28 -6 -60 -8t-69 -2h-181l46 208h585l-35 -165q-101 -106 -203.5 -231t-188 -256t-137.5 -257.5t-52 -236.5
q0 -54 21.5 -91.5t54 -65t65.5 -54.5q34 -23 68.5 -53.5t58 -70t23.5 -91.5q0 -75 -23.5 -138.5t-63.5 -119.5t-89 -111h-250z" />
    <glyph glyph-name="eta" unicode="&#x3b7;" horiz-adv-x="928" 
d="M354 -492l244 1147q9 48 17 94t8 80q0 41 -16.5 62.5t-53.5 21.5q-48 0 -84.5 -40.5t-63.5 -113.5t-49 -171l-123 -588h-247l237 1116h197l-10 -139h6q31 50 68.5 86t81 55t91.5 19q59 0 110 -23t82.5 -75t31.5 -140q0 -37 -7 -84t-18 -102l-256 -1205h-246z" />
    <glyph glyph-name="theta" unicode="&#x3b8;" horiz-adv-x="938" 
d="M365 -20q-100 0 -167.5 44.5t-101 135.5t-33.5 231q0 64 6.5 136.5t19 151.5t30.5 161q30 137 76 269t110.5 238t150.5 169t197 63q89 0 156.5 -40.5t105 -132t37.5 -245.5q0 -102 -18 -235t-52 -268.5t-81 -247.5q-37 -93 -82 -171.5t-98.5 -136.5t-117 -90t-138.5 -32z
M381 180q42 0 79 42t68.5 114t58.5 162.5t50 187.5h-301q-20 -110 -31.5 -195t-11.5 -139q0 -87 24 -129.5t64 -42.5zM381 887h297q15 103 25 182.5t10 136.5q0 88 -22.5 129t-63.5 41q-39 0 -73 -36t-65 -102t-57.5 -155t-50.5 -196z" />
    <glyph glyph-name="iota" unicode="&#x3b9;" horiz-adv-x="557" 
d="M246 -20q-98 0 -150.5 53.5t-52.5 150.5q0 32 5.5 75t14.5 83l164 774h246l-170 -801q-3 -16 -5.5 -32t-2.5 -33q0 -25 11 -39t34 -14q19 0 45 8t49 20v-194q-43 -25 -94 -38t-94 -13z" />
    <glyph glyph-name="kappa" unicode="&#x3ba;" horiz-adv-x="870" 
d="M-14 0l237 1116h246l-51 -233q-11 -52 -25 -107.5t-33 -118.5h5l340 459h268l-357 -469l142 -647h-266l-89 449l-102 -103l-70 -346h-245z" />
    <glyph glyph-name="lambda" unicode="&#x3bb;" horiz-adv-x="879" 
d="M666 -20q-95 0 -145 38t-68 106t-19 157l2 256q0 40 0.5 79.5t1.5 79.5q-4 -15 -9 -32.5t-10.5 -35t-11.5 -34t-12 -31.5l-250 -563h-256l519 1077v160q-1 71 -21 98t-57 27q-17 0 -31 -3t-37 -11v202q28 8 72 14.5t78 6.5q98 0 149 -42.5t70.5 -119t23.5 -180.5l17 -918
q1 -42 7.5 -66t20 -34t33.5 -10q14 0 29 3t37 9v-215q-28 -7 -67.5 -12.5t-65.5 -5.5z" />
    <glyph glyph-name="uni03BC" unicode="&#x3bc;" horiz-adv-x="928" 
d="M-120 -492l342 1608h244l-139 -663q-10 -46 -15.5 -83.5t-5.5 -66.5q0 -49 15.5 -74.5t52.5 -25.5q40 0 74 27.5t63.5 95t54.5 186.5l129 604h244l-236 -1116h-192l2 121h-4q-27 -52 -57 -83t-61.5 -44.5t-65.5 -13.5t-58.5 16t-40.5 45h-4q-1 -25 -3 -53t-5.5 -57
t-9.5 -60l-78 -363h-246z" />
    <glyph glyph-name="nu" unicode="&#x3bd;" horiz-adv-x="852" 
d="M135 0l-4 1116h250l-8 -569q-1 -60 -3 -121t-5 -117q66 103 120 224.5t98.5 266t80.5 316.5h256q-46 -213 -118 -403.5t-175.5 -366.5t-247.5 -346h-244z" />
    <glyph glyph-name="xi" unicode="&#x3be;" horiz-adv-x="754" 
d="M154 -385q33 37 72 90.5t67.5 108.5t28.5 98q-2 40 -25 65t-74 50q-62 32 -104.5 74t-64 100.5t-21.5 138.5q0 107 34.5 203.5t104.5 168.5t178 103l2 8q-67 25 -98 77.5t-31 121.5q0 55 17 107.5t49.5 97.5t78 78.5t101.5 50.5q-35 -4 -65.5 -6t-59.5 -2h-78l45 208h578
l-45 -206h-86q-50 0 -93 -15.5t-78 -43t-60 -65.5t-38.5 -83.5t-13.5 -95.5q0 -68 34.5 -100t106.5 -32h95l-45 -210h-99q-86 0 -147 -40t-93 -111t-32 -163q0 -51 17 -82.5t48 -53.5t72 -46q44 -21 77 -49t51 -68t18 -98q0 -64 -20.5 -128t-59.5 -126.5t-95 -124.5h-249z
" />
    <glyph glyph-name="omicron" unicode="&#x3bf;" horiz-adv-x="909" 
d="M354 -20q-98 0 -167.5 43t-106.5 124t-37 195q0 87 17.5 192.5t54.5 211.5t97.5 194.5t146.5 142.5t200 54q97 0 165.5 -44t105 -125.5t36.5 -195.5q0 -98 -18.5 -207t-57.5 -213t-99.5 -188t-144.5 -134t-192 -50zM383 188q43 0 80 40t65.5 106t48.5 144.5t30.5 156
t10.5 139.5q0 49 -9.5 83.5t-30 52.5t-52.5 18q-46 0 -83.5 -42t-66 -110t-47.5 -147.5t-28.5 -155.5t-9.5 -133q0 -72 23 -112t69 -40z" />
    <glyph glyph-name="pi" unicode="&#x3c0;" horiz-adv-x="1028" 
d="M715 -16q-95 0 -148 52t-53 152q0 36 5.5 78t15.5 82l118 559h-188l-195 -907h-245l194 907h-151l24 111l139 98h861l-45 -209h-148l-125 -585q-3 -17 -5.5 -33t-2.5 -35q0 -26 12 -39.5t37 -13.5q22 0 43.5 7.5t40.5 16.5v-194q-41 -23 -91 -35t-93 -12z" />
    <glyph glyph-name="rho" unicode="&#x3c1;" horiz-adv-x="926" 
d="M-115 -492l228 1088q38 180 92.5 300.5t141 180.5t218.5 60q109 0 181 -44t108.5 -125t36.5 -192q0 -91 -18 -198t-53.5 -212.5t-89 -193t-124.5 -140t-160 -52.5q-72 0 -124 22.5t-84 60.5q-4 -38 -12.5 -81t-16.5 -80l-80 -394h-244zM401 195q47 0 85 43t67 112t48 148
t28.5 152.5t9.5 123.5q0 75 -25.5 113.5t-66.5 38.5q-44 0 -77 -32.5t-60.5 -110t-55.5 -212.5l-63 -299q15 -31 42.5 -54t67.5 -23z" />
    <glyph glyph-name="uni03C2" unicode="&#x3c2;" horiz-adv-x="745" 
d="M172 -385q49 59 81.5 106t49 86.5t16.5 73.5q0 32 -13 57t-38.5 48.5t-64.5 50.5q-60 43 -95 88.5t-49.5 104t-15.5 139.5q0 96 19 202t58.5 206.5t101.5 182t147.5 129.5t195.5 48q71 0 133.5 -17.5t114.5 -52.5l-98 -193q-31 22 -66.5 35t-66.5 13q-54 0 -98 -35
t-77.5 -93t-56.5 -126.5t-35 -136t-12 -121.5t15.5 -92t43.5 -66t64 -55q46 -33 83.5 -66.5t60 -77t22.5 -106.5q0 -49 -17.5 -103t-55 -111t-97.5 -118h-250z" />
    <glyph glyph-name="sigma" unicode="&#x3c3;" horiz-adv-x="958" 
d="M358 -20q-147 0 -230 96t-83 268q0 101 19.5 209t61.5 208.5t109.5 180.5t163.5 127t224 47h407l-43 -209h-178q20 -41 32.5 -94t12.5 -125q0 -91 -21.5 -190t-63 -191t-101.5 -166t-138 -117.5t-172 -43.5zM385 188q44 0 80 38t64 101t47 140t28.5 156t9.5 147
q0 44 -2.5 78t-7.5 59h-24q-76 0 -130.5 -56t-89 -143.5t-51 -185t-16.5 -180.5q0 -73 22.5 -113.5t69.5 -40.5z" />
    <glyph glyph-name="tau" unicode="&#x3c4;" horiz-adv-x="688" 
d="M336 -23q-103 0 -159 56.5t-56 159.5q0 37 6 81.5t16 92.5l117 540h-197l25 109l139 100h545l-45 -209h-221l-121 -569q-4 -22 -7 -41t-3 -39q0 -29 14 -46t43 -17q20 0 47 9t49 19v-194q-44 -25 -96 -38.5t-96 -13.5z" />
    <glyph glyph-name="upsilon" unicode="&#x3c5;" horiz-adv-x="930" 
d="M352 -18q-155 0 -225 76t-70 212q0 48 9 109.5t22 128.5l129 608h246l-137 -647q-10 -43 -15.5 -85.5t-5.5 -74.5q0 -55 19.5 -81.5t54.5 -26.5q50 0 89.5 45t69.5 122t51.5 173t36 199t22 200.5t9.5 175.5h244q-2 -152 -17.5 -311.5t-52 -306.5t-98.5 -263.5
t-155.5 -184.5t-225.5 -68z" />
    <glyph glyph-name="phi" unicode="&#x3c6;" horiz-adv-x="1253" 
d="M274 -492l101 480q-92 12 -167 58t-119 132t-44 217q0 126 37 255.5t106 253.5t166 231l174 -115q-65 -83 -118 -185t-84 -213t-31 -221q0 -57 14.5 -99t43 -68t69.5 -35l117 561q38 175 126 275t248 100q137 0 217 -89.5t80 -265.5q0 -117 -26 -229.5t-76.5 -212
t-123 -176.5t-165 -123t-203.5 -51l-102 -480h-240zM662 199q70 12 121 57.5t85.5 111.5t55.5 141.5t30 148t9 128.5q0 66 -20 102t-54 36q-37 0 -64 -37.5t-49 -145.5z" />
    <glyph glyph-name="chi" unicode="&#x3c7;" horiz-adv-x="842" 
d="M-252 -492l500 867l-17 428q-1 57 -15.5 86t-49.5 29q-20 0 -40.5 -5.5t-39.5 -11.5l31 215q26 8 66.5 12.5t74.5 4.5q109 0 157.5 -67.5t55.5 -186.5v-164l203 401h264l-444 -780l18 -500q2 -60 16 -85t43 -25q17 0 42 7.5t44 16.5v-205q-43 -18 -91 -27.5t-89 -9.5
q-67 0 -111 28t-67 91.5t-29 167.5l-2 223l-258 -510h-262z" />
    <glyph glyph-name="psi" unicode="&#x3c8;" horiz-adv-x="1237" 
d="M274 -492l103 476q-161 18 -240.5 107.5t-79.5 244.5q0 49 8 106.5t21 120.5l119 553h246l-127 -592q-11 -49 -17 -91t-6 -79q0 -73 27.5 -109t93.5 -42l289 1353h239l-286 -1351q75 0 128 60.5t88 160.5t55 221t28.5 243.5t9.5 225.5h239q-1 -157 -14.5 -317.5
t-49.5 -305.5t-102.5 -259t-171.5 -181t-258 -69l-100 -476h-242z" />
    <glyph glyph-name="omega" unicode="&#x3c9;" horiz-adv-x="1245" 
d="M274 -20q-126 0 -183.5 88t-57.5 243q0 120 32 260.5t86.5 281.5t120.5 263h246q-69 -139 -122.5 -279.5t-84 -273t-30.5 -246.5q0 -56 17.5 -83t43.5 -27q54 0 83 68.5t58 216.5l58 266h239l-57 -266q-8 -43 -14 -78t-9.5 -63t-3.5 -50q0 -47 13 -70.5t41 -23.5
q44 0 78.5 52t59.5 135t41 179t24 185.5t8 152.5q0 70 -2.5 117.5t-8.5 87.5h250q3 -38 4.5 -86t1.5 -121q0 -106 -14 -231t-46.5 -248t-86 -225t-133 -163.5t-187.5 -61.5q-77 0 -122 27.5t-64 69.5t-21 85q-44 -88 -108.5 -135t-149.5 -47z" />
    <glyph glyph-name="iotadieresis" unicode="&#x3ca;" horiz-adv-x="557" 
d="M246 -20q-98 0 -150.5 53.5t-52.5 150.5q0 32 5.5 75t14.5 83l164 774h246l-170 -801q-3 -16 -5.5 -32t-2.5 -33q0 -25 11 -39t34 -14q19 0 45 8t49 20v-194q-43 -25 -94 -38t-94 -13zM545 1274q-49 0 -75 24.5t-26 71.5q0 65 39 115.5t111 50.5q44 0 69 -24t25 -68
q0 -76 -42 -123t-101 -47zM197 1274q-49 0 -75 24.5t-26 71.5q0 65 39 115.5t111 50.5q29 0 49.5 -10.5t31.5 -31t11 -50.5q0 -76 -41.5 -123t-99.5 -47z" />
    <glyph glyph-name="upsilondieresis" unicode="&#x3cb;" horiz-adv-x="930" 
d="M352 -18q-155 0 -225 76t-70 212q0 48 9 109.5t22 128.5l129 608h246l-137 -647q-10 -43 -15.5 -85.5t-5.5 -74.5q0 -55 19.5 -81.5t54.5 -26.5q50 0 89.5 45t69.5 122t51.5 173t36 199t22 200.5t9.5 175.5h244q-2 -152 -17.5 -311.5t-52 -306.5t-98.5 -263.5
t-155.5 -184.5t-225.5 -68zM756 1274q-49 0 -75 24.5t-26 71.5q0 65 39 115.5t111 50.5q44 0 69 -24t25 -68q0 -76 -42 -123t-101 -47zM408 1274q-49 0 -75 24.5t-26 71.5q0 65 39 115.5t111 50.5q29 0 49.5 -10.5t31.5 -31t11 -50.5q0 -76 -41.5 -123t-99.5 -47z" />
    <glyph glyph-name="omicrontonos" unicode="&#x3cc;" horiz-adv-x="909" 
d="M354 -20q-98 0 -167.5 43t-106.5 124t-37 195q0 87 17.5 192.5t54.5 211.5t97.5 194.5t146.5 142.5t200 54q97 0 165.5 -44t105 -125.5t36.5 -195.5q0 -98 -18.5 -207t-57.5 -213t-99.5 -188t-144.5 -134t-192 -50zM383 188q43 0 80 40t65.5 106t48.5 144.5t30.5 156
t10.5 139.5q0 49 -9.5 83.5t-30 52.5t-52.5 18q-46 0 -83.5 -42t-66 -110t-47.5 -147.5t-28.5 -155.5t-9.5 -133q0 -72 23 -112t69 -40zM477 1241l7 27q13 24 32 66.5t39.5 90t37.5 90t26 66.5h227l-4 -20q-17 -28 -44 -71t-58 -90.5t-59.5 -89.5t-49.5 -69h-154z" />
    <glyph glyph-name="upsilontonos" unicode="&#x3cd;" horiz-adv-x="930" 
d="M352 -18q-155 0 -225 76t-70 212q0 48 9 109.5t22 128.5l129 608h246l-137 -647q-10 -43 -15.5 -85.5t-5.5 -74.5q0 -55 19.5 -81.5t54.5 -26.5q50 0 89.5 45t69.5 122t51.5 173t36 199t22 200.5t9.5 175.5h244q-2 -152 -17.5 -311.5t-52 -306.5t-98.5 -263.5
t-155.5 -184.5t-225.5 -68zM473 1241l7 27q13 24 32 66.5t39.5 90t37.5 90t26 66.5h227l-4 -20q-17 -28 -44 -71t-58 -90.5t-59.5 -89.5t-49.5 -69h-154z" />
    <glyph glyph-name="omegatonos" unicode="&#x3ce;" horiz-adv-x="1245" 
d="M274 -20q-126 0 -183.5 88t-57.5 243q0 120 32 260.5t86.5 281.5t120.5 263h246q-69 -139 -122.5 -279.5t-84 -273t-30.5 -246.5q0 -56 17.5 -83t43.5 -27q54 0 83 68.5t58 216.5l58 266h239l-57 -266q-8 -43 -14 -78t-9.5 -63t-3.5 -50q0 -47 13 -70.5t41 -23.5
q44 0 78.5 52t59.5 135t41 179t24 185.5t8 152.5q0 70 -2.5 117.5t-8.5 87.5h250q3 -38 4.5 -86t1.5 -121q0 -106 -14 -231t-46.5 -248t-86 -225t-133 -163.5t-187.5 -61.5q-77 0 -122 27.5t-64 69.5t-21 85q-44 -88 -108.5 -135t-149.5 -47zM641 1241l7 27q13 24 32 66.5
t39.5 90t37.5 90t26 66.5h227l-4 -20q-17 -28 -44 -71t-58 -90.5t-59.5 -89.5t-49.5 -69h-154z" />
    <glyph glyph-name="uni03D1" unicode="&#x3d1;" horiz-adv-x="1030" 
d="M369 -20q-81 0 -151.5 20.5t-114.5 72t-44 144.5q0 48 13 96.5t28 94.5q13 38 23 73.5t10 63.5q0 23 -9 34t-26 11q-10 0 -26 -3.5t-37 -13.5v207q28 11 74.5 19t89.5 8q81 0 134.5 -44.5t53.5 -133.5q0 -37 -11.5 -80t-25.5 -86q-15 -51 -28 -100t-13 -93
q0 -43 19 -65.5t59 -22.5q36 0 69.5 22t65.5 66.5t62 114t58.5 164t55.5 215.5q-133 2 -224 50t-138 136t-47 211q0 105 41.5 200.5t124.5 156.5t209 61q124 0 197.5 -48.5t106.5 -137.5t33 -211q0 -51 -5 -100t-11 -109h105l-46 -209h-100q-37 -168 -80 -296.5t-94 -221
t-111.5 -151.5t-132.5 -87t-157 -28zM737 973q10 60 14.5 110.5t4.5 92.5q0 84 -20 143t-77 59q-40 0 -68 -34t-42 -83.5t-14 -95.5q0 -64 23.5 -106t69 -63t109.5 -23z" />
    <glyph glyph-name="uni03D2" unicode="&#x3d2;" horiz-adv-x="870" 
d="M182 0l117 557l-117 905h262l45 -569q34 73 68 141t67.5 130t66 114.5t63.5 93.5q40 53 83.5 78t100.5 25q37 0 70 -7.5t55 -19.5l-41 -215q-13 8 -26 12t-27 4q-32 0 -60 -29.5t-78 -109.5q-31 -54 -64.5 -118.5t-68 -135.5t-70.5 -148t-73 -157l-117 -551h-256z" />
    <glyph glyph-name="uni03D6" unicode="&#x3d6;" horiz-adv-x="1343" 
d="M319 -20q-125 0 -183 88t-58 243q0 91 21 196.5t55 209.5t71 190h-151l24 109l140 100h1192l-46 -209h-147q2 -25 4 -50.5t2 -57.5q0 -107 -18 -221.5t-54 -221t-90.5 -191.5t-128.5 -135t-168 -50q-97 0 -150.5 48.5t-53.5 143.5q-48 -97 -110.5 -144.5t-150.5 -47.5z
M387 207q42 0 67.5 39.5t42.5 104.5t33 141l37 172h240l-37 -172q-9 -43 -15.5 -78t-10 -63t-3.5 -50q0 -47 14 -70.5t42 -23.5q38 0 69.5 42t56 110.5t41 148t25 156.5t8.5 135q0 26 -0.5 52.5t-3.5 55.5h-516q-42 -96 -75.5 -198t-53.5 -201.5t-20 -190.5q0 -56 16.5 -83
t42.5 -27z" />
    <glyph glyph-name="uni0400" unicode="&#x400;" horiz-adv-x="807" 
d="M-4 0l309 1462h600l-47 -223h-344l-78 -369h320l-47 -223h-320l-92 -422h346l-47 -225h-600zM542 1579q-25 35 -62 92.5t-70.5 116.5t-51.5 100v19h276q11 -44 23.5 -92.5t29 -101t36.5 -109.5l-3 -25h-178z" />
    <glyph glyph-name="uni0401" unicode="&#x401;" horiz-adv-x="807" 
d="M-4 0l309 1462h600l-47 -223h-344l-78 -369h320l-47 -223h-320l-92 -422h346l-47 -225h-600zM795 1612q-49 0 -75 24.5t-26 71.5q0 65 39 115.5t111 50.5q44 0 69 -24t25 -68q0 -76 -42 -123t-101 -47zM447 1612q-49 0 -75 24.5t-26 71.5q0 65 39 115.5t111 50.5
q29 0 49.5 -10.5t31.5 -31t11 -50.5q0 -76 -41.5 -123t-99.5 -47z" />
    <glyph glyph-name="uni0402" unicode="&#x402;" horiz-adv-x="1063" 
d="M600 -20q-34 0 -72 6t-67 18l43 217q17 -10 35.5 -14t31.5 -4q34 0 54 19.5t31.5 53t19.5 74.5l43 195q3 17 5.5 37.5t2.5 33.5q0 45 -25 64.5t-75 19.5h-97l-149 -700h-256l262 1235h-223l47 227h717l-47 -227h-238l-65 -307h116q142 0 215.5 -69.5t73.5 -190.5
q0 -29 -4 -69t-12 -77l-52 -248q-21 -98 -60.5 -163.5t-102 -98t-152.5 -32.5z" />
    <glyph glyph-name="uni0403" unicode="&#x403;" horiz-adv-x="758" 
d="M-4 0l309 1462h610l-47 -225h-354l-262 -1237h-256zM465 1579l4 21q42 52 80.5 104t73 103t64.5 100h278l-2 -17q-22 -27 -65 -70.5t-92.5 -91t-94 -88t-70.5 -61.5h-176z" />
    <glyph glyph-name="uni0404" unicode="&#x404;" horiz-adv-x="920" 
d="M442 -20q-126 0 -208 56t-122 164t-40 263q0 138 29.5 281.5t86 275.5t138 236.5t185.5 165.5t228 61q94 0 172.5 -22t135.5 -66l-123 -205q-45 34 -88.5 50.5t-90.5 16.5q-67 0 -120.5 -37.5t-95.5 -96.5t-72 -127t-49 -130h370l-49 -225h-373q-6 -46 -10 -91t-4 -85
q0 -83 14.5 -140.5t50.5 -87.5t99 -30q32 0 72 9.5t83 26t82 36.5v-230q-43 -22 -98 -37t-109 -23.5t-94 -8.5z" />
    <glyph glyph-name="uni0405" unicode="&#x405;" horiz-adv-x="834" 
d="M274 -20q-100 0 -178.5 19t-138.5 62l51 265q53 -42 125.5 -73.5t142.5 -31.5q39 0 74.5 11.5t62.5 35.5t42.5 61.5t15.5 90.5q0 42 -10.5 77t-39.5 73t-83 89q-59 55 -99 109t-59.5 118t-19.5 148q0 97 29.5 179t87.5 142.5t143.5 94t197.5 33.5q79 0 163 -24t147 -70
l-117 -232q-55 41 -107.5 64.5t-99.5 23.5q-36 0 -68 -11.5t-56 -35t-38 -58t-14 -79.5q0 -42 14 -78t47 -74.5t89 -89.5q58 -51 94.5 -105.5t53.5 -119t17 -145.5q0 -95 -29.5 -180t-88 -150t-146.5 -102t-205 -37z" />
    <glyph glyph-name="uni0406" unicode="&#x406;" horiz-adv-x="496" 
d="M-6 0l311 1462h254l-309 -1462h-256z" />
    <glyph glyph-name="uni0407" unicode="&#x407;" horiz-adv-x="496" 
d="M-6 0l311 1462h254l-309 -1462h-256zM641 1655q-49 0 -75 24.5t-26 71.5q0 65 39 115.5t111 50.5q44 0 69 -24t25 -68q0 -76 -42 -123t-101 -47zM293 1655q-49 0 -75 24.5t-26 71.5q0 65 39 115.5t111 50.5q29 0 49.5 -10.5t31.5 -31t11 -50.5q0 -76 -41.5 -123
t-99.5 -47z" />
    <glyph glyph-name="uni0408" unicode="&#x408;" horiz-adv-x="492" 
d="M-147 -426q-55 0 -94.5 6t-71.5 19l51 223q26 -13 51 -19t51 -6q52 0 84 37t51.5 95t32.5 120l299 1413h256l-307 -1452q-33 -155 -90 -251.5t-135.5 -140.5t-177.5 -44z" />
    <glyph glyph-name="uni0409" unicode="&#x409;" horiz-adv-x="1448" 
d="M6 -16q-28 0 -56.5 4.5t-51.5 13.5v223q21 -9 42.5 -13.5t36.5 -4.5q29 0 52.5 12.5t47 49.5t50.5 110q28 67 62.5 169t76 238.5t90.5 305.5t105 370h645l-121 -565h39q116 0 194.5 -38.5t119 -114t40.5 -187.5q0 -103 -29.5 -202.5t-92.5 -179.5t-164 -127.5t-244 -47.5
h-305l258 1221h-166q-37 -130 -78.5 -271.5t-82.5 -273t-75.5 -234t-56.5 -155.5q-46 -113 -91.5 -179.5t-103.5 -95t-141 -28.5zM842 223h53q55 0 96 24t68.5 67t41 100t13.5 123q0 74 -36.5 105.5t-110.5 31.5h-29z" />
    <glyph glyph-name="uni040A" unicode="&#x40a;" horiz-adv-x="1413" 
d="M-4 0l309 1462h256l-123 -575h256l123 575h256l-119 -565h35q116 0 195 -39t119 -115t40 -188q0 -111 -31.5 -211.5t-97 -177.5t-165.5 -121.5t-238 -44.5h-303l141 664h-258l-139 -664h-256zM811 223h51q68 0 116.5 39.5t74.5 110.5t26 164q0 72 -38.5 104.5
t-112.5 32.5h-21z" />
    <glyph glyph-name="uni040B" unicode="&#x40b;" horiz-adv-x="1079" 
d="M131 0l262 1235h-223l47 227h717l-47 -227h-238l-65 -307h118q142 0 212.5 -72t70.5 -184q0 -43 -6 -88t-14 -82l-107 -502h-256l119 545q3 18 5.5 39t2.5 34q0 45 -25.5 63.5t-72.5 18.5h-94l-150 -700h-256z" />
    <glyph glyph-name="uni040C" unicode="&#x40c;" horiz-adv-x="948" 
d="M-4 0l309 1462h256l-149 -700l450 700h279l-484 -712l181 -750h-271l-159 745l-156 -745h-256zM579 1579l4 21q42 52 80.5 104t73 103t64.5 100h278l-2 -17q-22 -27 -65 -70.5t-92.5 -91t-94 -88t-70.5 -61.5h-176z" />
    <glyph glyph-name="uni040D" unicode="&#x40d;" horiz-adv-x="1165" 
d="M-4 0l309 1462h250l-125 -579q-11 -59 -25.5 -126t-31.5 -135.5t-37 -134.5h8l586 975h301l-309 -1462h-250l123 578q13 59 29.5 132t35.5 146t37 131h-8l-592 -987h-301zM704 1579q-25 35 -62 92.5t-70.5 116.5t-51.5 100v19h276q11 -44 23.5 -92.5t29 -101t36.5 -109.5
l-3 -25h-178z" />
    <glyph glyph-name="uni040E" unicode="&#x40e;" horiz-adv-x="879" 
d="M104 -18q-53 0 -89 7t-68 19v225q28 -16 67 -23t64 -7q34 0 59.5 11.5t47 37t43 67t48.5 101.5l-90 1042h263l24 -485q2 -29 4 -73t3.5 -85.5t2.5 -66.5q22 53 48 116t55 129l207 465h274l-532 -1089q-52 -107 -113 -196t-138 -142t-180 -53zM637 1573q-97 0 -156.5 30.5
t-87.5 86t-28 131.5q0 17 2.5 42t5.5 48h198q-4 -22 -6 -44t-2 -40q0 -49 21 -76t67 -27q56 0 93 47.5t57 139.5h198q-25 -118 -75 -192.5t-122 -110t-165 -35.5z" />
    <glyph glyph-name="uni040F" unicode="&#x40f;" horiz-adv-x="1055" 
d="M188 -424l88 424h-280l309 1462h256l-264 -1237h305l262 1237h256l-309 -1462h-283l-90 -424h-250z" />
    <glyph glyph-name="uni0410" unicode="&#x410;" horiz-adv-x="963" 
d="M-127 0l623 1468h325l15 -1468h-271l6 373h-270l-147 -373h-281zM387 598h197l12 444q2 50 4 95.5t6 93.5h-6q-7 -45 -20.5 -89.5t-30.5 -94.5z" />
    <glyph glyph-name="uni0411" unicode="&#x411;" horiz-adv-x="911" 
d="M-4 0l309 1462h653l-47 -227h-397l-74 -338h49q116 0 195 -38.5t119.5 -114.5t40.5 -189q0 -109 -31 -209t-96 -178t-166 -123t-240 -45h-315zM297 223h65q68 0 117 39.5t75 110.5t26 164q0 72 -40 104.5t-114 32.5h-33z" />
    <glyph glyph-name="uni0412" unicode="&#x412;" horiz-adv-x="973" 
d="M-6 0l309 1462h336q94 0 174.5 -30.5t130 -96.5t49.5 -174q0 -88 -28.5 -167.5t-88.5 -138.5t-153 -87v-8q72 -26 113 -97.5t41 -168.5q0 -130 -55.5 -243t-164 -182t-268.5 -69h-395zM297 219h92q77 0 126.5 39.5t73 105t23.5 142.5q0 75 -34.5 112t-96.5 37h-92z
M434 864h84q65 0 110.5 36.5t70 95.5t24.5 124q0 63 -32.5 95t-98.5 32h-76z" />
    <glyph glyph-name="uni0413" unicode="&#x413;" horiz-adv-x="758" 
d="M-4 0l309 1462h610l-47 -225h-354l-262 -1237h-256z" />
    <glyph glyph-name="uni0414" unicode="&#x414;" horiz-adv-x="1096" 
d="M-199 -424l138 649h84q71 126 137.5 269.5t126.5 300.5t111.5 325t93.5 342h638l-264 -1237h131l-139 -649h-250l90 424h-557l-90 -424h-250zM293 225h319l215 1016h-149q-35 -136 -79.5 -272.5t-94.5 -268t-103.5 -252t-107.5 -223.5z" />
    <glyph glyph-name="uni0415" unicode="&#x415;" horiz-adv-x="807" 
d="M-4 0l309 1462h600l-47 -223h-344l-78 -369h320l-47 -223h-320l-92 -422h346l-47 -225h-600z" />
    <glyph glyph-name="uni0416" unicode="&#x416;" horiz-adv-x="1368" 
d="M-137 0l487 770l-178 692h262l162 -700l147 700h250l-149 -700l442 700h277l-478 -712l170 -750h-270l-145 745l-158 -745h-248l158 745l-449 -745h-280z" />
    <glyph glyph-name="uni0417" unicode="&#x417;" horiz-adv-x="895" 
d="M270 -20q-100 0 -170.5 15t-126.5 46v256q53 -44 127 -67t154 -23q67 0 117.5 18.5t84.5 53.5t51 85t17 113q0 89 -49.5 130.5t-146.5 41.5h-123l49 223h119q88 0 148 32.5t91 91t31 134.5q0 56 -36.5 91.5t-104.5 35.5q-69 0 -124 -26t-106 -68l-88 183
q91 68 184.5 102.5t206.5 34.5q100 0 173 -37t113.5 -107t41.5 -170q0 -104 -39 -186.5t-111.5 -137.5t-172.5 -77l-2 -6q56 -13 103.5 -50t76 -98.5t28.5 -150.5q0 -108 -37.5 -196.5t-106 -152.5t-163.5 -99t-209 -35z" />
    <glyph glyph-name="uni0418" unicode="&#x418;" horiz-adv-x="1165" 
d="M-4 0l309 1462h250l-125 -579q-11 -59 -25.5 -126t-31.5 -135.5t-37 -134.5h8l586 975h301l-309 -1462h-250l123 578q13 59 29.5 132t35.5 146t37 131h-8l-592 -987h-301z" />
    <glyph glyph-name="uni0419" unicode="&#x419;" horiz-adv-x="1165" 
d="M-4 0l309 1462h250l-125 -579q-11 -59 -25.5 -126t-31.5 -135.5t-37 -134.5h8l586 975h301l-309 -1462h-250l123 578q13 59 29.5 132t35.5 146t37 131h-8l-592 -987h-301zM774 1573q-97 0 -156.5 30.5t-87.5 86t-28 131.5q0 17 2.5 42t5.5 48h198q-4 -22 -6 -44t-2 -40
q0 -49 21 -76t67 -27q56 0 93 47.5t57 139.5h198q-25 -118 -75 -192.5t-122 -110t-165 -35.5z" />
    <glyph glyph-name="uni041A" unicode="&#x41a;" horiz-adv-x="948" 
d="M-4 0l309 1462h256l-149 -700l450 700h279l-484 -712l181 -750h-271l-159 745l-156 -745h-256z" />
    <glyph glyph-name="uni041B" unicode="&#x41b;" horiz-adv-x="1055" 
d="M12 -16q-28 0 -57.5 4.5t-52.5 13.5v223q21 -9 43 -13.5t39 -4.5q26 0 49.5 13.5t47 48t46.5 96.5q23 61 59.5 175.5t82.5 264.5t96 319l100 338h668l-312 -1462h-256l260 1221h-186q-25 -88 -56 -196.5t-65.5 -223t-68.5 -221.5t-65 -195t-54 -143q-41 -90 -84 -147
t-98.5 -84t-135.5 -27z" />
    <glyph glyph-name="uni041C" unicode="&#x41c;" horiz-adv-x="1425" 
d="M-4 0l309 1462h340l31 -1013h6l446 1013h363l-311 -1462h-250l174 821q6 28 13.5 56t15 56.5t14.5 57.5h-4l-447 -991h-223l-29 985h-6q-7 -42 -13 -80t-12 -73t-14 -68l-161 -764h-242z" />
    <glyph glyph-name="uni041D" unicode="&#x41d;" horiz-adv-x="1075" 
d="M-4 0l309 1462h256l-125 -585h324l125 585h256l-312 -1462h-256l138 649h-322l-137 -649h-256z" />
    <glyph glyph-name="uni041E" unicode="&#x41e;" horiz-adv-x="1098" 
d="M446 -20q-126 0 -209 49.5t-124 152.5t-41 262q0 113 18.5 233t54.5 237t90 220t125.5 182t160.5 124t194 45q192 0 280 -115t88 -342q0 -97 -15.5 -211.5t-48 -232t-83.5 -225.5t-121.5 -193.5t-162.5 -135.5t-206 -50zM467 209q58 0 106.5 41t87.5 110.5t68.5 156.5
t49.5 180t30 180.5t10 156.5q0 114 -31.5 168.5t-93.5 54.5q-60 0 -110 -42t-89 -113t-68.5 -158.5t-48.5 -179.5t-28.5 -175.5t-9.5 -146.5q0 -88 14 -139t42.5 -72.5t70.5 -21.5z" />
    <glyph glyph-name="uni041F" unicode="&#x41f;" horiz-adv-x="1055" 
d="M-4 0l309 1462h815l-309 -1462h-256l262 1235h-305l-260 -1235h-256z" />
    <glyph glyph-name="uni0420" unicode="&#x420;" horiz-adv-x="909" 
d="M-4 0l309 1462h291q126 0 207 -41.5t119.5 -117t38.5 -177.5q0 -113 -31 -219.5t-94.5 -192t-159.5 -136t-227 -50.5h-87l-110 -528h-256zM410 752h41q79 0 133.5 43t83 120t28.5 179q0 77 -35.5 111t-107.5 34h-39z" />
    <glyph glyph-name="uni0421" unicode="&#x421;" horiz-adv-x="881" 
d="M424 -20q-115 0 -193.5 55.5t-118.5 161t-40 254.5q0 134 27 277.5t80.5 278t132 242t181.5 171t230 63.5q81 0 157.5 -20.5t139.5 -67.5l-125 -205q-41 34 -82 50.5t-84 16.5q-80 0 -142.5 -59t-108.5 -153.5t-76.5 -203t-45 -208.5t-14.5 -168q0 -136 37 -197t113 -61
q56 0 113.5 17.5t115.5 45.5v-229q-67 -32 -146 -46.5t-151 -14.5z" />
    <glyph glyph-name="uni0422" unicode="&#x422;" horiz-adv-x="795" 
d="M143 0l263 1235h-244l49 227h743l-49 -227h-243l-263 -1235h-256z" />
    <glyph glyph-name="uni0423" unicode="&#x423;" horiz-adv-x="879" 
d="M104 -18q-53 0 -89 7t-68 19v225q28 -16 67 -23t64 -7q34 0 59.5 11.5t47 37t43 67t48.5 101.5l-90 1042h263l24 -485q2 -29 4 -73t3.5 -85.5t2.5 -66.5q22 53 48 116t55 129l207 465h274l-532 -1089q-52 -107 -113 -196t-138 -142t-180 -53z" />
    <glyph glyph-name="uni0424" unicode="&#x424;" horiz-adv-x="1294" 
d="M389 -20l49 225q-108 5 -187.5 50t-123 131.5t-43.5 215.5q0 134 36 257.5t108.5 222t183 157.5t258.5 64l39 180h247l-36 -180q107 -5 186 -54.5t122.5 -137t43.5 -206.5q0 -137 -37.5 -262.5t-111.5 -223.5t-183.5 -155t-253.5 -59l-49 -225h-248zM483 422l142 663
q-73 -1 -127 -44.5t-89 -114t-52 -152t-17 -158.5q0 -65 16 -107.5t48 -63.5t79 -23zM731 422q66 1 118.5 41.5t89 108t56 149t19.5 164.5q0 66 -16.5 110t-48 66.5t-77.5 23.5z" />
    <glyph glyph-name="uni0425" unicode="&#x425;" horiz-adv-x="897" 
d="M-119 0l455 750l-121 712h266l56 -448l235 448h275l-420 -717l139 -745h-277l-57 483l-278 -483h-273z" />
    <glyph glyph-name="uni0426" unicode="&#x426;" horiz-adv-x="1137" 
d="M637 -424l90 424h-729l311 1462h256l-264 -1237h320l264 1237h256l-264 -1237h149l-139 -649h-250z" />
    <glyph glyph-name="uni0427" unicode="&#x427;" horiz-adv-x="1016" 
d="M510 0l117 557q-61 -29 -129.5 -52.5t-128.5 -23.5q-79 0 -131 31t-77.5 88t-25.5 133q0 34 5.5 79.5t15.5 88.5l120 561h256l-112 -526q-7 -37 -12 -65.5t-5 -53.5q0 -57 21.5 -82.5t64.5 -25.5q47 0 95 21t88 44l147 688h256l-309 -1462h-256z" />
    <glyph glyph-name="uni0428" unicode="&#x428;" horiz-adv-x="1528" 
d="M-4 0l309 1462h256l-264 -1237h264l264 1237h256l-264 -1237h262l262 1237h256l-309 -1462h-1292z" />
    <glyph glyph-name="uni0429" unicode="&#x429;" horiz-adv-x="1587" 
d="M1096 -424l92 424h-1192l309 1462h256l-264 -1237h264l264 1237h256l-264 -1237h262l264 1237h256l-264 -1237h150l-139 -649h-250z" />
    <glyph glyph-name="uni042A" unicode="&#x42a;" horiz-adv-x="1055" 
d="M137 0l260 1233h-243l47 229h504l-121 -565h49q115 0 193 -38t118.5 -114t40.5 -190q0 -108 -31 -208t-95 -178t-163.5 -123.5t-236.5 -45.5h-322zM442 223h64q69 0 117.5 39.5t74 110.5t25.5 164q0 72 -38 104.5t-107 32.5h-39z" />
    <glyph glyph-name="uni042B" unicode="&#x42b;" horiz-adv-x="1393" 
d="M-4 0l309 1462h256l-121 -565h52q116 0 194 -38t118 -113.5t40 -188.5q0 -105 -30 -204.5t-94 -179t-164 -126.5t-241 -47h-319zM297 223h63q55 0 96 24t68.5 67t41.5 100t14 123q0 72 -38 104.5t-112 32.5h-37zM889 0l311 1462h256l-311 -1462h-256z" />
    <glyph glyph-name="uni042C" unicode="&#x42c;" horiz-adv-x="913" 
d="M-4 0l309 1462h256l-121 -565h52q116 0 194 -38.5t118 -114t40 -187.5q0 -105 -30 -204.5t-94 -179t-164 -126.5t-241 -47h-319zM297 223h63q55 0 96 24t68.5 67t41.5 100t14 123q0 74 -38.5 105.5t-109.5 31.5h-39z" />
    <glyph glyph-name="uni042D" unicode="&#x42d;" horiz-adv-x="926" 
d="M250 -20q-86 0 -148 15t-112 46v235q39 -24 83 -39t88 -22.5t83 -7.5q79 0 144 49t115.5 146t84.5 239h-379l47 225h371q5 25 7.5 56t2.5 59q0 90 -18.5 151.5t-55 93t-90.5 31.5q-57 0 -105.5 -16.5t-113.5 -50.5l-64 199q79 46 159 70t165 24q120 0 206.5 -57
t132.5 -171t46 -286q0 -128 -24.5 -266t-75 -266.5t-127.5 -232t-182.5 -164t-239.5 -60.5z" />
    <glyph glyph-name="uni042E" unicode="&#x42e;" horiz-adv-x="1475" 
d="M858 -20q-117 0 -194 47.5t-114.5 147.5t-37.5 255q0 47 4.5 102t13.5 115h-141l-137 -647h-256l309 1462h256l-125 -588h137q29 113 76 222t113.5 197t154.5 140t199 52q166 0 256 -107t90 -338q0 -94 -15 -208t-46 -233.5t-79.5 -229.5t-115.5 -198t-153.5 -139.5
t-194.5 -51.5zM868 209q56 0 102 47.5t82.5 126.5t63.5 173t44.5 189t26.5 175t9 129q0 106 -27.5 157t-81.5 51t-99 -44.5t-81.5 -119.5t-64 -165.5t-45.5 -184t-27.5 -176t-9.5 -139.5q0 -84 12 -132t36.5 -67.5t59.5 -19.5z" />
    <glyph glyph-name="uni042F" unicode="&#x42f;" horiz-adv-x="950" 
d="M-125 0l414 641q-57 38 -88 107.5t-31 169.5q0 117 34 216.5t101 173t166.5 114t230.5 40.5h312l-309 -1462h-256l120 573h-55l-354 -573h-285zM565 786h49l97 457h-56q-57 0 -99 -25.5t-69.5 -69.5t-41 -98.5t-13.5 -113.5q0 -72 35 -111t98 -39z" />
    <glyph glyph-name="uni0430" unicode="&#x430;" horiz-adv-x="932" 
d="M264 -20q-70 0 -120.5 38.5t-77.5 111t-27 173.5q0 90 17 200.5t51 222t87 204.5t125 150t164 57q45 0 82.5 -16.5t66.5 -51t46 -90.5h6l49 137h213l-237 -1116h-199l2 145h-6q-36 -49 -72 -86t-77 -58t-93 -21zM367 188q55 0 95 52t67.5 128.5t45.5 149.5q23 97 31 158
t8 110q0 66 -22 101t-64 35q-43 0 -79.5 -41.5t-65 -108.5t-49 -146t-31 -155.5t-10.5 -134.5q0 -73 18.5 -110.5t55.5 -37.5z" />
    <glyph glyph-name="uni0431" unicode="&#x431;" horiz-adv-x="903" 
d="M360 -20q-91 0 -162 38.5t-112 124.5t-41 230q0 109 15.5 242t53 271.5t104 263.5t168 218t245.5 135q29 9 67 18.5t84.5 18.5t101 17.5t117.5 15.5v-227q-58 -5 -110.5 -12t-104.5 -16.5t-110 -25.5q-84 -23 -142 -79t-95.5 -134t-61.5 -170h8q43 60 102 94.5t123 34.5
q71 0 125 -34t84.5 -106t30.5 -187q0 -124 -33.5 -252.5t-97 -237t-154 -175t-205.5 -66.5zM373 188q41 0 75.5 35t61 92.5t45 125t28 133t9.5 116.5q0 56 -15 101t-65 45q-30 0 -64.5 -23.5t-65.5 -61t-52 -79.5q-19 -91 -29 -170t-10 -144q0 -56 9.5 -94t27.5 -57t45 -19z
" />
    <glyph glyph-name="uni0432" unicode="&#x432;" horiz-adv-x="944" 
d="M385 -20q-96 0 -173.5 40t-123 121t-45.5 205q0 100 17 209.5t56 213t102.5 186.5t156.5 132.5t219 49.5q97 0 168.5 -31t111 -91t39.5 -147q0 -71 -27 -128.5t-82 -97.5t-140 -62l-2 -7q65 -13 111 -70t46 -161q0 -95 -48.5 -177.5t-145 -133.5t-240.5 -51zM418 168
q43 0 78 24t56 64.5t21 89.5q0 42 -14.5 72.5t-45.5 47.5t-79 17h-131q-6 -37 -9 -68t-3 -69q0 -100 35 -139t92 -39zM344 666h129q59 0 100 21.5t62.5 61t21.5 93.5q0 50 -22.5 78t-67.5 28q-57 0 -99 -38t-72 -102t-52 -142z" />
    <glyph glyph-name="uni0433" unicode="&#x433;" horiz-adv-x="745" 
d="M326 -20q-90 0 -161 25t-113.5 84.5t-45.5 160.5q0 73 19.5 132t54.5 106.5t83 85.5t105 69q60 34 105.5 66t71.5 67.5t26 81.5q0 38 -24.5 55t-61.5 17q-52 0 -95.5 -18t-80.5 -40l-59 181q66 40 135 62t145 22q98 0 163 -33.5t97.5 -94.5t32.5 -145q0 -69 -18.5 -124.5
t-52.5 -100.5t-80 -80.5t-101 -64.5q-79 -43 -123.5 -77t-63 -67.5t-18.5 -75.5q0 -44 31.5 -65t77.5 -21q34 0 72 8t77 23t76 35v-209q-63 -34 -134.5 -49.5t-139.5 -15.5z" />
    <glyph glyph-name="uni0434" unicode="&#x434;" horiz-adv-x="936" 
d="M375 -20q-106 0 -180 41.5t-112 119t-38 185.5q0 79 15 175.5t47 192t84 176t125.5 129t170.5 48.5q42 0 78 -11t64 -28.5t45 -38.5h4q6 40 7 78.5t1 70.5q0 137 -35.5 195.5t-109.5 58.5q-46 0 -93.5 -16.5t-101.5 -48.5l-53 194q68 38 146 57t145 19q117 0 194.5 -57.5
t116.5 -163.5t39 -254q0 -102 -11.5 -224.5t-37 -248.5t-67.5 -242t-104 -208t-146 -145.5t-193 -53.5zM385 180q45 0 82.5 41t67 108t51 145t35.5 154t20 134q-10 23 -28.5 42t-42 30.5t-50.5 11.5q-45 0 -81.5 -36.5t-63.5 -95.5t-45.5 -129t-27.5 -138t-9 -121
q0 -74 22.5 -110t69.5 -36z" />
    <glyph glyph-name="uni0435" unicode="&#x435;" horiz-adv-x="864" 
d="M373 -20q-102 0 -176 42.5t-114 123t-40 192.5q0 148 34 290t100 256.5t164.5 182.5t227.5 68q123 0 199 -69t76 -192q0 -97 -37 -171.5t-107 -124.5t-167.5 -75.5t-219.5 -25.5h-16q-6 -28 -9 -56.5t-3 -55.5q0 -99 37 -142t110 -43q65 0 119 16.5t127 57.5v-191
q-73 -47 -148.5 -65t-156.5 -18zM332 655h6q105 0 165.5 25.5t86.5 70.5t26 101q0 40 -20.5 64t-60.5 24q-41 0 -79 -34t-69.5 -97.5t-54.5 -153.5z" />
    <glyph glyph-name="uni0436" unicode="&#x436;" horiz-adv-x="1495" 
d="M16 -18q-25 0 -49.5 2.5t-50.5 9.5l59 207q10 -3 20.5 -4.5t27.5 -1.5q55 0 97.5 41t73.5 107t50.5 142.5t29 148.5t9.5 124q0 84 -26 124t-77 40q-13 0 -28.5 -3t-30.5 -8v205q25 9 55 14t62 5q140 0 214 -89.5t74 -252.5q0 -29 -2.5 -60t-7.5 -63h129l96 446h238
l-94 -446h119q24 94 62 178t94 148.5t131.5 101.5t172.5 37q25 0 49.5 -2t49.5 -9l-60 -209q-9 4 -19 5.5t-26 1.5q-50 0 -91.5 -37.5t-73 -99.5t-52.5 -136.5t-32 -150.5t-11 -140q0 -82 26 -122.5t76 -40.5q16 0 31 2t31 8v-205q-25 -7 -56 -12.5t-63 -5.5
q-93 0 -157.5 40t-98 116.5t-33.5 185.5q0 34 2.5 70.5t6.5 74.5h-123l-99 -469h-237l98 469h-119q-33 -124 -78.5 -216t-103.5 -152t-129 -89.5t-156 -29.5z" />
    <glyph glyph-name="uni0437" unicode="&#x437;" horiz-adv-x="739" 
d="M244 -20q-79 0 -151 15.5t-128 47.5v227q63 -43 128.5 -62.5t123.5 -19.5t97.5 22t60 61t20.5 91q0 62 -33 93.5t-104 31.5h-94l39 185h82q50 0 91 19.5t65 55t24 82.5q0 54 -24 78.5t-68 24.5q-42 0 -82.5 -13.5t-89.5 -39.5l-62 178q82 49 152 64.5t143 15.5
q91 0 153 -30.5t94 -89.5t32 -143q0 -71 -26 -127t-74 -94.5t-115 -60.5l-2 -8q72 -20 109.5 -82t37.5 -150q0 -103 -47.5 -187.5t-137 -134.5t-214.5 -50z" />
    <glyph glyph-name="uni0438" unicode="&#x438;" horiz-adv-x="926" 
d="M266 -20q-71 0 -120.5 28.5t-75 82t-25.5 128.5q0 37 6.5 83.5t14.5 90.5l155 723h244l-139 -663q-11 -46 -17 -89t-6 -77q0 -40 16.5 -63t51.5 -23q48 0 84.5 41t64 115t47.5 173l127 586h244l-236 -1116h-196l8 135h-6q-32 -48 -70 -82.5t-81 -53.5t-91 -19z" />
    <glyph glyph-name="uni0439" unicode="&#x439;" horiz-adv-x="926" 
d="M266 -20q-71 0 -120.5 28.5t-75 82t-25.5 128.5q0 37 6.5 83.5t14.5 90.5l155 723h244l-139 -663q-11 -46 -17 -89t-6 -77q0 -40 16.5 -63t51.5 -23q48 0 84.5 41t64 115t47.5 173l127 586h244l-236 -1116h-196l8 135h-6q-32 -48 -70 -82.5t-81 -53.5t-91 -19zM600 1235
q-97 0 -156.5 30.5t-87.5 86t-28 131.5q0 17 2.5 42t5.5 48h198q-4 -22 -6 -44t-2 -40q0 -49 21 -76t67 -27q56 0 93 47.5t57 139.5h198q-25 -118 -75 -192.5t-122 -110t-165 -35.5z" />
    <glyph glyph-name="uni043A" unicode="&#x43a;" horiz-adv-x="877" 
d="M-12 0l237 1116h246l-113 -524l344 524h271l-379 -545l166 -571h-264l-144 555l-119 -555h-245z" />
    <glyph glyph-name="uni043B" unicode="&#x43b;" horiz-adv-x="922" 
d="M12 -16q-35 0 -57 6t-47 18v213q15 -12 33 -16t36 -4q29 0 55 18t50 62.5t47 122.5t47 198q26 134 65.5 233t97.5 164.5t141.5 98t197.5 32.5q78 0 138 -5.5t132 -14.5l-233 -1110h-246l193 913q-8 2 -18 2h-21q-60 0 -100.5 -41.5t-70.5 -131t-61 -234.5
q-24 -108 -53.5 -203t-72.5 -167t-104.5 -113t-148.5 -41z" />
    <glyph glyph-name="uni043C" unicode="&#x43c;" horiz-adv-x="1188" 
d="M-14 0l237 1116h330v-715h4l299 715h342l-235 -1116h-234l111 526q14 56 26 109t25 108h-2l-322 -743h-186l-10 743h-2q-10 -50 -18 -98t-17 -100l-117 -545h-231z" />
    <glyph glyph-name="uni043D" unicode="&#x43d;" horiz-adv-x="934" 
d="M-14 0l239 1116h246l-94 -436h229l92 436h246l-237 -1116h-244l100 469h-231l-99 -469h-247z" />
    <glyph glyph-name="uni043E" unicode="&#x43e;" horiz-adv-x="909" 
d="M354 -20q-98 0 -167.5 43t-106.5 124t-37 195q0 87 17.5 192.5t54.5 211.5t97.5 194.5t146.5 142.5t200 54q97 0 165.5 -44t105 -125.5t36.5 -195.5q0 -98 -18.5 -207t-57.5 -213t-99.5 -188t-144.5 -134t-192 -50zM383 188q43 0 80 40t65.5 106t48.5 144.5t30.5 156
t10.5 139.5q0 49 -9.5 83.5t-30 52.5t-52.5 18q-46 0 -83.5 -42t-66 -110t-47.5 -147.5t-28.5 -155.5t-9.5 -133q0 -72 23 -112t69 -40z" />
    <glyph glyph-name="uni043F" unicode="&#x43f;" horiz-adv-x="926" 
d="M-14 0l237 1116h197l-10 -139h6q31 50 68.5 86t81 55t91.5 19q59 0 110 -23t82.5 -75t31.5 -140q0 -37 -7 -84t-18 -102l-152 -713h-245l139 655q9 48 17 94t8 80q0 41 -16.5 62.5t-53.5 21.5q-48 0 -84.5 -40.5t-63.5 -113.5t-49 -171l-123 -588h-247z" />
    <glyph glyph-name="uni0440" unicode="&#x440;" horiz-adv-x="928" 
d="M-115 -483l338 1599h201l-12 -151h8q38 60 77 98t82 56t91 18q70 0 119.5 -35.5t76.5 -107.5t27 -183q0 -96 -18 -208t-54 -222t-89.5 -201t-125 -145.5t-160.5 -54.5q-46 0 -83 17.5t-64 50.5t-43 79h-6q-7 -55 -16 -105t-15 -85l-90 -420h-244zM403 195q43 0 79.5 40.5
t65.5 107t49.5 144.5t31 155t10.5 138q0 76 -18.5 112t-53.5 36q-39 0 -73 -31.5t-61.5 -84t-49 -117t-36.5 -132t-22.5 -127.5t-7.5 -104q0 -69 21.5 -103t64.5 -34z" />
    <glyph glyph-name="uni0441" unicode="&#x441;" horiz-adv-x="735" 
d="M340 -20q-95 0 -161 41.5t-100 119.5t-34 189q0 100 18 211t56 217t98.5 191.5t146 136.5t197.5 51q69 0 127.5 -17.5t110.5 -52.5l-101 -197q-29 23 -65 37.5t-70 14.5q-70 0 -120.5 -59t-82 -148.5t-46.5 -184t-15 -165.5q0 -57 11.5 -95.5t35 -57.5t57.5 -19
q42 0 92 19.5t105 59.5v-213q-47 -32 -116.5 -55.5t-143.5 -23.5z" />
    </font>
</defs>
</svg>
