<?xml version="1.0" standalone="no"?>
<!DOCTYPE svg PUBLIC "-//W3C//DTD SVG 1.1//EN" "http://www.w3.org/Graphics/SVG/1.1/DTD/svg11.dtd" >
<svg xmlns="http://www.w3.org/2000/svg" xmlns:xlink="http://www.w3.org/1999/xlink" version="1.1">
<metadata>
Created by FontForge 20170731 at Wed Feb 10 17:54:37 2021
 By Aleksey,,,
Copyright 2020 The Open Sans Project Authors (https://github.com/googlefonts/opensans)
</metadata>
<defs>
<font id="OpenSans-BoldItalic" horiz-adv-x="0" >
  <font-face 
    font-family="Open Sans"
    font-weight="700"
    font-style="italic"
    font-stretch="normal"
    units-per-em="2048"
    panose-1="0 0 0 0 0 0 0 0 0 0"
    ascent="1638"
    descent="-410"
    x-height="1118"
    cap-height="1462"
    bbox="-1051 -604 2664 2152"
    underline-thickness="50"
    underline-position="-175"
    slope="-12"
    unicode-range="U+000D-FFFD"
  />
<missing-glyph horiz-adv-x="1229" 
 />
    <glyph glyph-name="f_f" unicode="ff" horiz-adv-x="1460" 
d="M-45 -492q-48 0 -95.5 7.5t-78.5 17.5v242q32 -11 59 -16t56 -5q61 0 107 40.5t65 129.5l204 965h-163l30 145l183 84l18 84q22 102 58.5 172t87.5 112.5t117.5 61.5t148.5 19q69 0 127.5 -13t107.5 -36l-80 -224q-29 13 -61 22t-72 9q-57 0 -92 -40t-47 -105l-12 -62
h395l18 84q23 102 59 172t87 112.5t117.5 61.5t148.5 19q69 0 127.5 -13t107.5 -36l-79 -224q-29 13 -61 22t-73 9q-56 0 -91 -40t-48 -105l-12 -62h219l-49 -229h-219l-215 -1010q-21 -102 -68 -186.5t-128.5 -134.5t-207.5 -50q-47 0 -95 7.5t-79 17.5v242q32 -11 59 -16
t56 -5q62 0 107.5 40.5t64.5 129.5l205 965h-396l-215 -1010q-21 -102 -67.5 -186.5t-128 -134.5t-207.5 -50z" />
    <glyph glyph-name="fi" unicode="fi" horiz-adv-x="1372" 
d="M-45 -492q-48 0 -95.5 7.5t-78.5 17.5v242q32 -11 59 -16t56 -5q61 0 107 40.5t65 129.5l204 965h-163l30 145l183 84l18 84q22 102 58.5 172t87.5 112.5t117.5 61.5t148.5 19q69 0 127.5 -13t107.5 -36l-80 -224q-29 13 -61 22t-72 9q-57 0 -92 -40t-47 -105l-12 -62
h219l-49 -229h-220l-215 -1010q-21 -102 -67.5 -186.5t-128 -134.5t-207.5 -50zM801 0l237 1118h301l-237 -1118h-301zM1237 1257q-64 0 -107.5 28t-43.5 95q0 58 21.5 97t62.5 59t98 20q60 0 104.5 -26t44.5 -94q0 -80 -44 -129.5t-136 -49.5z" />
    <glyph glyph-name="fl" unicode="fl" horiz-adv-x="1372" 
d="M-45 -492q-48 0 -95.5 7.5t-78.5 17.5v242q32 -11 59 -16t56 -5q61 0 107 40.5t65 129.5l204 965h-163l30 145l183 84l18 84q22 102 58.5 172t87.5 112.5t117.5 61.5t148.5 19q69 0 127.5 -13t107.5 -36l-80 -224q-29 13 -61 22t-72 9q-57 0 -92 -40t-47 -105l-12 -62
h219l-49 -229h-220l-215 -1010q-21 -102 -67.5 -186.5t-128 -134.5t-207.5 -50zM801 0l330 1556h301l-330 -1556h-301z" />
    <glyph glyph-name="f_f_i" unicode="ffi" horiz-adv-x="2048" 
d="M-45 -492q-48 0 -95.5 7.5t-78.5 17.5v242q32 -11 59 -16t56 -5q61 0 107 40.5t65 129.5l204 965h-163l30 145l183 84l18 84q22 102 58.5 172t87.5 112.5t117.5 61.5t148.5 19q69 0 127.5 -13t107.5 -36l-80 -224q-29 13 -61 22t-72 9q-57 0 -92 -40t-47 -105l-12 -62
h395l18 84q23 102 59 172t87 112.5t117.5 61.5t148.5 19q69 0 127.5 -13t107.5 -36l-79 -224q-29 13 -61 22t-73 9q-56 0 -91 -40t-48 -105l-12 -62h219l-49 -229h-219l-215 -1010q-21 -102 -68 -186.5t-128.5 -134.5t-207.5 -50q-47 0 -95 7.5t-79 17.5v242q32 -11 59 -16
t56 -5q62 0 107.5 40.5t64.5 129.5l205 965h-396l-215 -1010q-21 -102 -67.5 -186.5t-128 -134.5t-207.5 -50zM1477 0l237 1118h301l-237 -1118h-301zM1913 1257q-64 0 -108 28t-44 95q0 58 22 97t63 59t98 20q59 0 104 -26t45 -94q0 -80 -44 -129.5t-136 -49.5z" />
    <glyph glyph-name="f_f_l" unicode="ffl" horiz-adv-x="2048" 
d="M-45 -492q-48 0 -95.5 7.5t-78.5 17.5v242q32 -11 59 -16t56 -5q61 0 107 40.5t65 129.5l204 965h-163l30 145l183 84l18 84q22 102 58.5 172t87.5 112.5t117.5 61.5t148.5 19q69 0 127.5 -13t107.5 -36l-80 -224q-29 13 -61 22t-72 9q-57 0 -92 -40t-47 -105l-12 -62
h395l18 84q23 102 59 172t87 112.5t117.5 61.5t148.5 19q69 0 127.5 -13t107.5 -36l-79 -224q-29 13 -61 22t-73 9q-56 0 -91 -40t-48 -105l-12 -62h219l-49 -229h-219l-215 -1010q-21 -102 -68 -186.5t-128.5 -134.5t-207.5 -50q-47 0 -95 7.5t-79 17.5v242q32 -11 59 -16
t56 -5q62 0 107.5 40.5t64.5 129.5l205 965h-396l-215 -1010q-21 -102 -67.5 -186.5t-128 -134.5t-207.5 -50zM1477 0l329 1556h301l-329 -1556h-301z" />
    <glyph glyph-name=".notdef" horiz-adv-x="1229" 
 />
    <glyph glyph-name=".null" 
 />
    <glyph glyph-name="nonmarkingreturn" horiz-adv-x="682" 
 />
    <glyph glyph-name="NULL" 
 />
    <glyph glyph-name="NULL" 
 />
    <glyph glyph-name="CR" unicode="&#xd;" horiz-adv-x="532" 
 />
    <glyph glyph-name="space" unicode=" " horiz-adv-x="532" 
 />
    <glyph glyph-name="exclam" unicode="!" horiz-adv-x="586" 
d="M141 485l166 977h340l-248 -977h-258zM180 -27q-85 0 -120 44t-35 98q0 74 46 136t158 62q68 0 109 -38t41 -107q0 -85 -54 -140t-145 -55z" />
    <glyph glyph-name="quotedbl" unicode="&#x22;" horiz-adv-x="928" 
d="M604 934l74 528h276l-151 -528h-199zM201 934l71 528h277l-152 -528h-196z" />
    <glyph glyph-name="numbersign" unicode="#" horiz-adv-x="1323" 
d="M166 0l113 408h-238l18 206h277l70 232h-252l18 209h289l119 407h217l-117 -407h199l116 407h215l-116 -407h239l-18 -209h-279l-69 -232h258l-19 -206h-297l-116 -408h-220l117 408h-194l-115 -408h-215zM553 614h197l69 232h-196z" />
    <glyph glyph-name="dollar" unicode="$" horiz-adv-x="1128" 
d="M362 -119l44 201q-105 6 -193 27t-162 59v266q77 -43 181.5 -77.5t222.5 -39.5l71 322q-89 34 -161.5 81.5t-115 116.5t-42.5 167q0 123 61.5 209t169 134.5t246.5 57.5l35 151h139l-33 -151q83 -10 153 -31t142 -59l-106 -232q-57 28 -120 49t-122 25l-63 -299
q92 -36 165.5 -80.5t116.5 -111.5t43 -170q0 -112 -50.5 -201.5t-159 -146t-283.5 -68.5l-39 -199h-140zM594 322q42 6 74 24t49.5 48t17.5 71q0 31 -11 54t-30 39.5t-43 25.5zM582 911l51 246q-35 -4 -65 -18.5t-48 -43t-18 -73.5q0 -24 8.5 -45t26 -37.5t45.5 -28.5z" />
    <glyph glyph-name="percent" unicode="%" horiz-adv-x="1753" 
d="M231 0l1088 1462h235l-1083 -1462h-240zM397 565q-138 0 -210 84t-72 236q0 72 13.5 154t43.5 160.5t78.5 142.5t119 102.5t165.5 38.5q137 0 211.5 -80.5t74.5 -237.5q0 -70 -13.5 -151t-43.5 -160.5t-79.5 -144.5t-120.5 -104.5t-167 -39.5zM416 772q29 0 54 26
t44.5 69.5t33 97t20.5 109t7 104.5t-14 72.5t-43 23.5q-27 0 -51 -24.5t-43.5 -66t-34 -94.5t-22 -110t-7.5 -111q0 -47 14 -71.5t42 -24.5zM1262 -18q-143 0 -216 79t-73 222q0 86 14.5 173.5t45.5 167t80 141.5t118.5 98t161.5 36q137 0 211.5 -79t74.5 -230
q0 -74 -13.5 -157.5t-43.5 -163.5t-78.5 -145t-118.5 -103.5t-163 -38.5zM1274 188q29 0 54 26t44.5 69.5t33.5 97t21 109t7 104.5t-14.5 72.5t-43.5 23.5q-27 0 -51 -24.5t-43.5 -66t-33.5 -94t-21.5 -109.5t-7.5 -111q0 -48 13.5 -72.5t41.5 -24.5z" />
    <glyph glyph-name="ampersand" unicode="&#x26;" horiz-adv-x="1450" 
d="M500 -20q-208 0 -320 98t-112 280q0 103 38 181.5t116 143.5t198 124q-38 65 -57 130t-19 128q0 138 57 231.5t155 141t222 47.5q128 0 208 -43t117.5 -112.5t37.5 -151.5q0 -101 -43.5 -180t-125.5 -139.5t-196 -106.5l195 -263q57 73 92 143.5t67 151.5h300
q-41 -97 -88 -184.5t-101.5 -165.5t-120.5 -147l205 -287h-350l-72 98q-79 -53 -176.5 -85.5t-226.5 -32.5zM545 236q44 0 83.5 8t74 21.5t63.5 29.5l-225 328q-48 -28 -83.5 -60t-55 -74t-19.5 -102q0 -40 19 -74.5t55.5 -55.5t87.5 -21zM662 920q41 21 76.5 43.5t63 49
t43 59t15.5 71.5q0 57 -30 82.5t-70 25.5q-46 0 -77 -22.5t-46.5 -60t-15.5 -83.5t12 -92t29 -73z" />
    <glyph glyph-name="quotesingle" unicode="'" horiz-adv-x="522" 
d="M201 934l71 528h277l-152 -528h-196z" />
    <glyph glyph-name="parenleft" unicode="(" horiz-adv-x="694" 
d="M223 -324q-50 89 -83 187t-49.5 203t-16.5 215q0 177 32.5 336.5t96.5 304.5t158 279t217 261h262q-109 -119 -200.5 -251.5t-158.5 -280.5t-104 -312.5t-37 -347.5q0 -104 14 -206.5t40 -200t63 -187.5h-234z" />
    <glyph glyph-name="parenright" unicode=")" horiz-adv-x="694" 
d="M-147 -324q109 119 200 252t158 280.5t104 312t37 347.5q0 105 -14 207t-39.5 199.5t-62.5 187.5h233q50 -88 83 -186t49.5 -203t16.5 -215q0 -177 -32.5 -336.5t-96.5 -305t-157.5 -279.5t-216.5 -261h-262z" />
    <glyph glyph-name="asterisk" unicode="*" horiz-adv-x="1116" 
d="M717 578l-90 337l-197 -278l-207 164l275 248l-326 92l86 237l338 -174l33 369l256 -51l-113 -353l387 29l-18 -254l-338 43l160 -336z" />
    <glyph glyph-name="plus" unicode="+" horiz-adv-x="1171" 
d="M715 831h387v-219h-387v-385h-219v385h-387v219h387v390h219v-390z" />
    <glyph glyph-name="comma" unicode="," horiz-adv-x="584" 
d="M-102 -264q36 81 70.5 170t66.5 175t57 157h285l8 -23q-33 -72 -75.5 -155t-90.5 -166t-96 -158h-225z" />
    <glyph glyph-name="hyphen" unicode="-" horiz-adv-x="659" 
d="M41 424l53 250h524l-53 -250h-524z" />
    <glyph glyph-name="period" unicode="." horiz-adv-x="584" 
d="M180 -27q-85 0 -120 44t-35 98q0 74 46 136t158 62q68 0 109 -38t41 -107q0 -85 -54 -140t-145 -55z" />
    <glyph glyph-name="slash" unicode="/" horiz-adv-x="862" 
d="M-90 0l809 1462h295l-809 -1462h-295z" />
    <glyph glyph-name="zero" unicode="0" horiz-adv-x="1128" 
d="M469 -20q-207 0 -305 127t-98 360q0 134 18.5 260.5t55 240.5t91 208.5t126 163.5t160.5 107t194 38q94 0 168 -27.5t125.5 -85.5t78.5 -147.5t27 -212.5q0 -130 -16 -256.5t-49.5 -242t-85 -212.5t-123 -169t-163 -112t-204.5 -40zM494 229q49 0 91 35.5t76.5 97.5
t61.5 142t46 169t28.5 178.5t9.5 170.5q0 110 -30.5 161.5t-92.5 51.5q-51 0 -94.5 -39t-78.5 -105t-61.5 -148t-44.5 -169t-27 -168t-9 -145q0 -114 27.5 -173t97.5 -59z" />
    <glyph glyph-name="one" unicode="1" horiz-adv-x="1128" 
d="M383 0l180 829q8 35 20.5 85.5t27.5 104t28 97.5q-19 -15 -58 -44.5t-71 -49.5l-195 -123l-133 215l566 348h249l-309 -1462h-305z" />
    <glyph glyph-name="two" unicode="2" horiz-adv-x="1128" 
d="M-49 0l43 213l477 424q89 79 150 141t97.5 112.5t53 94.5t16.5 86q0 75 -41 114.5t-110 39.5q-49 0 -95.5 -16.5t-97.5 -50t-114 -85.5l-146 203q104 88 224.5 147.5t277.5 59.5q144 0 235 -51t134 -132.5t43 -173.5q0 -130 -56 -235.5t-153 -201.5t-221 -197l-269 -222
v-10h568l-54 -260h-962z" />
    <glyph glyph-name="three" unicode="3" horiz-adv-x="1128" 
d="M401 -20q-113 0 -213 19.5t-174 59.5v267q83 -49 182 -75t191 -26q73 0 133.5 14.5t104 44.5t67 75t23.5 106q0 49 -23 88t-79.5 61.5t-155.5 22.5h-138l46 221h73q65 0 129 12t116 39.5t83 72.5t31 110q0 59 -39 100t-125 41q-91 0 -162.5 -33t-124.5 -67l-127 204
q98 65 208 105.5t271 40.5q136 0 226 -44t135 -119.5t45 -170.5q0 -101 -41.5 -182.5t-120.5 -135.5t-194 -75v-8q110 -22 188 -95t78 -213q0 -87 -35.5 -169t-110 -147.5t-190.5 -104.5t-277 -39z" />
    <glyph glyph-name="four" unicode="4" horiz-adv-x="1128" 
d="M502 0l63 303h-590l48 234l770 925h311l-195 -919h170l-51 -240h-170l-63 -303h-293zM305 543h311l58 248q11 52 26.5 113.5t31 114.5t24.5 77h-11q-22 -40 -56.5 -88.5t-70.5 -92.5z" />
    <glyph glyph-name="five" unicode="5" horiz-adv-x="1128" 
d="M408 -20q-79 0 -150 10.5t-130 29t-101 41.5v269q74 -42 164 -70.5t188 -28.5q92 0 155 23t101 61.5t55 85.5t17 95q0 77 -48 132.5t-176 55.5q-61 0 -118.5 -11t-94.5 -22l-104 78l207 733h755l-55 -262h-489l-88 -293q24 5 56 10t71 5q111 0 200.5 -42t142 -128
t52.5 -220q0 -114 -36 -214t-110.5 -176t-189.5 -119t-274 -43z" />
    <glyph glyph-name="six" unicode="6" horiz-adv-x="1128" 
d="M516 -20q-141 0 -236.5 57t-143.5 166.5t-48 265.5q0 119 22 238t64 229.5t102 205t136 163.5q67 60 144 100t169.5 60t204.5 20q63 0 123 -8t100 -19l-51 -246q-37 11 -89 18t-102 7q-136 0 -233.5 -51t-163 -151.5t-106.5 -250.5h8q34 48 78.5 85.5t102.5 59t130 21.5
q151 0 239.5 -94t88.5 -276q0 -86 -26 -189.5t-87 -197t-165 -153.5t-261 -60zM530 227q56 0 98 28.5t70 76t42 106t14 119.5q0 71 -34 113.5t-102 42.5q-58 0 -106.5 -30.5t-80 -76.5t-40.5 -92q-3 -15 -4.5 -30.5t-2.5 -30.5t-1 -31q0 -42 9.5 -78t28.5 -62t46.5 -40.5
t62.5 -14.5z" />
    <glyph glyph-name="seven" unicode="7" horiz-adv-x="1128" 
d="M78 0l737 1202h-629l56 260h975l-41 -194l-752 -1268h-346z" />
    <glyph glyph-name="eight" unicode="8" horiz-adv-x="1128" 
d="M514 -20q-152 0 -254.5 48.5t-153.5 132.5t-51 189t40.5 185.5t118.5 140t189 100.5q-40 32 -78 75.5t-62.5 99t-24.5 124.5q0 113 55 206t163 148.5t265 55.5q136 0 226 -46t134.5 -122t44.5 -166q0 -105 -44 -181t-115 -125.5t-152 -78.5q54 -35 103.5 -84.5t81.5 -118
t32 -162.5q0 -107 -55.5 -203.5t-170.5 -157t-292 -60.5zM537 207q70 0 114.5 27.5t66 71.5t21.5 93q0 57 -20 101t-55.5 79t-81.5 64q-77 -29 -128 -66.5t-76.5 -85t-25.5 -108.5q0 -80 50 -128t135 -48zM651 893q58 23 99 54t63.5 72.5t22.5 94.5q0 68 -39.5 107
t-102.5 39q-53 0 -90 -22.5t-56.5 -60t-19.5 -83.5q0 -73 34 -121.5t89 -79.5z" />
    <glyph glyph-name="nine" unicode="9" horiz-adv-x="1128" 
d="M326 -20q-67 0 -133 10t-107 22v256q38 -13 99 -27t128 -14q111 0 189 38t129.5 102t83.5 143t53 162h-8q-33 -47 -75.5 -82.5t-96.5 -55.5t-123 -20q-117 0 -193 51t-112.5 139t-36.5 199q0 65 16 143t53.5 155.5t101 141.5t158.5 103t226 39q125 0 218 -50t144.5 -157
t51.5 -277q0 -108 -17.5 -223.5t-52.5 -227t-87 -209.5t-122 -171q-43 -45 -94 -80t-110.5 -59.5t-130 -37.5t-152.5 -13zM567 752q59 0 104.5 31.5t74 78t36.5 92.5q5 23 7 46.5t2 46.5q0 56 -15.5 99t-48 67t-82.5 24q-56 0 -97.5 -28t-69 -73.5t-41 -100t-13.5 -107.5
q0 -86 38 -131t105 -45z" />
    <glyph glyph-name="colon" unicode=":" horiz-adv-x="584" 
d="M362 799q-85 0 -120 43.5t-35 97.5q0 49 20 94.5t65 75t120 29.5q68 0 108.5 -38.5t40.5 -107.5q0 -84 -54 -139t-145 -55zM180 -27q-85 0 -120 44t-35 98q0 74 46 136t158 62q68 0 109 -38t41 -107q0 -85 -54 -140t-145 -55z" />
    <glyph glyph-name="semicolon" unicode=";" horiz-adv-x="584" 
d="M-102 -264q36 81 70.5 170t66.5 175t57 157h285l8 -23q-33 -72 -75.5 -155t-90.5 -166t-96 -158h-225zM362 799q-85 0 -120 43.5t-35 97.5q0 49 20 94.5t65 75t120 29.5q68 0 108.5 -38.5t40.5 -107.5q0 -84 -54 -139t-145 -55z" />
    <glyph glyph-name="less" unicode="&#x3c;" horiz-adv-x="1171" 
d="M1102 203l-993 438v143l993 496v-240l-684 -317l684 -281v-239z" />
    <glyph glyph-name="equal" unicode="=" horiz-adv-x="1171" 
d="M109 807v217h993v-217h-993zM109 418v219h993v-219h-993z" />
    <glyph glyph-name="greater" unicode="&#x3e;" horiz-adv-x="1171" 
d="M109 442l684 281l-684 317v240l993 -496v-143l-993 -438v239z" />
    <glyph glyph-name="question" unicode="?" horiz-adv-x="940" 
d="M260 485q18 95 47 166t80 130t133 114q67 45 109 79t62 67.5t20 76.5q0 56 -31 87.5t-102 31.5q-73 0 -146 -28.5t-162 -71.5l-92 221q92 50 204 87.5t241 37.5q179 0 281 -88.5t102 -243.5q0 -102 -39.5 -174.5t-107.5 -130t-154 -115.5q-60 -40 -96 -74t-56 -73.5
t-35 -98.5h-258zM313 -27q-85 0 -120 44t-35 98q0 74 46 136t158 62q68 0 109 -38t41 -107q0 -85 -54 -140t-145 -55z" />
    <glyph glyph-name="at" unicode="@" horiz-adv-x="1753" 
d="M801 -186q-175 0 -307.5 52.5t-222 146t-134.5 218.5t-45 269q0 186 50.5 338t141 268.5t212 195.5t263.5 119.5t294 40.5q212 0 364.5 -73.5t234 -212.5t81.5 -336q0 -97 -21.5 -190t-63 -173.5t-102 -141.5t-138 -95.5t-171.5 -34.5q-80 0 -139.5 35.5t-77.5 111.5h-10
q-43 -67 -102 -107t-154 -40q-114 0 -191.5 72.5t-77.5 236.5q0 83 23 164t67.5 152t108.5 125t145.5 85t178.5 31q110 0 188 -16t139 -39l-106 -420q-11 -44 -19 -76.5t-8 -64.5q0 -37 16.5 -52.5t41.5 -15.5q43 0 81.5 26t69.5 71t53.5 103t34.5 122t12 127q0 135 -52 233
t-159 151.5t-272 53.5q-121 0 -229 -34t-196.5 -98.5t-153 -156.5t-99.5 -208.5t-35 -254.5q0 -140 51.5 -258t164 -189t294.5 -71q126 0 229.5 22.5t211.5 63.5v-186q-97 -38 -212.5 -64t-252.5 -26zM807 387q80 0 130.5 74.5t82.5 195.5l57 222q-18 5 -37 7.5t-45 2.5
q-72 0 -125 -35.5t-88 -92t-52 -119t-17 -116.5q0 -78 28.5 -108.5t65.5 -30.5z" />
    <glyph glyph-name="A" unicode="A" horiz-adv-x="1286" 
d="M-123 0l766 1462h373l147 -1462h-297l-24 348h-473l-172 -348h-320zM494 608h333l-26 377q-4 60 -8 121t-2 125h-5q-19 -55 -44 -110t-56 -117z" />
    <glyph glyph-name="B" unicode="B" horiz-adv-x="1270" 
d="M53 0l309 1462h426q140 0 244 -32.5t161.5 -104t57.5 -188.5q0 -99 -37.5 -175.5t-108.5 -127t-173 -72.5v-8q100 -26 159.5 -96.5t59.5 -180.5q0 -166 -76 -271.5t-206.5 -155.5t-293.5 -50h-522zM412 256h180q75 0 131 25t87.5 74t31.5 120q0 77 -45.5 119.5
t-137.5 42.5h-165zM545 883h149q73 0 127.5 19.5t84.5 61t30 107.5q0 68 -42 102.5t-128 34.5h-152z" />
    <glyph glyph-name="C" unicode="C" horiz-adv-x="1253" 
d="M659 -20q-177 0 -296 70.5t-179.5 199t-60.5 303.5q0 129 29.5 261t89.5 252.5t153 214.5t220 149t290 55q139 0 236 -26t194 -79l-118 -250q-71 41 -145.5 69t-166.5 28q-99 0 -176 -40t-132.5 -108.5t-91.5 -154t-53.5 -177.5t-17.5 -178q0 -166 69 -247.5t218 -81.5
q83 0 168 21.5t170 55.5v-260q-61 -24 -163.5 -50.5t-236.5 -26.5z" />
    <glyph glyph-name="D" unicode="D" horiz-adv-x="1386" 
d="M53 0l309 1462h396q269 0 417 -142t148 -411q0 -166 -35 -307t-102.5 -252.5t-167 -189.5t-228.5 -119t-286 -41h-451zM412 256h106q101 0 180.5 33.5t138 93.5t97 140t57.5 174.5t19 195.5q0 161 -75 238t-206 77h-115z" />
    <glyph glyph-name="E" unicode="E" horiz-adv-x="1110" 
d="M53 0l309 1462h818l-54 -254h-512l-67 -321h477l-55 -254h-477l-80 -377h512l-54 -256h-817z" />
    <glyph glyph-name="F" unicode="F" horiz-adv-x="1087" 
d="M53 0l309 1462h814l-54 -254h-508l-79 -377h473l-56 -253h-473l-121 -578h-305z" />
    <glyph glyph-name="G" unicode="G" horiz-adv-x="1413" 
d="M664 -20q-255 0 -398 145.5t-143 423.5q0 149 35 288t104 256.5t172.5 205.5t239.5 137t305 49q113 0 212 -24t198 -75l-115 -251q-73 40 -147.5 64t-161.5 24q-135 0 -234.5 -57.5t-165.5 -152t-98.5 -209.5t-32.5 -231q0 -108 30 -182.5t95.5 -112.5t169.5 -38
q51 0 89 7t81 17l66 299h-267l56 258h563l-162 -762q-100 -34 -212 -56.5t-279 -22.5z" />
    <glyph glyph-name="H" unicode="H" horiz-adv-x="1434" 
d="M53 0l309 1462h306l-121 -573h471l121 573h305l-309 -1462h-306l134 631h-471l-134 -631h-305z" />
    <glyph glyph-name="I" unicode="I" horiz-adv-x="655" 
d="M51 0l311 1462h306l-312 -1462h-305z" />
    <glyph glyph-name="J" unicode="J" horiz-adv-x="678" 
d="M-135 -430q-63 0 -106 8t-81 19v253q35 -7 75 -13.5t89 -6.5q66 0 115 27t83 82.5t52 142.5l293 1380h305l-303 -1423q-36 -168 -103.5 -271t-170.5 -150.5t-248 -47.5z" />
    <glyph glyph-name="K" unicode="K" horiz-adv-x="1255" 
d="M53 0l309 1462h306l-154 -706l156 209l413 497h361l-594 -700l291 -762h-338l-211 592l-125 -70l-109 -522h-305z" />
    <glyph glyph-name="L" unicode="L" horiz-adv-x="1061" 
d="M53 0l309 1462h306l-256 -1206h512l-54 -256h-817z" />
    <glyph glyph-name="M" unicode="M" horiz-adv-x="1802" 
d="M53 0l309 1462h404l65 -1093h9l549 1093h423l-309 -1462h-280l145 692q15 69 34 148t39 156t36 137h-9l-569 -1133h-281l-61 1133h-8q-5 -44 -17 -119t-27.5 -162.5t-33.5 -171.5l-143 -680h-275z" />
    <glyph glyph-name="N" unicode="N" horiz-adv-x="1546" 
d="M53 0l309 1462h357l340 -1077h8q7 43 18 111.5t24.5 142t25.5 131.5l147 692h274l-309 -1462h-342l-356 1106h-10q-1 -12 -7.5 -58t-16 -110.5t-20.5 -131t-22 -118.5l-145 -688h-275z" />
    <glyph glyph-name="O" unicode="O" horiz-adv-x="1495" 
d="M666 -20q-178 0 -298.5 69t-182.5 194.5t-62 293.5q0 114 20.5 228t62 220t105 197t149.5 159t195 106t242 38q266 0 400.5 -149.5t134.5 -397.5q0 -119 -19.5 -236t-60 -224t-103 -197.5t-147.5 -158t-193.5 -105t-242.5 -37.5zM688 240q60 0 115 22t103 63.5t87.5 102
t67.5 137t43.5 168.5t15.5 197q0 135 -62.5 216t-185.5 81q-63 0 -120.5 -25t-106 -71t-87.5 -109t-67 -140t-42.5 -164t-14.5 -181q0 -97 30 -163.5t87 -100t137 -33.5z" />
    <glyph glyph-name="P" unicode="P" horiz-adv-x="1249" 
d="M53 0l309 1462h408q178 0 285.5 -53.5t156 -149.5t48.5 -223q0 -130 -48 -227t-134.5 -161.5t-202.5 -96t-252 -31.5h-156l-109 -520h-305zM522 774h125q91 0 159.5 30t107 87t38.5 137q0 92 -48.5 136t-145.5 44h-144z" />
    <glyph glyph-name="Q" unicode="Q" horiz-adv-x="1495" 
d="M870 -348l-178 328h-13h-13q-178 0 -298.5 69t-182.5 194.5t-62 293.5q0 114 20.5 228t62 220t105 197t149.5 159t195 106t242 38q266 0 400.5 -149.5t134.5 -397.5q0 -113 -17.5 -223.5t-53.5 -212t-90.5 -189t-128.5 -156t-167 -112.5l254 -393h-359zM688 240
q60 0 115 22t103 63.5t87.5 102t67.5 137t43.5 168.5t15.5 197q0 135 -62.5 216t-185.5 81q-63 0 -120.5 -25t-106 -71t-87.5 -109t-67 -140t-42.5 -164t-14.5 -181q0 -97 30 -163.5t87 -100t137 -33.5z" />
    <glyph glyph-name="R" unicode="R" horiz-adv-x="1247" 
d="M53 0l309 1462h359q220 0 347.5 -94.5t127.5 -306.5q0 -116 -42 -203t-114.5 -146t-165.5 -91l261 -621h-332l-207 561h-119l-119 -561h-305zM530 813h78q65 0 116.5 14.5t87.5 43t54.5 72t18.5 101.5q0 82 -48 123t-149 41h-74z" />
    <glyph glyph-name="S" unicode="S" horiz-adv-x="1085" 
d="M397 -20q-110 0 -201.5 24t-154.5 66v274q91 -51 178.5 -79.5t179.5 -28.5q51 0 94.5 9.5t75.5 29.5t50 50t18 70q0 57 -22.5 95.5t-62 71.5t-91.5 71q-61 44 -118.5 100t-94.5 130.5t-37 174.5q0 98 35.5 179t101.5 141t158.5 92.5t206.5 32.5q113 0 209.5 -24.5
t187.5 -74.5l-109 -233q-78 37 -148.5 55.5t-139.5 18.5q-41 0 -75.5 -11.5t-60 -33t-39.5 -51.5t-14 -68q0 -52 21.5 -89t62 -68.5t97.5 -69.5q81 -53 134.5 -113.5t80 -131.5t26.5 -157q0 -115 -43 -200t-118.5 -141t-175 -83.5t-212.5 -27.5z" />
    <glyph glyph-name="T" unicode="T" horiz-adv-x="1087" 
d="M266 0l254 1204h-352l55 258h1010l-55 -258h-353l-254 -1204h-305z" />
    <glyph glyph-name="U" unicode="U" horiz-adv-x="1415" 
d="M604 -20q-151 0 -254.5 51t-156 143.5t-52.5 216.5q0 32 3.5 72.5t11.5 75.5l196 923h305l-194 -919q-7 -35 -12 -67t-5 -58q0 -86 47 -132t142 -46q89 0 147.5 34t94.5 102t57 169l194 917h306l-201 -946q-33 -155 -107.5 -276.5t-201.5 -190.5t-320 -69z" />
    <glyph glyph-name="V" unicode="V" horiz-adv-x="1208" 
d="M311 0l-127 1462h295l51 -880q3 -42 3.5 -93t-0.5 -101t-5 -89h9q14 45 31 92t37 95.5t42 95.5l430 880h316l-748 -1462h-334z" />
    <glyph glyph-name="W" unicode="W" horiz-adv-x="1831" 
d="M229 0l-45 1462h287l6 -798q0 -77 -3 -172t-11 -175h8q28 80 62.5 171.5t62.5 154.5l369 819h270l20 -819q2 -52 0 -147.5t-8 -178.5h8q19 57 41.5 120t45.5 123t42 106l330 796h309l-647 -1462h-346l-16 666q-2 89 -3 147.5t-1 105.5t2 99h-8q-26 -82 -54 -156t-59 -143
l-324 -719h-338z" />
    <glyph glyph-name="X" unicode="X" horiz-adv-x="1241" 
d="M-117 0l576 764l-238 698h320l153 -518l363 518h344l-545 -725l268 -737h-331l-172 543l-396 -543h-342z" />
    <glyph glyph-name="Y" unicode="Y" horiz-adv-x="1155" 
d="M303 0l119 559l-236 903h312l129 -592l374 592h342l-618 -903l-119 -559h-303z" />
    <glyph glyph-name="Z" unicode="Z" horiz-adv-x="1098" 
d="M-61 0l38 201l777 1005h-543l53 256h936l-41 -202l-782 -1004h596l-53 -256h-981z" />
    <glyph glyph-name="bracketleft" unicode="[" horiz-adv-x="678" 
d="M-37 -324l381 1786h473l-45 -211h-215l-291 -1364h215l-45 -211h-473z" />
    <glyph glyph-name="backslash" unicode="\" horiz-adv-x="862" 
d="M438 0l-217 1462h260l224 -1462h-267z" />
    <glyph glyph-name="bracketright" unicode="]" horiz-adv-x="678" 
d="M-137 -324l45 211h213l291 1364h-215l45 211h473l-381 -1786h-471z" />
    <glyph glyph-name="asciicircum" unicode="^" horiz-adv-x="1128" 
d="M35 520l618 950h148l276 -950h-223l-174 633l-401 -633h-244z" />
    <glyph glyph-name="underscore" unicode="_" horiz-adv-x="819" 
d="M-186 -324l30 140h822l-31 -140h-821z" />
    <glyph glyph-name="grave" unicode="`" horiz-adv-x="659" 
d="M539 1241q-42 41 -89 94.5t-88 109.5t-65 103v21h311q12 -46 29 -97t39 -103.5t47 -102.5v-25h-184z" />
    <glyph glyph-name="a" unicode="a" horiz-adv-x="1217" 
d="M406 -20q-81 0 -153 40t-117.5 129t-45.5 236q0 110 23.5 218t68 204.5t108 171t144 117.5t174.5 43q71 0 124 -20.5t91 -57.5t62 -86h8l57 143h232l-238 -1118h-225l14 145h-8q-40 -49 -87 -86t-104 -58t-128 -21zM524 223q62 0 115 48.5t91 126.5t54 165
q8 40 11.5 80.5t3.5 87.5q0 71 -37.5 117.5t-102.5 46.5q-44 0 -83.5 -28.5t-72.5 -78t-57.5 -113t-37.5 -134.5t-13 -142q0 -87 34 -131.5t95 -44.5z" />
    <glyph glyph-name="b" unicode="b" horiz-adv-x="1219" 
d="M610 -20q-70 0 -123 20.5t-90.5 57t-62.5 85.5h-8l-58 -143h-231l330 1556h301l-62 -288q-9 -41 -23 -95.5t-30 -109t-31 -94.5h8q36 45 75 84t89.5 62.5t118.5 23.5q81 0 153 -40t117 -129t45 -237q0 -109 -23.5 -217.5t-68 -204.5t-108 -171t-143.5 -117.5t-175 -42.5z
M559 223q44 0 84 28.5t73 78t57 113t37 134.5t13 142q0 88 -32.5 132t-98.5 44q-48 0 -87.5 -25t-69.5 -67.5t-52 -95.5t-36 -108.5t-20.5 -107.5t-6.5 -92q0 -79 37.5 -127.5t101.5 -48.5z" />
    <glyph glyph-name="c" unicode="c" horiz-adv-x="989" 
d="M506 -20q-116 0 -210.5 41.5t-150 132t-55.5 237.5q0 121 25 232t74 205t121 163.5t165 108.5t207 39q100 0 179.5 -19t148.5 -53l-92 -229q-54 23 -106 40t-118 17q-71 0 -126.5 -41t-94 -110t-58.5 -154.5t-20 -173.5q0 -63 20.5 -106t59 -65t92.5 -22q76 0 141 23.5
t134 58.5v-246q-70 -37 -151 -58t-185 -21z" />
    <glyph glyph-name="d" unicode="d" horiz-adv-x="1217" 
d="M406 -20q-81 0 -153 40t-117.5 129.5t-45.5 237.5q0 109 23.5 217t68 204.5t108 171t144 117t174.5 42.5q67 0 113.5 -22t80.5 -59t60 -83h8q0 6 3 44t9 87.5t15 91.5l76 358h301l-330 -1556h-229l18 145h-8q-40 -49 -86.5 -86t-103.5 -58t-129 -21zM532 223
q47 0 85.5 25.5t68 68t51 95.5t35.5 108.5t20.5 107.5t6.5 91q0 80 -37.5 128t-102.5 48q-44 0 -83.5 -28.5t-72.5 -78t-57.5 -113t-37.5 -134.5t-13 -142q0 -87 35.5 -131.5t101.5 -44.5z" />
    <glyph glyph-name="e" unicode="e" horiz-adv-x="1141" 
d="M532 -20q-131 0 -230.5 47.5t-155.5 143.5t-56 241q0 140 40 270.5t119.5 233.5t196 163t269.5 60q188 0 281.5 -85.5t93.5 -219.5q0 -88 -39.5 -160t-119.5 -123.5t-201 -79t-284 -27.5h-51q-1 -12 -1.5 -21t-0.5 -20q0 -90 52 -143t147 -53q88 0 160 20t170 66v-227
q-88 -43 -179 -64.5t-211 -21.5zM428 647h45q116 0 188.5 25t106 66t33.5 89t-27.5 71.5t-77.5 23.5q-56 0 -111 -35t-97 -97t-60 -143z" />
    <glyph glyph-name="f" unicode="f" horiz-adv-x="764" 
d="M-45 -492q-48 0 -95.5 7.5t-78.5 17.5v242q32 -11 59 -16t56 -5q61 0 107 40.5t65 129.5l204 965h-163l30 145l183 84l18 84q22 102 58.5 172t87.5 112.5t117.5 61.5t148.5 19q69 0 127.5 -13t107.5 -36l-80 -224q-29 13 -61 22t-72 9q-57 0 -92 -40t-47 -105l-12 -62
h219l-49 -229h-220l-215 -1010q-21 -102 -67.5 -186.5t-128 -134.5t-207.5 -50z" />
    <glyph glyph-name="g" unicode="g" horiz-adv-x="1108" 
d="M326 -492q-208 0 -324.5 75.5t-116.5 207.5q0 102 68.5 175.5t214.5 121.5q-37 23 -55.5 56.5t-18.5 76.5q0 71 44.5 122.5t146.5 98.5q-65 49 -96 112t-31 153q0 96 30.5 174.5t87.5 133.5q61 60 149 92t200 32q41 0 83 -6t83 -17h395l-35 -166l-174 -41q8 -26 12 -55.5
t4 -62.5q0 -94 -29.5 -170.5t-84.5 -131.5q-58 -58 -143.5 -89t-192.5 -31q-29 0 -54 2.5t-45 7.5q-42 -13 -63 -32.5t-21 -45.5q0 -23 15 -38q14 -13 40 -21t64 -13l137 -18q109 -14 177.5 -46.5t101.5 -87t33 -134.5q0 -109 -42 -191.5t-124 -138.5q-76 -52 -186 -78.5
t-250 -26.5zM344 -287q83 0 144.5 14t98.5 41q31 22 46.5 51t15.5 66q0 16 -4.5 27.5t-13.5 20.5q-19 20 -51.5 29.5t-78.5 15.5l-136 16q-70 -9 -118 -31.5t-72.5 -56.5t-24.5 -78q0 -58 48.5 -86.5t145.5 -28.5zM545 561q50 0 88 35t59 96t21 139q0 32 -7.5 55t-21.5 37
q-12 13 -29.5 19t-40.5 6q-39 0 -70.5 -20.5t-54 -57t-35 -85t-12.5 -105.5q0 -18 2.5 -33t6.5 -28q22 -58 94 -58z" />
    <glyph glyph-name="h" unicode="h" horiz-adv-x="1237" 
d="M37 0l330 1556h301l-58 -270q-9 -46 -24.5 -104.5t-32.5 -115t-31 -97.5h8q41 51 88.5 89.5t103.5 59.5t122 21q96 0 160.5 -39.5t96.5 -111.5t32 -171q0 -37 -6 -83t-17 -97l-133 -637h-301l137 653q8 34 12 64t4 55q0 63 -27 93t-81 30q-68 0 -123 -58.5t-95.5 -156.5
t-66.5 -217l-98 -463h-301z" />
    <glyph glyph-name="i" unicode="i" horiz-adv-x="608" 
d="M37 0l237 1118h301l-237 -1118h-301zM473 1257q-64 0 -107.5 28t-43.5 95q0 58 21.5 97t62.5 59t98 20q60 0 104.5 -26t44.5 -94q0 -80 -44 -129.5t-136 -49.5z" />
    <glyph glyph-name="j" unicode="j" horiz-adv-x="608" 
d="M-90 -492q-48 0 -95.5 7.5t-78.5 17.5v242q32 -11 59 -16t55 -5q41 0 75.5 17.5t60 55.5t37.5 97l253 1194h302l-265 -1239q-21 -102 -67.5 -186.5t-128 -134.5t-207.5 -50zM475 1257q-64 0 -107.5 28t-43.5 95q0 58 21.5 97t62.5 59t98 20q60 0 104.5 -26t44.5 -94
q0 -80 -44 -129.5t-136 -49.5z" />
    <glyph glyph-name="k" unicode="k" horiz-adv-x="1163" 
d="M37 0l330 1556h301l-148 -694q-7 -33 -19 -76t-24 -81.5t-18 -61.5h8l453 475h344l-498 -504l285 -614h-336l-183 420l-120 -72l-74 -348h-301z" />
    <glyph glyph-name="l" unicode="l" horiz-adv-x="608" 
d="M37 0l330 1556h301l-330 -1556h-301z" />
    <glyph glyph-name="m" unicode="m" horiz-adv-x="1853" 
d="M37 0l237 1118h230l-21 -207h9q43 67 95 118t115.5 80.5t141.5 29.5q115 0 178.5 -60.5t83.5 -167.5h8q42 67 95 118t118.5 80.5t142.5 29.5q140 0 209.5 -87t69.5 -235q0 -37 -6 -83t-17 -97l-133 -637h-301l138 653q8 34 12 64t4 55q0 63 -24.5 93t-73.5 30
q-52 0 -96 -33t-80 -92t-63.5 -137t-45.5 -168l-96 -465h-301l137 653q8 34 12 64t4 55q0 63 -24.5 93t-73.5 30q-51 0 -95 -34t-80 -93.5t-63.5 -137.5t-46.5 -167l-98 -463h-301z" />
    <glyph glyph-name="n" unicode="n" horiz-adv-x="1237" 
d="M37 0l237 1118h230l-21 -207h9q43 67 95 118t115.5 80.5t141.5 29.5q96 0 160.5 -39.5t96.5 -111.5t32 -171q0 -37 -6 -83t-17 -97l-133 -637h-301l137 653q8 34 12 64t4 55q0 63 -27 93t-81 30q-68 0 -123 -58.5t-95.5 -156.5t-66.5 -217l-98 -463h-301z" />
    <glyph glyph-name="o" unicode="o" horiz-adv-x="1198" 
d="M518 -20q-126 0 -222.5 52t-151 148.5t-54.5 229.5q0 119 23.5 227.5t71 200t119 159t166.5 105t214 37.5q130 0 225 -52.5t147 -151.5t52 -239q0 -114 -22.5 -219.5t-68.5 -196t-116 -158t-165.5 -105t-217.5 -37.5zM543 225q50 0 91 25.5t73 71t53.5 105t33 128.5
t11.5 141q0 57 -13.5 101.5t-45 70t-84.5 25.5q-55 0 -98.5 -30.5t-75.5 -81.5t-53 -114t-31.5 -129.5t-10.5 -127.5q0 -91 37 -138t113 -47z" />
    <glyph glyph-name="p" unicode="p" horiz-adv-x="1219" 
d="M-68 -492l342 1610h230l-17 -170h9q35 48 81 92t105 71.5t131 27.5q81 0 153 -40t117 -129.5t45 -238.5q0 -109 -23.5 -216.5t-68 -204t-108 -171t-143.5 -117t-175 -42.5q-68 0 -115 21.5t-79.5 58.5t-59.5 83h-8q-6 -81 -16 -149.5t-27 -145.5l-72 -340h-301zM559 223
q44 0 84 28.5t73 78t57 113t37 134.5t13 142q0 88 -32.5 132t-98.5 44q-48 0 -87.5 -25t-69.5 -67t-52 -94.5t-36 -108.5t-20.5 -108t-6.5 -93q0 -79 37.5 -127.5t101.5 -48.5z" />
    <glyph glyph-name="q" unicode="q" horiz-adv-x="1217" 
d="M539 -492l73 338q8 36 22.5 90.5t31.5 112t30 101.5h-8q-36 -46 -78.5 -85t-95.5 -62t-123 -23q-73 0 -142.5 40t-114 129t-44.5 236q0 110 23.5 218t68 204.5t108 171t144 117.5t174.5 43q67 0 116.5 -20t88.5 -56.5t72 -87.5h8l57 143h232l-342 -1610h-301zM535 223
q47 0 85 25.5t67 68t50.5 95.5t35 108.5t20 107.5t6.5 91q0 80 -37.5 128t-102.5 48q-44 0 -83.5 -28.5t-72.5 -78t-57.5 -113t-37.5 -134.5t-13 -142q0 -87 36.5 -131.5t103.5 -44.5z" />
    <glyph glyph-name="r" unicode="r" horiz-adv-x="862" 
d="M37 0l237 1118h230l-21 -207h11q45 71 98 122t115 78.5t135 27.5q24 0 51.5 -3t44.5 -8l-66 -290q-16 6 -42.5 11t-57.5 5q-56 0 -107 -22.5t-94 -66.5t-75.5 -110.5t-51.5 -154.5l-106 -500h-301z" />
    <glyph glyph-name="s" unicode="s" horiz-adv-x="969" 
d="M358 -20q-107 0 -186.5 15t-148.5 50v248q75 -43 154.5 -66.5t164.5 -23.5q47 0 88.5 13t67.5 40t26 68q0 28 -13 50t-49.5 48.5t-105.5 64.5q-69 39 -117.5 80t-74 93t-25.5 122q0 116 51 195.5t146.5 120.5t228.5 41q97 0 187 -22t176 -73l-99 -215q-59 36 -125.5 60
t-132.5 24q-49 0 -88 -23t-39 -71q0 -26 14 -47.5t47.5 -43.5t90.5 -52q68 -35 120.5 -77.5t82.5 -98t30 -131.5q0 -128 -58 -214.5t-163.5 -130.5t-249.5 -44z" />
    <glyph glyph-name="t" unicode="t" horiz-adv-x="840" 
d="M410 -20q-133 0 -212 56t-79 202q0 24 3 52.5t9 59.5l115 539h-152l29 147l196 84l132 236h194l-49 -238h283l-50 -229h-282l-115 -539q-3 -15 -4.5 -29.5t-1.5 -23.5q0 -40 24 -57t64 -17q41 0 78.5 9.5t83.5 25.5v-225q-48 -23 -115.5 -38t-150.5 -15z" />
    <glyph glyph-name="u" unicode="u" horiz-adv-x="1237" 
d="M395 -20q-96 0 -159 39t-94 111.5t-31 170.5q0 37 6 95t18 118l127 604h301l-137 -653q-7 -34 -11.5 -64t-4.5 -55q0 -63 27 -93t81 -30q69 0 123.5 58.5t95.5 157t66 216.5l98 463h301l-237 -1118h-230l21 207h-11q-43 -66 -94.5 -117.5t-114.5 -80.5t-141 -29z" />
    <glyph glyph-name="v" unicode="v" horiz-adv-x="1049" 
d="M240 0l-138 1118h295l45 -586q2 -25 3.5 -65.5t2.5 -84.5t1 -81h10q12 34 27.5 76.5t31.5 82t29 64.5l297 594h323l-604 -1118h-323z" />
    <glyph glyph-name="w" unicode="w" horiz-adv-x="1614" 
d="M176 0l-51 1118h281l4 -495q0 -82 -1.5 -163t-9.5 -175h9q14 51 36 113.5t42 114t28 69.5l231 536h328v-536q0 -70 -1 -142t-9 -155h10q15 46 36 110t43.5 126t39.5 102l219 495h307l-530 -1118h-330l-6 520q0 42 1 103t3.5 124.5t5.5 112.5h-12q-17 -49 -38 -109
t-41.5 -116t-37.5 -94l-233 -541h-324z" />
    <glyph glyph-name="x" unicode="x" horiz-adv-x="1087" 
d="M-100 0l479 573l-225 545h321l115 -334l244 334h354l-467 -561l244 -557h-326l-125 342l-264 -342h-350z" />
    <glyph glyph-name="y" unicode="y" horiz-adv-x="1063" 
d="M6 -492q-54 0 -88.5 6t-58.5 13v240q26 -5 53.5 -9t62.5 -4q95 0 157 55.5t108 141.5l26 49l-164 1118h295l56 -518q5 -46 7.5 -98.5t3.5 -103.5t1 -91h8q14 34 28.5 76t34 91.5t46.5 105.5l260 538h327l-680 -1278q-60 -113 -134.5 -187t-161.5 -109.5t-187 -35.5z" />
    <glyph glyph-name="z" unicode="z" horiz-adv-x="932" 
d="M-47 0l35 180l575 705h-397l51 233h750l-43 -200l-566 -685h439l-49 -233h-795z" />
    <glyph glyph-name="braceleft" unicode="{" horiz-adv-x="727" 
d="M473 -324q-184 0 -262 69.5t-78 178.5q0 34 4 65t10 60l39 184q5 23 10 45.5t5 40.5q0 70 -53 105t-156 35l45 229q122 0 192.5 41.5t92.5 138.5l61 285q23 103 67.5 171.5t124.5 103t209 34.5h84l-49 -225q-75 -1 -121.5 -28t-64.5 -113l-66 -297q-24 -111 -95 -166.5
t-181 -69.5v-8q84 -26 126 -82.5t42 -134.5q0 -26 -4 -53.5t-11 -59.5l-36 -178q-4 -15 -5.5 -27.5t-1.5 -23.5q0 -54 33.5 -74t91.5 -20v-226h-53z" />
    <glyph glyph-name="bar" unicode="|" horiz-adv-x="1128" 
d="M455 -465v2015h219v-2015h-219z" />
    <glyph glyph-name="braceright" unicode="}" horiz-adv-x="727" 
d="M-100 -324v226q50 1 90 12t67 41.5t39 87.5l66 297q25 110 95.5 166t180.5 69v9q-84 26 -126 82t-42 135q0 26 4 53t11 59l37 179q3 15 4.5 27.5t1.5 23.5q0 53 -36.5 73.5t-109.5 20.5l41 225h33q123 0 198 -31.5t108.5 -87.5t33.5 -129q0 -34 -4 -64.5t-10 -59.5
l-39 -185q-4 -23 -9.5 -45t-5.5 -41q0 -69 53 -104t156 -35l-45 -229q-81 0 -139.5 -18.5t-94.5 -58t-50 -104.5l-62 -284q-22 -102 -67 -171t-125 -104t-209 -35h-45z" />
    <glyph glyph-name="asciitilde" unicode="~" horiz-adv-x="1171" 
d="M569 616q-75 32 -128 44t-99 12q-58 0 -120.5 -35.5t-112.5 -85.5v231q50 54 113.5 81.5t142.5 27.5q59 0 119 -11.5t157 -52.5q75 -32 129 -43.5t98 -11.5q59 0 121 35t113 86v-231q-51 -54 -114.5 -81.5t-141.5 -27.5q-60 0 -120 11.5t-157 51.5z" />
    <glyph glyph-name="uni00A0" unicode="&#xa0;" horiz-adv-x="532" 
 />
    <glyph glyph-name="exclamdown" unicode="&#xa1;" horiz-adv-x="586" 
d="M-74 -371l256 977h242l-158 -977h-340zM344 778q-67 0 -108 38t-41 108q0 84 53.5 139t144.5 55q86 0 121 -43.5t35 -97.5q0 -49 -20 -94.5t-65 -75t-120 -29.5z" />
    <glyph glyph-name="cent" unicode="&#xa2;" horiz-adv-x="1128" 
d="M387 -20l49 210q-120 32 -196 126t-76 268q0 111 21.5 214.5t63.5 192.5t103.5 159.5t141.5 115.5t178 59l33 158h188l-35 -158q65 -7 120 -24t105 -41l-92 -230q-53 23 -105 40t-118 17q-71 0 -126.5 -41t-94 -110t-58.5 -154t-20 -174q0 -95 45 -143.5t127 -48.5
q75 0 140 23.5t134 58.5v-246q-64 -34 -136 -54.5t-163 -25.5l-41 -192h-188z" />
    <glyph glyph-name="sterling" unicode="&#xa3;" horiz-adv-x="1128" 
d="M-12 0l49 246q60 15 108.5 47t83.5 85t52 132l22 104h-192l45 220h192l49 247q27 129 89 219.5t158.5 137.5t227.5 47q110 0 204.5 -25.5t164.5 -60.5l-113 -232q-59 29 -120 48.5t-117 19.5q-75 0 -123 -40t-68 -132l-47 -229h299l-45 -220h-299l-18 -84
q-22 -101 -76.5 -168t-132.5 -102h655l-55 -260h-993z" />
    <glyph glyph-name="currency" unicode="&#xa4;" horiz-adv-x="1128" 
d="M909 254l-127 125q-43 -23 -93 -37t-103 -14q-55 0 -105.5 12.5t-93.5 38.5l-125 -123l-145 145l127 125q-26 45 -40 94t-14 103t14.5 104t39.5 93l-129 127l147 147l127 -127q43 25 94.5 39t102.5 14q53 0 101.5 -13.5t94.5 -41.5l127 129l150 -143l-129 -129
q25 -42 39 -93.5t14 -105.5q0 -55 -13.5 -104.5t-39.5 -94.5l125 -125zM586 535q53 0 96.5 25t69.5 68t26 95q0 53 -26 96t-69.5 68.5t-96.5 25.5q-52 0 -95 -25.5t-68.5 -68.5t-25.5 -96q0 -52 25.5 -95t68.5 -68t95 -25z" />
    <glyph glyph-name="yen" unicode="&#xa5;" horiz-adv-x="1128" 
d="M293 0l47 221h-252l37 178h252l29 138h-252l39 178h196l-192 747h297l114 -590l371 590h311l-506 -747h203l-39 -178h-252l-28 -138h252l-37 -178h-252l-47 -221h-291z" />
    <glyph glyph-name="brokenbar" unicode="&#xa6;" horiz-adv-x="1128" 
d="M455 735v815h219v-815h-219zM455 -465v815h219v-815h-219z" />
    <glyph glyph-name="section" unicode="&#xa7;" horiz-adv-x="995" 
d="M356 -20q-110 0 -193 20.5t-143 54.5v224q71 -43 159.5 -74t185.5 -31q98 0 144 35t46 92q0 28 -15 51.5t-50 47.5t-95 53q-77 38 -132 82.5t-84 99.5t-29 121q0 67 25 120.5t70.5 98t106.5 82.5q-41 34 -69.5 85t-28.5 107q0 103 55.5 173.5t152.5 107.5t222 37
q100 0 183 -24t161 -64l-82 -193q-55 32 -125 58t-157 26q-42 0 -74.5 -11t-51 -34t-18.5 -61q0 -42 41 -75t127 -71q81 -35 135 -79.5t80.5 -99t26.5 -120.5q0 -75 -27.5 -131t-71.5 -97t-94 -71q38 -35 64 -85.5t26 -108.5q0 -112 -60 -189t-166 -117t-245 -40zM580 612
q38 25 70 67.5t32 102.5q0 37 -20.5 68.5t-60 58.5t-95.5 49q-34 -16 -59.5 -41.5t-39.5 -57t-14 -66.5q0 -34 18 -63.5t59 -58t110 -59.5z" />
    <glyph glyph-name="dieresis" unicode="&#xa8;" horiz-adv-x="1135" 
d="M926 1272q-55 0 -91 24.5t-36 85.5q0 77 39.5 117.5t111.5 40.5q51 0 88 -23.5t37 -84.5q0 -73 -36 -116.5t-113 -43.5zM543 1272q-55 0 -91 24.5t-36 85.5q0 77 39.5 117.5t111.5 40.5q34 0 62.5 -10t45.5 -33.5t17 -64.5q0 -73 -36 -116.5t-113 -43.5z" />
    <glyph glyph-name="copyright" unicode="&#xa9;" horiz-adv-x="1704" 
d="M852 -20q-163 0 -300.5 55.5t-239 156.5t-157 238.5t-55.5 300.5q0 156 56.5 292.5t159 239.5t239.5 161.5t297 58.5q156 0 292.5 -55.5t239.5 -157t161.5 -238.5t58.5 -301q0 -163 -55.5 -300.5t-157 -238.5t-238.5 -156.5t-301 -55.5zM883 262q-209 0 -312.5 129
t-103.5 340q0 137 48.5 242.5t143.5 166t232 60.5q63 0 129 -16t123 -45l-60 -138q-50 26 -98.5 40t-91.5 14q-121 0 -187.5 -86.5t-66.5 -237.5q0 -157 58.5 -241t193.5 -84q47 0 105.5 13.5t109.5 33.5v-142q-49 -21 -100 -35t-123 -14zM852 111q126 0 236 45.5t194 128.5
t131 196.5t47 249.5q0 128 -46 241t-128.5 199t-193 134.5t-240.5 48.5q-131 0 -242.5 -46t-194.5 -129.5t-129 -197.5t-46 -250t45 -249.5t127 -196.5t194 -128.5t246 -45.5z" />
    <glyph glyph-name="ordfeminine" unicode="&#xaa;" horiz-adv-x="772" 
d="M369 748q-56 0 -106 25.5t-80.5 84.5t-30.5 158q0 67 19.5 146t60.5 150.5t107 117t159 45.5q65 0 107 -26.5t71 -76.5h8l39 90h154l-158 -702h-148l9 92h-9q-37 -48 -85.5 -76t-116.5 -28zM442 899q36 0 64.5 22.5t49.5 59t35 79t20.5 83t6.5 71.5q0 47 -20.5 77
t-67.5 30q-40 0 -72 -28t-55 -74t-35 -100.5t-12 -108.5t21 -82.5t65 -28.5z" />
    <glyph glyph-name="guillemotleft" unicode="&#xab;" horiz-adv-x="1151" 
d="M274 90l-202 461v18l401 463l191 -155l-279 -334l135 -350zM762 90l-203 461v18l402 463l190 -155l-279 -334l136 -350z" />
    <glyph glyph-name="logicalnot" unicode="&#xac;" horiz-adv-x="1171" 
d="M1102 831v-583h-219v364h-774v219h993z" />
    <glyph glyph-name="uni00AD" unicode="&#xad;" horiz-adv-x="659" 
d="M41 424l53 250h524l-53 -250h-524z" />
    <glyph glyph-name="registered" unicode="&#xae;" horiz-adv-x="1704" 
d="M561 283v905h273q167 0 245 -71t78 -204q0 -97 -49 -152.5t-111 -80.5l238 -397h-186l-195 344h-127v-344h-166zM727 764h102q80 0 120 40.5t40 104.5q0 73 -36.5 105.5t-125.5 32.5h-100v-283zM852 -20q-163 0 -300.5 55.5t-239 156.5t-157 238.5t-55.5 300.5
q0 156 56.5 292.5t159 239.5t239.5 161.5t297 58.5q156 0 292.5 -55.5t239.5 -157t161.5 -238.5t58.5 -301q0 -163 -55.5 -300.5t-157 -238.5t-238.5 -156.5t-301 -55.5zM852 111q126 0 236 45.5t194 128.5t131 196.5t47 249.5q0 128 -46 241t-128.5 199t-193 134.5
t-240.5 48.5q-131 0 -242.5 -46t-194.5 -129.5t-129 -197.5t-46 -250t45 -249.5t127 -196.5t194 -128.5t246 -45.5z" />
    <glyph glyph-name="overscore" unicode="&#xaf;" horiz-adv-x="1024" 
d="M178 1556l45 201h1037l-46 -201h-1036z" />
    <glyph glyph-name="degree" unicode="&#xb0;" horiz-adv-x="877" 
d="M438 793q-105 0 -186 43.5t-126.5 121.5t-45.5 179q0 100 45.5 178t126.5 123t186 45q106 0 186 -44.5t125.5 -122.5t45.5 -179t-45.5 -179t-125.5 -121.5t-186 -43.5zM438 983q65 0 110.5 41.5t45.5 112.5q0 74 -45.5 115.5t-110.5 41.5q-64 0 -109.5 -41.5
t-45.5 -115.5q0 -71 45.5 -112.5t109.5 -41.5z" />
    <glyph glyph-name="plusminus" unicode="&#xb1;" horiz-adv-x="1171" 
d="M109 0v219h993v-219h-993zM715 892h387v-219h-387v-385h-219v385h-387v219h387v390h219v-390z" />
    <glyph glyph-name="uni00B2" unicode="&#xb2;" horiz-adv-x="776" 
d="M115 850l35 166l272 219q66 53 110.5 92.5t67.5 73.5t23 72q0 41 -25.5 61t-60.5 20q-43 0 -89.5 -20t-99.5 -61l-100 157q74 57 156.5 87t191.5 30q125 0 197.5 -63t72.5 -160q0 -85 -32 -145t-94.5 -113.5t-153.5 -120.5l-129 -94h346l-41 -201h-647z" />
    <glyph glyph-name="uni00B3" unicode="&#xb3;" horiz-adv-x="776" 
d="M414 834q-76 0 -146.5 15t-120.5 40v192q59 -34 122 -52.5t132 -18.5q73 0 123.5 29.5t50.5 88.5q0 38 -25.5 63.5t-88.5 25.5h-127l35 159h90q55 0 95.5 12.5t62.5 37.5t22 63q0 40 -26 60t-70 20q-46 0 -93.5 -17.5t-95.5 -48.5l-82 150q71 46 147 69t167 23
q104 0 165.5 -30t89 -78.5t27.5 -102.5q0 -104 -63 -156t-154 -75v-9q83 -18 118.5 -63.5t35.5 -110.5q0 -100 -57 -163t-146.5 -93t-187.5 -30z" />
    <glyph glyph-name="acute" unicode="&#xb4;" horiz-adv-x="659" 
d="M231 1241v25q34 38 73.5 90.5t78 108.5t70.5 104h335v-17q-22 -27 -64 -68.5t-93 -87t-101.5 -86.5t-89.5 -69h-209z" />
    <glyph glyph-name="uni00B5" unicode="&#xb5;" horiz-adv-x="1249" 
d="M-68 -492l342 1610h301l-135 -645q-7 -35 -11.5 -67.5t-4.5 -57.5q0 -60 31.5 -92.5t79.5 -32.5q72 0 126 59t92.5 156.5t61.5 210.5l98 469h301l-237 -1118h-225l18 176h-10q-37 -62 -78.5 -106t-88 -67t-99.5 -23q-51 0 -89.5 19.5t-58.5 47.5h-10q-4 -31 -9 -69
t-11 -77t-13 -73l-67 -320h-304z" />
    <glyph glyph-name="paragraph" unicode="&#xb6;" horiz-adv-x="1341" 
d="M713 -260v819q-31 -9 -66.5 -13.5t-79.5 -4.5q-95 0 -172.5 26t-133 84.5t-85 154.5t-29.5 236q0 147 32.5 246t92.5 158t143 84.5t183 25.5h604v-1816h-162v1616h-166v-1616h-161z" />
    <glyph glyph-name="periodcentered" unicode="&#xb7;" horiz-adv-x="584" 
d="M286 553q-85 0 -120 44t-35 98q0 74 46 136t158 62q68 0 109 -38t41 -107q0 -85 -54 -140t-145 -55z" />
    <glyph glyph-name="cedilla" unicode="&#xb8;" horiz-adv-x="420" 
d="M-55 -492q-48 0 -88.5 8t-63.5 15v168q22 -7 56 -15t69 -8q34 0 56.5 9.5t34 28t11.5 44.5q0 34 -31 56.5t-110 31.5l96 154h185l-39 -72q59 -19 100 -61t41 -117q0 -68 -33 -123t-102.5 -87t-181.5 -32z" />
    <glyph glyph-name="uni00B9" unicode="&#xb9;" horiz-adv-x="776" 
d="M360 850l84 397q14 63 29.5 117.5t26.5 89.5q-19 -15 -42.5 -32.5t-37.5 -26.5l-131 -82l-103 166l400 247h207l-187 -876h-246z" />
    <glyph glyph-name="ordmasculine" unicode="&#xba;" horiz-adv-x="754" 
d="M440 748q-133 0 -201.5 75.5t-68.5 210.5q0 89 24 169t72 141t119.5 96t165.5 35q143 0 204.5 -81t61.5 -204q0 -66 -18 -142.5t-60.5 -144.5t-115.5 -111.5t-183 -43.5zM459 911q37 0 64.5 27t46 71t27.5 95.5t9 99.5q0 54 -19 80.5t-57 26.5q-37 0 -65 -27.5t-47 -71.5
t-29 -94.5t-10 -95.5q0 -57 21 -84t59 -27z" />
    <glyph glyph-name="guillemotright" unicode="&#xbb;" horiz-adv-x="1151" 
d="M678 90l-191 156l279 334l-135 350l246 102l202 -461v-18zM190 90l-190 156l279 334l-136 350l246 102l203 -461v-18z" />
    <glyph glyph-name="onequarter" unicode="&#xbc;" horiz-adv-x="1708" 
d="M220 0l1087 1462h236l-1084 -1462h-239zM319 584l84 397q14 63 29.5 117.5t26.5 89.5q-19 -15 -42.5 -32.5t-37.5 -26.5l-131 -82l-103 166l400 247h207l-187 -876h-246zM1210 2l33 151h-373l31 175l475 557h260l-120 -564h118l-35 -168h-118l-33 -151h-238zM1104 321
h174l41 164q9 42 17 67.5t22 74.5q-19 -28 -44 -59.5t-42 -51.5z" />
    <glyph glyph-name="onehalf" unicode="&#xbd;" horiz-adv-x="1825" 
d="M216 0l1087 1462h236l-1084 -1462h-239zM319 584l84 397q14 63 29.5 117.5t26.5 89.5q-19 -15 -42.5 -32.5t-37.5 -26.5l-131 -82l-103 166l400 247h207l-187 -876h-246zM987 -2l35 166l272 219q66 53 110.5 92.5t67.5 73.5t23 72q0 41 -25.5 61t-60.5 20
q-43 0 -89.5 -20t-99.5 -61l-100 157q74 57 156.5 87t191.5 30q125 0 197.5 -63t72.5 -160q0 -85 -32 -145t-94.5 -113.5t-153.5 -120.5l-129 -94h346l-41 -201h-647z" />
    <glyph glyph-name="threequarters" unicode="&#xbe;" horiz-adv-x="1767" 
d="M363 570q-76 0 -146.5 15t-120.5 40v192q59 -34 122 -52.5t132 -18.5q73 0 123.5 29.5t50.5 88.5q0 38 -25.5 63.5t-88.5 25.5h-127l35 159h90q55 0 95.5 12.5t62.5 37.5t22 63q0 40 -26 60t-70 20q-46 0 -93.5 -17.5t-95.5 -48.5l-82 150q71 46 147 69t167 23
q104 0 165.5 -30t89 -78.5t27.5 -102.5q0 -104 -63 -156t-154 -75v-9q83 -18 118.5 -63.5t35.5 -110.5q0 -100 -57 -163t-146.5 -93t-187.5 -30zM279 0l1087 1462h236l-1084 -1462h-239zM1269 0l33 151h-373l31 175l475 557h260l-120 -564h118l-35 -168h-118l-33 -151h-238z
M1163 319h174l41 164q9 42 17 67.5t22 74.5q-19 -28 -44 -59.5t-42 -51.5z" />
    <glyph glyph-name="questiondown" unicode="&#xbf;" horiz-adv-x="940" 
d="M688 609q-17 -94 -46.5 -165.5t-80.5 -130t-133 -114.5q-66 -45 -108.5 -79t-62.5 -67.5t-20 -76.5q0 -55 31.5 -87t101.5 -32q73 0 146 28.5t162 71.5l92 -221q-92 -50 -204 -87.5t-241 -37.5q-179 0 -281 88.5t-102 243.5q0 103 39.5 175t107.5 130t154 115
q61 40 96.5 74t56 74t34.5 98h258zM635 1121q86 0 120.5 -44t34.5 -98q0 -73 -46 -135.5t-158 -62.5q-68 0 -109 38t-41 107q0 85 54 140t145 55z" />
    <glyph glyph-name="Agrave" unicode="&#xc0;" horiz-adv-x="1286" 
d="M-123 0l766 1462h373l147 -1462h-297l-24 348h-473l-172 -348h-320zM494 608h333l-26 377q-4 60 -8 121t-2 125h-5q-19 -55 -44 -110t-56 -117zM848 1585q-42 41 -89 94.5t-88 109.5t-65 103v21h311q12 -46 29 -97t39 -103.5t47 -102.5v-25h-184z" />
    <glyph glyph-name="Aacute" unicode="&#xc1;" horiz-adv-x="1286" 
d="M-123 0l766 1462h373l147 -1462h-297l-24 348h-473l-172 -348h-320zM494 608h333l-26 377q-4 60 -8 121t-2 125h-5q-19 -55 -44 -110t-56 -117zM696 1585v25q34 38 73.5 90.5t78 108.5t70.5 104h335v-17q-22 -27 -64 -68.5t-93 -87t-101.5 -86.5t-89.5 -69h-209z" />
    <glyph glyph-name="Acircumflex" unicode="&#xc2;" horiz-adv-x="1286" 
d="M-123 0l766 1462h373l147 -1462h-297l-24 348h-473l-172 -348h-320zM494 608h333l-26 377q-4 60 -8 121t-2 125h-5q-19 -55 -44 -110t-56 -117zM440 1585v25q41 38 96.5 91.5t109.5 110t89 101.5h338q21 -48 51.5 -103t64 -107.5t60.5 -92.5v-25h-198q-23 21 -52 49
t-57.5 59.5t-52.5 59.5q-60 -49 -116 -89.5t-115 -78.5h-218z" />
    <glyph glyph-name="Atilde" unicode="&#xc3;" horiz-adv-x="1286" 
d="M-123 0l766 1462h373l147 -1462h-297l-24 348h-473l-172 -348h-320zM494 608h333l-26 377q-4 60 -8 121t-2 125h-5q-19 -55 -44 -110t-56 -117zM465 1583q21 108 60.5 176t95.5 100.5t125 32.5q49 0 88 -15.5t71 -36.5t61.5 -36.5t59.5 -15.5q35 0 59 25.5t46 80.5h172
q-23 -109 -63.5 -177.5t-96.5 -100t-127 -31.5q-49 0 -87 16t-69.5 36.5t-61 36.5t-62.5 16q-31 0 -56 -28t-39 -79h-176z" />
    <glyph glyph-name="Adieresis" unicode="&#xc4;" horiz-adv-x="1286" 
d="M-123 0l766 1462h373l147 -1462h-297l-24 348h-473l-172 -348h-320zM494 608h333l-26 377q-4 60 -8 121t-2 125h-5q-19 -55 -44 -110t-56 -117zM1065 1616q-55 0 -91 24.5t-36 85.5q0 77 39.5 117.5t111.5 40.5q51 0 88 -23.5t37 -84.5q0 -73 -36 -116.5t-113 -43.5z
M682 1616q-55 0 -91 24.5t-36 85.5q0 77 39.5 117.5t111.5 40.5q34 0 62.5 -10t45.5 -33.5t17 -64.5q0 -73 -36 -116.5t-113 -43.5z" />
    <glyph glyph-name="Aring" unicode="&#xc5;" horiz-adv-x="1286" 
d="M-123 0l766 1462h373l147 -1462h-297l-24 348h-473l-172 -348h-320zM494 608h333l-26 377q-4 60 -8 121t-2 125h-5q-19 -55 -44 -110t-56 -117zM884 1583q-110 0 -178.5 63.5t-68.5 174.5q0 110 68.5 173.5t178.5 63.5q107 0 180.5 -63t73.5 -172q0 -112 -73 -176
t-181 -64zM884 1724q42 0 69.5 26t27.5 71q0 44 -27.5 70t-69.5 26q-41 0 -68.5 -26t-27.5 -70q0 -45 24.5 -71t71.5 -26z" />
    <glyph glyph-name="AE" unicode="&#xc6;" horiz-adv-x="1833" 
d="M-123 0l922 1462h1104l-54 -254h-512l-67 -321h477l-55 -254h-478l-79 -377h512l-54 -256h-817l74 348h-426l-219 -348h-328zM588 608h317l127 600h-80z" />
    <glyph glyph-name="Ccedilla" unicode="&#xc7;" horiz-adv-x="1253" 
d="M659 -20q-177 0 -296 70.5t-179.5 199t-60.5 303.5q0 129 29.5 261t89.5 252.5t153 214.5t220 149t290 55q139 0 236 -26t194 -79l-118 -250q-71 41 -145.5 69t-166.5 28q-99 0 -176 -40t-132.5 -108.5t-91.5 -154t-53.5 -177.5t-17.5 -178q0 -166 69 -247.5t218 -81.5
q83 0 168 21.5t170 55.5v-260q-61 -24 -163.5 -50.5t-236.5 -26.5zM541 -492q-48 0 -88.5 8t-63.5 15v168q22 -7 56 -15t69 -8q34 0 56.5 9.5t34 28t11.5 44.5q0 34 -31 56.5t-110 31.5l96 154h185l-39 -72q59 -19 100 -61t41 -117q0 -68 -33 -123t-102.5 -87t-181.5 -32z
" />
    <glyph glyph-name="Egrave" unicode="&#xc8;" horiz-adv-x="1110" 
d="M53 0l309 1462h818l-54 -254h-512l-67 -321h477l-55 -254h-477l-80 -377h512l-54 -256h-817zM766 1585q-42 41 -89 94.5t-88 109.5t-65 103v21h311q12 -46 29 -97t39 -103.5t47 -102.5v-25h-184z" />
    <glyph glyph-name="Eacute" unicode="&#xc9;" horiz-adv-x="1110" 
d="M53 0l309 1462h818l-54 -254h-512l-67 -321h477l-55 -254h-477l-80 -377h512l-54 -256h-817zM614 1585v25q34 38 73.5 90.5t78 108.5t70.5 104h335v-17q-22 -27 -64 -68.5t-93 -87t-101.5 -86.5t-89.5 -69h-209z" />
    <glyph glyph-name="Ecircumflex" unicode="&#xca;" horiz-adv-x="1110" 
d="M53 0l309 1462h818l-54 -254h-512l-67 -321h477l-55 -254h-477l-80 -377h512l-54 -256h-817zM358 1585v25q41 38 96.5 91.5t109.5 110t89 101.5h338q21 -48 51.5 -103t64 -107.5t60.5 -92.5v-25h-198q-23 21 -52 49t-57.5 59.5t-52.5 59.5q-60 -49 -116 -89.5t-115 -78.5
h-218z" />
    <glyph glyph-name="Edieresis" unicode="&#xcb;" horiz-adv-x="1110" 
d="M53 0l309 1462h818l-54 -254h-512l-67 -321h477l-55 -254h-477l-80 -377h512l-54 -256h-817zM983 1616q-55 0 -91 24.5t-36 85.5q0 77 39.5 117.5t111.5 40.5q51 0 88 -23.5t37 -84.5q0 -73 -36 -116.5t-113 -43.5zM600 1616q-55 0 -91 24.5t-36 85.5q0 77 39.5 117.5
t111.5 40.5q34 0 62.5 -10t45.5 -33.5t17 -64.5q0 -73 -36 -116.5t-113 -43.5z" />
    <glyph glyph-name="Igrave" unicode="&#xcc;" horiz-adv-x="655" 
d="M51 0l311 1462h306l-312 -1462h-305zM519 1585q-42 41 -89 94.5t-88 109.5t-65 103v21h311q12 -46 29 -97t39 -103.5t47 -102.5v-25h-184z" />
    <glyph glyph-name="Iacute" unicode="&#xcd;" horiz-adv-x="655" 
d="M51 0l311 1462h306l-312 -1462h-305zM346 1585v25q34 38 73.5 90.5t78 108.5t70.5 104h335v-17q-22 -27 -64 -68.5t-93 -87t-101.5 -86.5t-89.5 -69h-209z" />
    <glyph glyph-name="Icircumflex" unicode="&#xce;" horiz-adv-x="655" 
d="M51 0l311 1462h306l-312 -1462h-305zM128 1585v25q41 38 96.5 91.5t109.5 110t89 101.5h338q21 -48 51.5 -103t64 -107.5t60.5 -92.5v-25h-198q-23 21 -52 49t-57.5 59.5t-52.5 59.5q-60 -49 -116 -89.5t-115 -78.5h-218z" />
    <glyph glyph-name="Idieresis" unicode="&#xcf;" horiz-adv-x="655" 
d="M51 0l311 1462h306l-312 -1462h-305zM756 1616q-55 0 -91 24.5t-36 85.5q0 77 39.5 117.5t111.5 40.5q51 0 88 -23.5t37 -84.5q0 -73 -36 -116.5t-113 -43.5zM373 1616q-55 0 -91 24.5t-36 85.5q0 77 39.5 117.5t111.5 40.5q34 0 62.5 -10t45.5 -33.5t17 -64.5
q0 -73 -36 -116.5t-113 -43.5z" />
    <glyph glyph-name="Eth" unicode="&#xd0;" horiz-adv-x="1386" 
d="M53 0l125 596h-141l55 254h139l131 612h396q269 0 417 -142t148 -411q0 -166 -35 -307t-102.5 -252.5t-167 -189.5t-228.5 -119t-286 -41h-451zM412 256h106q101 0 180.5 33.5t138 93.5t97 140t57.5 174.5t19 195.5q0 161 -75 238t-206 77h-115l-75 -358h237l-55 -254
h-238z" />
    <glyph glyph-name="Ntilde" unicode="&#xd1;" horiz-adv-x="1546" 
d="M53 0l309 1462h357l340 -1077h8q7 43 18 111.5t24.5 142t25.5 131.5l147 692h274l-309 -1462h-342l-356 1106h-10q-1 -12 -7.5 -58t-16 -110.5t-20.5 -131t-22 -118.5l-145 -688h-275zM606 1583q21 108 60.5 176t95.5 100.5t125 32.5q49 0 88 -15.5t71 -36.5t61.5 -36.5
t59.5 -15.5q35 0 59 25.5t46 80.5h172q-23 -109 -63.5 -177.5t-96.5 -100t-127 -31.5q-49 0 -87 16t-69.5 36.5t-61 36.5t-62.5 16q-31 0 -56 -28t-39 -79h-176z" />
    <glyph glyph-name="Ograve" unicode="&#xd2;" horiz-adv-x="1495" 
d="M666 -20q-178 0 -298.5 69t-182.5 194.5t-62 293.5q0 114 20.5 228t62 220t105 197t149.5 159t195 106t242 38q266 0 400.5 -149.5t134.5 -397.5q0 -119 -19.5 -236t-60 -224t-103 -197.5t-147.5 -158t-193.5 -105t-242.5 -37.5zM688 240q60 0 115 22t103 63.5t87.5 102
t67.5 137t43.5 168.5t15.5 197q0 135 -62.5 216t-185.5 81q-63 0 -120.5 -25t-106 -71t-87.5 -109t-67 -140t-42.5 -164t-14.5 -181q0 -97 30 -163.5t87 -100t137 -33.5zM953 1585q-42 41 -89 94.5t-88 109.5t-65 103v21h311q12 -46 29 -97t39 -103.5t47 -102.5v-25h-184z
" />
    <glyph glyph-name="Oacute" unicode="&#xd3;" horiz-adv-x="1495" 
d="M666 -20q-178 0 -298.5 69t-182.5 194.5t-62 293.5q0 114 20.5 228t62 220t105 197t149.5 159t195 106t242 38q266 0 400.5 -149.5t134.5 -397.5q0 -119 -19.5 -236t-60 -224t-103 -197.5t-147.5 -158t-193.5 -105t-242.5 -37.5zM688 240q60 0 115 22t103 63.5t87.5 102
t67.5 137t43.5 168.5t15.5 197q0 135 -62.5 216t-185.5 81q-63 0 -120.5 -25t-106 -71t-87.5 -109t-67 -140t-42.5 -164t-14.5 -181q0 -97 30 -163.5t87 -100t137 -33.5zM800 1585v25q34 38 73.5 90.5t78 108.5t70.5 104h335v-17q-22 -27 -64 -68.5t-93 -87t-101.5 -86.5
t-89.5 -69h-209z" />
    <glyph glyph-name="Ocircumflex" unicode="&#xd4;" horiz-adv-x="1495" 
d="M666 -20q-178 0 -298.5 69t-182.5 194.5t-62 293.5q0 114 20.5 228t62 220t105 197t149.5 159t195 106t242 38q266 0 400.5 -149.5t134.5 -397.5q0 -119 -19.5 -236t-60 -224t-103 -197.5t-147.5 -158t-193.5 -105t-242.5 -37.5zM688 240q60 0 115 22t103 63.5t87.5 102
t67.5 137t43.5 168.5t15.5 197q0 135 -62.5 216t-185.5 81q-63 0 -120.5 -25t-106 -71t-87.5 -109t-67 -140t-42.5 -164t-14.5 -181q0 -97 30 -163.5t87 -100t137 -33.5zM544 1585v25q41 38 96.5 91.5t109.5 110t89 101.5h338q21 -48 51.5 -103t64 -107.5t60.5 -92.5v-25
h-198q-23 21 -52 49t-57.5 59.5t-52.5 59.5q-60 -49 -116 -89.5t-115 -78.5h-218z" />
    <glyph glyph-name="Otilde" unicode="&#xd5;" horiz-adv-x="1495" 
d="M666 -20q-178 0 -298.5 69t-182.5 194.5t-62 293.5q0 114 20.5 228t62 220t105 197t149.5 159t195 106t242 38q266 0 400.5 -149.5t134.5 -397.5q0 -119 -19.5 -236t-60 -224t-103 -197.5t-147.5 -158t-193.5 -105t-242.5 -37.5zM688 240q60 0 115 22t103 63.5t87.5 102
t67.5 137t43.5 168.5t15.5 197q0 135 -62.5 216t-185.5 81q-63 0 -120.5 -25t-106 -71t-87.5 -109t-67 -140t-42.5 -164t-14.5 -181q0 -97 30 -163.5t87 -100t137 -33.5zM569 1583q21 108 60.5 176t95.5 100.5t125 32.5q49 0 88 -15.5t71 -36.5t61.5 -36.5t59.5 -15.5
q35 0 59 25.5t46 80.5h172q-23 -109 -63.5 -177.5t-96.5 -100t-127 -31.5q-49 0 -87 16t-69.5 36.5t-61 36.5t-62.5 16q-31 0 -56 -28t-39 -79h-176z" />
    <glyph glyph-name="Odieresis" unicode="&#xd6;" horiz-adv-x="1495" 
d="M666 -20q-178 0 -298.5 69t-182.5 194.5t-62 293.5q0 114 20.5 228t62 220t105 197t149.5 159t195 106t242 38q266 0 400.5 -149.5t134.5 -397.5q0 -119 -19.5 -236t-60 -224t-103 -197.5t-147.5 -158t-193.5 -105t-242.5 -37.5zM688 240q60 0 115 22t103 63.5t87.5 102
t67.5 137t43.5 168.5t15.5 197q0 135 -62.5 216t-185.5 81q-63 0 -120.5 -25t-106 -71t-87.5 -109t-67 -140t-42.5 -164t-14.5 -181q0 -97 30 -163.5t87 -100t137 -33.5zM1170 1616q-55 0 -91 24.5t-36 85.5q0 77 39.5 117.5t111.5 40.5q51 0 88 -23.5t37 -84.5
q0 -73 -36 -116.5t-113 -43.5zM787 1616q-55 0 -91 24.5t-36 85.5q0 77 39.5 117.5t111.5 40.5q34 0 62.5 -10t45.5 -33.5t17 -64.5q0 -73 -36 -116.5t-113 -43.5z" />
    <glyph glyph-name="multiply" unicode="&#xd7;" horiz-adv-x="1171" 
d="M907 1178l154 -150l-305 -305l301 -303l-150 -152l-305 301l-301 -299l-149 152l297 301l-299 301l151 154l301 -299z" />
    <glyph glyph-name="Oslash" unicode="&#xd8;" horiz-adv-x="1495" 
d="M254 -86l-154 115l121 151q-49 69 -73.5 160t-24.5 197q0 114 20.5 228t62 220t105 197t149.5 159t195 106t242 38q92 0 168.5 -19.5t136.5 -56.5l105 131l151 -117l-117 -145q47 -69 69 -154.5t22 -185.5q0 -119 -19.5 -236t-60 -224t-103 -197.5t-147.5 -158
t-193.5 -105t-242.5 -37.5q-91 0 -166.5 18t-137.5 53zM692 233q62 0 118.5 22.5t106 65t89 103.5t68 138.5t44 170t15.5 197.5q0 17 -1.5 40t-3.5 40l-589 -740q27 -16 67 -26.5t86 -10.5zM432 436l596 754q-29 18 -68.5 30.5t-89.5 12.5q-67 0 -126.5 -25.5t-109 -72
t-88.5 -110.5t-66.5 -141.5t-41.5 -165t-14 -181.5q0 -23 2.5 -49t5.5 -52z" />
    <glyph glyph-name="Ugrave" unicode="&#xd9;" horiz-adv-x="1415" 
d="M604 -20q-151 0 -254.5 51t-156 143.5t-52.5 216.5q0 32 3.5 72.5t11.5 75.5l196 923h305l-194 -919q-7 -35 -12 -67t-5 -58q0 -86 47 -132t142 -46q89 0 147.5 34t94.5 102t57 169l194 917h306l-201 -946q-33 -155 -107.5 -276.5t-201.5 -190.5t-320 -69zM906 1585
q-42 41 -89 94.5t-88 109.5t-65 103v21h311q12 -46 29 -97t39 -103.5t47 -102.5v-25h-184z" />
    <glyph glyph-name="Uacute" unicode="&#xda;" horiz-adv-x="1415" 
d="M604 -20q-151 0 -254.5 51t-156 143.5t-52.5 216.5q0 32 3.5 72.5t11.5 75.5l196 923h305l-194 -919q-7 -35 -12 -67t-5 -58q0 -86 47 -132t142 -46q89 0 147.5 34t94.5 102t57 169l194 917h306l-201 -946q-33 -155 -107.5 -276.5t-201.5 -190.5t-320 -69zM753 1585v25
q34 38 73.5 90.5t78 108.5t70.5 104h335v-17q-22 -27 -64 -68.5t-93 -87t-101.5 -86.5t-89.5 -69h-209z" />
    <glyph glyph-name="Ucircumflex" unicode="&#xdb;" horiz-adv-x="1415" 
d="M604 -20q-151 0 -254.5 51t-156 143.5t-52.5 216.5q0 32 3.5 72.5t11.5 75.5l196 923h305l-194 -919q-7 -35 -12 -67t-5 -58q0 -86 47 -132t142 -46q89 0 147.5 34t94.5 102t57 169l194 917h306l-201 -946q-33 -155 -107.5 -276.5t-201.5 -190.5t-320 -69zM497 1585v25
q41 38 96.5 91.5t109.5 110t89 101.5h338q21 -48 51.5 -103t64 -107.5t60.5 -92.5v-25h-198q-23 21 -52 49t-57.5 59.5t-52.5 59.5q-60 -49 -116 -89.5t-115 -78.5h-218z" />
    <glyph glyph-name="Udieresis" unicode="&#xdc;" horiz-adv-x="1415" 
d="M604 -20q-151 0 -254.5 51t-156 143.5t-52.5 216.5q0 32 3.5 72.5t11.5 75.5l196 923h305l-194 -919q-7 -35 -12 -67t-5 -58q0 -86 47 -132t142 -46q89 0 147.5 34t94.5 102t57 169l194 917h306l-201 -946q-33 -155 -107.5 -276.5t-201.5 -190.5t-320 -69zM1123 1616
q-55 0 -91 24.5t-36 85.5q0 77 39.5 117.5t111.5 40.5q51 0 88 -23.5t37 -84.5q0 -73 -36 -116.5t-113 -43.5zM740 1616q-55 0 -91 24.5t-36 85.5q0 77 39.5 117.5t111.5 40.5q34 0 62.5 -10t45.5 -33.5t17 -64.5q0 -73 -36 -116.5t-113 -43.5z" />
    <glyph glyph-name="Yacute" unicode="&#xdd;" horiz-adv-x="1155" 
d="M303 0l119 559l-236 903h312l129 -592l374 592h342l-618 -903l-119 -559h-303zM610 1585v25q34 38 73.5 90.5t78 108.5t70.5 104h335v-17q-22 -27 -64 -68.5t-93 -87t-101.5 -86.5t-89.5 -69h-209z" />
    <glyph glyph-name="Thorn" unicode="&#xde;" horiz-adv-x="1241" 
d="M53 0l309 1462h306l-50 -229h84q179 0 286.5 -53.5t155.5 -149.5t48 -223q0 -130 -48 -227t-134.5 -160.5t-202.5 -95t-252 -31.5h-135l-62 -293h-305zM475 547h105q91 0 159.5 29.5t107 86t38.5 136.5q0 92 -49 136t-146 44h-123z" />
    <glyph glyph-name="germandbls" unicode="&#xdf;" horiz-adv-x="1350" 
d="M-100 -492q-37 0 -83 7.5t-77 17.5v242q32 -11 59 -16t56 -5q62 0 106 40.5t64 137.5l254 1207q31 146 98.5 240.5t182.5 141t286 46.5q210 0 332 -90.5t122 -239.5q0 -86 -25.5 -147t-76 -107.5t-125.5 -89.5q-52 -31 -85.5 -58t-33.5 -65q0 -15 9.5 -31.5t31.5 -37.5
t60 -50q83 -63 132.5 -130.5t49.5 -170.5q0 -106 -52 -190t-154.5 -132t-254.5 -48q-94 0 -167.5 15t-129.5 46v240q56 -34 122 -56t136 -22q101 0 148 33.5t47 85.5q0 29 -12 52.5t-41.5 51.5t-81.5 68q-79 59 -121.5 118t-42.5 138q0 68 26 115.5t73 84.5t108 72
q44 25 76 50t49.5 54.5t17.5 67.5q0 62 -39.5 98.5t-124.5 36.5q-82 0 -130.5 -31.5t-73.5 -82t-37 -109.5l-254 -1219q-24 -111 -72.5 -196.5t-133.5 -134t-218 -48.5z" />
    <glyph glyph-name="agrave" unicode="&#xe0;" horiz-adv-x="1217" 
d="M406 -20q-81 0 -153 40t-117.5 129t-45.5 236q0 110 23.5 218t68 204.5t108 171t144 117.5t174.5 43q71 0 124 -20.5t91 -57.5t62 -86h8l57 143h232l-238 -1118h-225l14 145h-8q-40 -49 -87 -86t-104 -58t-128 -21zM524 223q62 0 115 48.5t91 126.5t54 165
q8 40 11.5 80.5t3.5 87.5q0 71 -37.5 117.5t-102.5 46.5q-44 0 -83.5 -28.5t-72.5 -78t-57.5 -113t-37.5 -134.5t-13 -142q0 -87 34 -131.5t95 -44.5zM740 1241q-42 41 -89 94.5t-88 109.5t-65 103v21h311q12 -46 29 -97t39 -103.5t47 -102.5v-25h-184z" />
    <glyph glyph-name="aacute" unicode="&#xe1;" horiz-adv-x="1217" 
d="M406 -20q-81 0 -153 40t-117.5 129t-45.5 236q0 110 23.5 218t68 204.5t108 171t144 117.5t174.5 43q71 0 124 -20.5t91 -57.5t62 -86h8l57 143h232l-238 -1118h-225l14 145h-8q-40 -49 -87 -86t-104 -58t-128 -21zM524 223q62 0 115 48.5t91 126.5t54 165
q8 40 11.5 80.5t3.5 87.5q0 71 -37.5 117.5t-102.5 46.5q-44 0 -83.5 -28.5t-72.5 -78t-57.5 -113t-37.5 -134.5t-13 -142q0 -87 34 -131.5t95 -44.5zM587 1241v25q34 38 73.5 90.5t78 108.5t70.5 104h335v-17q-22 -27 -64 -68.5t-93 -87t-101.5 -86.5t-89.5 -69h-209z" />
    <glyph glyph-name="acircumflex" unicode="&#xe2;" horiz-adv-x="1217" 
d="M406 -20q-81 0 -153 40t-117.5 129t-45.5 236q0 110 23.5 218t68 204.5t108 171t144 117.5t174.5 43q71 0 124 -20.5t91 -57.5t62 -86h8l57 143h232l-238 -1118h-225l14 145h-8q-40 -49 -87 -86t-104 -58t-128 -21zM524 223q62 0 115 48.5t91 126.5t54 165
q8 40 11.5 80.5t3.5 87.5q0 71 -37.5 117.5t-102.5 46.5q-44 0 -83.5 -28.5t-72.5 -78t-57.5 -113t-37.5 -134.5t-13 -142q0 -87 34 -131.5t95 -44.5zM331 1241v25q41 38 96.5 91.5t109.5 110t89 101.5h338q21 -48 51.5 -103t64 -107.5t60.5 -92.5v-25h-198q-23 21 -52 49
t-57.5 59.5t-52.5 59.5q-60 -49 -116 -89.5t-115 -78.5h-218z" />
    <glyph glyph-name="atilde" unicode="&#xe3;" horiz-adv-x="1217" 
d="M406 -20q-81 0 -153 40t-117.5 129t-45.5 236q0 110 23.5 218t68 204.5t108 171t144 117.5t174.5 43q71 0 124 -20.5t91 -57.5t62 -86h8l57 143h232l-238 -1118h-225l14 145h-8q-40 -49 -87 -86t-104 -58t-128 -21zM524 223q62 0 115 48.5t91 126.5t54 165
q8 40 11.5 80.5t3.5 87.5q0 71 -37.5 117.5t-102.5 46.5q-44 0 -83.5 -28.5t-72.5 -78t-57.5 -113t-37.5 -134.5t-13 -142q0 -87 34 -131.5t95 -44.5zM356 1239q21 108 60.5 176t95.5 100.5t125 32.5q49 0 88 -15.5t71 -36.5t61.5 -36.5t59.5 -15.5q35 0 59 25.5t46 80.5
h172q-23 -109 -63.5 -177.5t-96.5 -100t-127 -31.5q-49 0 -87 16t-69.5 36.5t-61 36.5t-62.5 16q-31 0 -56 -28t-39 -79h-176z" />
    <glyph glyph-name="adieresis" unicode="&#xe4;" horiz-adv-x="1217" 
d="M406 -20q-81 0 -153 40t-117.5 129t-45.5 236q0 110 23.5 218t68 204.5t108 171t144 117.5t174.5 43q71 0 124 -20.5t91 -57.5t62 -86h8l57 143h232l-238 -1118h-225l14 145h-8q-40 -49 -87 -86t-104 -58t-128 -21zM524 223q62 0 115 48.5t91 126.5t54 165
q8 40 11.5 80.5t3.5 87.5q0 71 -37.5 117.5t-102.5 46.5q-44 0 -83.5 -28.5t-72.5 -78t-57.5 -113t-37.5 -134.5t-13 -142q0 -87 34 -131.5t95 -44.5zM957 1272q-55 0 -91 24.5t-36 85.5q0 77 39.5 117.5t111.5 40.5q51 0 88 -23.5t37 -84.5q0 -73 -36 -116.5t-113 -43.5z
M574 1272q-55 0 -91 24.5t-36 85.5q0 77 39.5 117.5t111.5 40.5q34 0 62.5 -10t45.5 -33.5t17 -64.5q0 -73 -36 -116.5t-113 -43.5z" />
    <glyph glyph-name="aring" unicode="&#xe5;" horiz-adv-x="1217" 
d="M406 -20q-81 0 -153 40t-117.5 129t-45.5 236q0 110 23.5 218t68 204.5t108 171t144 117.5t174.5 43q71 0 124 -20.5t91 -57.5t62 -86h8l57 143h232l-238 -1118h-225l14 145h-8q-40 -49 -87 -86t-104 -58t-128 -21zM524 223q62 0 115 48.5t91 126.5t54 165
q8 40 11.5 80.5t3.5 87.5q0 71 -37.5 117.5t-102.5 46.5q-44 0 -83.5 -28.5t-72.5 -78t-57.5 -113t-37.5 -134.5t-13 -142q0 -87 34 -131.5t95 -44.5zM776 1239q-110 0 -178.5 63.5t-68.5 174.5q0 110 68.5 173.5t178.5 63.5q107 0 180.5 -63t73.5 -172q0 -112 -73 -176
t-181 -64zM776 1380q42 0 69.5 26t27.5 71q0 44 -27.5 70t-69.5 26q-41 0 -68.5 -26t-27.5 -70q0 -45 24.5 -71t71.5 -26z" />
    <glyph glyph-name="ae" unicode="&#xe6;" horiz-adv-x="1786" 
d="M399 -20q-92 0 -161.5 46.5t-108.5 136.5t-39 222q0 117 24 228t69.5 206t108.5 167t141.5 112.5t168.5 40.5q69 0 118 -19t85.5 -55.5t66.5 -89.5h11l57 143h188l-18 -90q48 54 126 82.5t163 28.5q161 0 248.5 -85.5t87.5 -219.5q0 -88 -39.5 -160t-119.5 -123.5
t-200.5 -79t-283.5 -27.5h-52q-1 -12 -1.5 -19.5t-0.5 -18.5q0 -80 47 -139.5t168 -59.5q76 0 161.5 25.5t152.5 60.5v-227q-79 -37 -171 -61.5t-190 -24.5q-109 0 -179.5 27t-117.5 87l-16 -94h-188l14 145h-10q-40 -49 -84.5 -86t-99.5 -58t-126 -21zM518 223
q44 0 82.5 24t70 66t56 97.5t39.5 119.5q11 45 16.5 93t5.5 96q0 80 -33 128t-102 48q-45 0 -84.5 -28.5t-71.5 -78t-55 -113t-35 -134.5t-12 -142q0 -95 37 -135.5t86 -40.5zM1073 647h45q116 0 188.5 25t106 66t33.5 89t-27.5 71.5t-77.5 23.5q-56 0 -111 -35t-97 -97
t-60 -143z" />
    <glyph glyph-name="ccedilla" unicode="&#xe7;" horiz-adv-x="989" 
d="M506 -20q-116 0 -210.5 41.5t-150 132t-55.5 237.5q0 121 25 232t74 205t121 163.5t165 108.5t207 39q100 0 179.5 -19t148.5 -53l-92 -229q-54 23 -106 40t-118 17q-71 0 -126.5 -41t-94 -110t-58.5 -154.5t-20 -173.5q0 -63 20.5 -106t59 -65t92.5 -22q76 0 141 23.5
t134 58.5v-246q-70 -37 -151 -58t-185 -21zM351 -492q-48 0 -88.5 8t-63.5 15v168q22 -7 56 -15t69 -8q34 0 56.5 9.5t34 28t11.5 44.5q0 34 -31 56.5t-110 31.5l96 154h185l-39 -72q59 -19 100 -61t41 -117q0 -68 -33 -123t-102.5 -87t-181.5 -32z" />
    <glyph glyph-name="egrave" unicode="&#xe8;" horiz-adv-x="1141" 
d="M532 -20q-131 0 -230.5 47.5t-155.5 143.5t-56 241q0 140 40 270.5t119.5 233.5t196 163t269.5 60q188 0 281.5 -85.5t93.5 -219.5q0 -88 -39.5 -160t-119.5 -123.5t-201 -79t-284 -27.5h-51q-1 -12 -1.5 -21t-0.5 -20q0 -90 52 -143t147 -53q88 0 160 20t170 66v-227
q-88 -43 -179 -64.5t-211 -21.5zM428 647h45q116 0 188.5 25t106 66t33.5 89t-27.5 71.5t-77.5 23.5q-56 0 -111 -35t-97 -97t-60 -143zM715 1241q-42 41 -89 94.5t-88 109.5t-65 103v21h311q12 -46 29 -97t39 -103.5t47 -102.5v-25h-184z" />
    <glyph glyph-name="eacute" unicode="&#xe9;" horiz-adv-x="1141" 
d="M532 -20q-131 0 -230.5 47.5t-155.5 143.5t-56 241q0 140 40 270.5t119.5 233.5t196 163t269.5 60q188 0 281.5 -85.5t93.5 -219.5q0 -88 -39.5 -160t-119.5 -123.5t-201 -79t-284 -27.5h-51q-1 -12 -1.5 -21t-0.5 -20q0 -90 52 -143t147 -53q88 0 160 20t170 66v-227
q-88 -43 -179 -64.5t-211 -21.5zM428 647h45q116 0 188.5 25t106 66t33.5 89t-27.5 71.5t-77.5 23.5q-56 0 -111 -35t-97 -97t-60 -143zM564 1241v25q34 38 73.5 90.5t78 108.5t70.5 104h335v-17q-22 -27 -64 -68.5t-93 -87t-101.5 -86.5t-89.5 -69h-209z" />
    <glyph glyph-name="ecircumflex" unicode="&#xea;" horiz-adv-x="1141" 
d="M532 -20q-131 0 -230.5 47.5t-155.5 143.5t-56 241q0 140 40 270.5t119.5 233.5t196 163t269.5 60q188 0 281.5 -85.5t93.5 -219.5q0 -88 -39.5 -160t-119.5 -123.5t-201 -79t-284 -27.5h-51q-1 -12 -1.5 -21t-0.5 -20q0 -90 52 -143t147 -53q88 0 160 20t170 66v-227
q-88 -43 -179 -64.5t-211 -21.5zM428 647h45q116 0 188.5 25t106 66t33.5 89t-27.5 71.5t-77.5 23.5q-56 0 -111 -35t-97 -97t-60 -143zM307 1241v25q41 38 96.5 91.5t109.5 110t89 101.5h338q21 -48 51.5 -103t64 -107.5t60.5 -92.5v-25h-198q-23 21 -52 49t-57.5 59.5
t-52.5 59.5q-60 -49 -116 -89.5t-115 -78.5h-218z" />
    <glyph glyph-name="edieresis" unicode="&#xeb;" horiz-adv-x="1141" 
d="M532 -20q-131 0 -230.5 47.5t-155.5 143.5t-56 241q0 140 40 270.5t119.5 233.5t196 163t269.5 60q188 0 281.5 -85.5t93.5 -219.5q0 -88 -39.5 -160t-119.5 -123.5t-201 -79t-284 -27.5h-51q-1 -12 -1.5 -21t-0.5 -20q0 -90 52 -143t147 -53q88 0 160 20t170 66v-227
q-88 -43 -179 -64.5t-211 -21.5zM428 647h45q116 0 188.5 25t106 66t33.5 89t-27.5 71.5t-77.5 23.5q-56 0 -111 -35t-97 -97t-60 -143zM932 1272q-55 0 -91 24.5t-36 85.5q0 77 39.5 117.5t111.5 40.5q51 0 88 -23.5t37 -84.5q0 -73 -36 -116.5t-113 -43.5zM549 1272
q-55 0 -91 24.5t-36 85.5q0 77 39.5 117.5t111.5 40.5q34 0 62.5 -10t45.5 -33.5t17 -64.5q0 -73 -36 -116.5t-113 -43.5z" />
    <glyph glyph-name="igrave" unicode="&#xec;" horiz-adv-x="608" 
d="M37 0l237 1118h301l-237 -1118h-301zM437 1241q-42 41 -89 94.5t-88 109.5t-65 103v21h311q12 -46 29 -97t39 -103.5t47 -102.5v-25h-184z" />
    <glyph glyph-name="iacute" unicode="&#xed;" horiz-adv-x="608" 
d="M37 0l237 1118h301l-237 -1118h-301zM284 1241v25q34 38 73.5 90.5t78 108.5t70.5 104h335v-17q-22 -27 -64 -68.5t-93 -87t-101.5 -86.5t-89.5 -69h-209z" />
    <glyph glyph-name="icircumflex" unicode="&#xee;" horiz-adv-x="608" 
d="M37 0l237 1118h301l-237 -1118h-301zM28 1241v25q41 38 96.5 91.5t109.5 110t89 101.5h338q21 -48 51.5 -103t64 -107.5t60.5 -92.5v-25h-198q-23 21 -52 49t-57.5 59.5t-52.5 59.5q-60 -49 -116 -89.5t-115 -78.5h-218z" />
    <glyph glyph-name="idieresis" unicode="&#xef;" horiz-adv-x="608" 
d="M37 0l237 1118h301l-237 -1118h-301zM654 1272q-55 0 -91 24.5t-36 85.5q0 77 39.5 117.5t111.5 40.5q51 0 88 -23.5t37 -84.5q0 -73 -36 -116.5t-113 -43.5zM271 1272q-55 0 -91 24.5t-36 85.5q0 77 39.5 117.5t111.5 40.5q34 0 62.5 -10t45.5 -33.5t17 -64.5
q0 -73 -36 -116.5t-113 -43.5z" />
    <glyph glyph-name="eth" unicode="&#xf0;" horiz-adv-x="1182" 
d="M514 -20q-129 0 -228.5 43.5t-156.5 137.5t-57 245q0 118 34.5 224.5t100 188.5t160 129t215.5 47q101 0 164 -37.5t98 -87.5h10q-7 83 -33.5 164.5t-83.5 136.5l-231 -131l-88 148l200 112q-22 23 -54.5 42.5t-69.5 37.5l118 187q68 -31 128.5 -67.5t103.5 -72.5
l237 132l76 -152l-192 -107q54 -70 86 -149t45.5 -167.5t13.5 -188.5q0 -133 -22 -254.5t-67 -223.5t-115.5 -177.5t-168 -117.5t-223.5 -42zM528 205q44 0 81.5 22.5t67.5 62t51 90.5t32.5 108t11.5 114q0 35 -9 65.5t-27 53.5t-45.5 36t-65.5 13q-62 0 -109 -34.5
t-78.5 -92t-47 -127t-15.5 -139.5q0 -80 39 -126t114 -46z" />
    <glyph glyph-name="ntilde" unicode="&#xf1;" horiz-adv-x="1237" 
d="M37 0l237 1118h230l-21 -207h9q43 67 95 118t115.5 80.5t141.5 29.5q96 0 160.5 -39.5t96.5 -111.5t32 -171q0 -37 -6 -83t-17 -97l-133 -637h-301l137 653q8 34 12 64t4 55q0 63 -27 93t-81 30q-68 0 -123 -58.5t-95.5 -156.5t-66.5 -217l-98 -463h-301zM370 1239
q21 108 60.5 176t95.5 100.5t125 32.5q49 0 88 -15.5t71 -36.5t61.5 -36.5t59.5 -15.5q35 0 59 25.5t46 80.5h172q-23 -109 -63.5 -177.5t-96.5 -100t-127 -31.5q-49 0 -87 16t-69.5 36.5t-61 36.5t-62.5 16q-31 0 -56 -28t-39 -79h-176z" />
    <glyph glyph-name="ograve" unicode="&#xf2;" horiz-adv-x="1198" 
d="M518 -20q-126 0 -222.5 52t-151 148.5t-54.5 229.5q0 119 23.5 227.5t71 200t119 159t166.5 105t214 37.5q130 0 225 -52.5t147 -151.5t52 -239q0 -114 -22.5 -219.5t-68.5 -196t-116 -158t-165.5 -105t-217.5 -37.5zM543 225q50 0 91 25.5t73 71t53.5 105t33 128.5
t11.5 141q0 57 -13.5 101.5t-45 70t-84.5 25.5q-55 0 -98.5 -30.5t-75.5 -81.5t-53 -114t-31.5 -129.5t-10.5 -127.5q0 -91 37 -138t113 -47zM715 1241q-42 41 -89 94.5t-88 109.5t-65 103v21h311q12 -46 29 -97t39 -103.5t47 -102.5v-25h-184z" />
    <glyph glyph-name="oacute" unicode="&#xf3;" horiz-adv-x="1198" 
d="M518 -20q-126 0 -222.5 52t-151 148.5t-54.5 229.5q0 119 23.5 227.5t71 200t119 159t166.5 105t214 37.5q130 0 225 -52.5t147 -151.5t52 -239q0 -114 -22.5 -219.5t-68.5 -196t-116 -158t-165.5 -105t-217.5 -37.5zM543 225q50 0 91 25.5t73 71t53.5 105t33 128.5
t11.5 141q0 57 -13.5 101.5t-45 70t-84.5 25.5q-55 0 -98.5 -30.5t-75.5 -81.5t-53 -114t-31.5 -129.5t-10.5 -127.5q0 -91 37 -138t113 -47zM563 1241v25q34 38 73.5 90.5t78 108.5t70.5 104h335v-17q-22 -27 -64 -68.5t-93 -87t-101.5 -86.5t-89.5 -69h-209z" />
    <glyph glyph-name="ocircumflex" unicode="&#xf4;" horiz-adv-x="1198" 
d="M518 -20q-126 0 -222.5 52t-151 148.5t-54.5 229.5q0 119 23.5 227.5t71 200t119 159t166.5 105t214 37.5q130 0 225 -52.5t147 -151.5t52 -239q0 -114 -22.5 -219.5t-68.5 -196t-116 -158t-165.5 -105t-217.5 -37.5zM543 225q50 0 91 25.5t73 71t53.5 105t33 128.5
t11.5 141q0 57 -13.5 101.5t-45 70t-84.5 25.5q-55 0 -98.5 -30.5t-75.5 -81.5t-53 -114t-31.5 -129.5t-10.5 -127.5q0 -91 37 -138t113 -47zM307 1241v25q41 38 96.5 91.5t109.5 110t89 101.5h338q21 -48 51.5 -103t64 -107.5t60.5 -92.5v-25h-198q-23 21 -52 49
t-57.5 59.5t-52.5 59.5q-60 -49 -116 -89.5t-115 -78.5h-218z" />
    <glyph glyph-name="otilde" unicode="&#xf5;" horiz-adv-x="1198" 
d="M518 -20q-126 0 -222.5 52t-151 148.5t-54.5 229.5q0 119 23.5 227.5t71 200t119 159t166.5 105t214 37.5q130 0 225 -52.5t147 -151.5t52 -239q0 -114 -22.5 -219.5t-68.5 -196t-116 -158t-165.5 -105t-217.5 -37.5zM543 225q50 0 91 25.5t73 71t53.5 105t33 128.5
t11.5 141q0 57 -13.5 101.5t-45 70t-84.5 25.5q-55 0 -98.5 -30.5t-75.5 -81.5t-53 -114t-31.5 -129.5t-10.5 -127.5q0 -91 37 -138t113 -47zM331 1239q21 108 60.5 176t95.5 100.5t125 32.5q49 0 88 -15.5t71 -36.5t61.5 -36.5t59.5 -15.5q35 0 59 25.5t46 80.5h172
q-23 -109 -63.5 -177.5t-96.5 -100t-127 -31.5q-49 0 -87 16t-69.5 36.5t-61 36.5t-62.5 16q-31 0 -56 -28t-39 -79h-176z" />
    <glyph glyph-name="odieresis" unicode="&#xf6;" horiz-adv-x="1198" 
d="M518 -20q-126 0 -222.5 52t-151 148.5t-54.5 229.5q0 119 23.5 227.5t71 200t119 159t166.5 105t214 37.5q130 0 225 -52.5t147 -151.5t52 -239q0 -114 -22.5 -219.5t-68.5 -196t-116 -158t-165.5 -105t-217.5 -37.5zM543 225q50 0 91 25.5t73 71t53.5 105t33 128.5
t11.5 141q0 57 -13.5 101.5t-45 70t-84.5 25.5q-55 0 -98.5 -30.5t-75.5 -81.5t-53 -114t-31.5 -129.5t-10.5 -127.5q0 -91 37 -138t113 -47zM932 1272q-55 0 -91 24.5t-36 85.5q0 77 39.5 117.5t111.5 40.5q51 0 88 -23.5t37 -84.5q0 -73 -36 -116.5t-113 -43.5zM549 1272
q-55 0 -91 24.5t-36 85.5q0 77 39.5 117.5t111.5 40.5q34 0 62.5 -10t45.5 -33.5t17 -64.5q0 -73 -36 -116.5t-113 -43.5z" />
    <glyph glyph-name="divide" unicode="&#xf7;" horiz-adv-x="1171" 
d="M109 612v219h993v-219h-993zM604 221q-57 0 -98 36t-41 116q0 84 41 117.5t98 33.5q56 0 97.5 -33.5t41.5 -117.5q0 -80 -41.5 -116t-97.5 -36zM604 920q-57 0 -98 36t-41 115q0 85 41 118.5t98 33.5q56 0 97.5 -33.5t41.5 -118.5q0 -79 -41.5 -115t-97.5 -36z" />
    <glyph glyph-name="oslash" unicode="&#xf8;" horiz-adv-x="1198" 
d="M184 -102l-141 108l119 148q-35 52 -53.5 116t-18.5 140q0 119 23.5 227.5t71 200t119 159t166.5 105t214 37.5q65 0 122.5 -14t104.5 -42l70 88l145 -110l-84 -105q32 -52 49 -117.5t17 -142.5q0 -114 -22.5 -219.5t-68.5 -196t-116 -158t-165.5 -105t-217.5 -37.5
q-63 0 -120.5 14t-104.5 39zM543 215q56 0 98.5 27.5t73.5 73t51.5 101.5t31.5 114t15 110q2 11 2 21.5v19.5l-358 -444q11 -8 35.5 -15.5t50.5 -7.5zM385 426l365 453q-13 9 -37.5 16.5t-50.5 7.5q-59 0 -103 -26.5t-75.5 -71.5t-51.5 -101t-30.5 -115t-14.5 -114
q-1 -12 -1.5 -24.5t-0.5 -24.5z" />
    <glyph glyph-name="ugrave" unicode="&#xf9;" horiz-adv-x="1237" 
d="M395 -20q-96 0 -159 39t-94 111.5t-31 170.5q0 37 6 95t18 118l127 604h301l-137 -653q-7 -34 -11.5 -64t-4.5 -55q0 -63 27 -93t81 -30q69 0 123.5 58.5t95.5 157t66 216.5l98 463h301l-237 -1118h-230l21 207h-11q-43 -66 -94.5 -117.5t-114.5 -80.5t-141 -29z
M750 1241q-42 41 -89 94.5t-88 109.5t-65 103v21h311q12 -46 29 -97t39 -103.5t47 -102.5v-25h-184z" />
    <glyph glyph-name="uacute" unicode="&#xfa;" horiz-adv-x="1237" 
d="M395 -20q-96 0 -159 39t-94 111.5t-31 170.5q0 37 6 95t18 118l127 604h301l-137 -653q-7 -34 -11.5 -64t-4.5 -55q0 -63 27 -93t81 -30q69 0 123.5 58.5t95.5 157t66 216.5l98 463h301l-237 -1118h-230l21 207h-11q-43 -66 -94.5 -117.5t-114.5 -80.5t-141 -29z
M598 1241v25q34 38 73.5 90.5t78 108.5t70.5 104h335v-17q-22 -27 -64 -68.5t-93 -87t-101.5 -86.5t-89.5 -69h-209z" />
    <glyph glyph-name="ucircumflex" unicode="&#xfb;" horiz-adv-x="1237" 
d="M395 -20q-96 0 -159 39t-94 111.5t-31 170.5q0 37 6 95t18 118l127 604h301l-137 -653q-7 -34 -11.5 -64t-4.5 -55q0 -63 27 -93t81 -30q69 0 123.5 58.5t95.5 157t66 216.5l98 463h301l-237 -1118h-230l21 207h-11q-43 -66 -94.5 -117.5t-114.5 -80.5t-141 -29z
M342 1241v25q41 38 96.5 91.5t109.5 110t89 101.5h338q21 -48 51.5 -103t64 -107.5t60.5 -92.5v-25h-198q-23 21 -52 49t-57.5 59.5t-52.5 59.5q-60 -49 -116 -89.5t-115 -78.5h-218z" />
    <glyph glyph-name="udieresis" unicode="&#xfc;" horiz-adv-x="1237" 
d="M395 -20q-96 0 -159 39t-94 111.5t-31 170.5q0 37 6 95t18 118l127 604h301l-137 -653q-7 -34 -11.5 -64t-4.5 -55q0 -63 27 -93t81 -30q69 0 123.5 58.5t95.5 157t66 216.5l98 463h301l-237 -1118h-230l21 207h-11q-43 -66 -94.5 -117.5t-114.5 -80.5t-141 -29z
M967 1272q-55 0 -91 24.5t-36 85.5q0 77 39.5 117.5t111.5 40.5q51 0 88 -23.5t37 -84.5q0 -73 -36 -116.5t-113 -43.5zM584 1272q-55 0 -91 24.5t-36 85.5q0 77 39.5 117.5t111.5 40.5q34 0 62.5 -10t45.5 -33.5t17 -64.5q0 -73 -36 -116.5t-113 -43.5z" />
    <glyph glyph-name="yacute" unicode="&#xfd;" horiz-adv-x="1063" 
d="M6 -492q-54 0 -88.5 6t-58.5 13v240q26 -5 53.5 -9t62.5 -4q95 0 157 55.5t108 141.5l26 49l-164 1118h295l56 -518q5 -46 7.5 -98.5t3.5 -103.5t1 -91h8q14 34 28.5 76t34 91.5t46.5 105.5l260 538h327l-680 -1278q-60 -113 -134.5 -187t-161.5 -109.5t-187 -35.5z
M472 1241v25q34 38 73.5 90.5t78 108.5t70.5 104h335v-17q-22 -27 -64 -68.5t-93 -87t-101.5 -86.5t-89.5 -69h-209z" />
    <glyph glyph-name="thorn" unicode="&#xfe;" horiz-adv-x="1219" 
d="M-68 -492l435 2048h301l-66 -307q-13 -64 -36.5 -142.5t-43.5 -137.5h8q43 56 89.5 94t95 57t98.5 19q140 0 227.5 -100t87.5 -308q0 -98 -19.5 -203t-59 -202.5t-99.5 -175.5t-140.5 -124t-182.5 -46q-69 0 -119.5 21.5t-87.5 58.5t-64 83h-8q-6 -81 -16 -149.5
t-27 -145.5l-72 -340h-301zM559 223q47 0 88 28.5t73.5 78t55.5 113t35 134.5t12 142q0 88 -37.5 132t-103.5 44q-63 0 -112.5 -47.5t-83.5 -124t-52 -164.5q-6 -40 -10 -80.5t-4 -79.5q0 -79 33.5 -127.5t105.5 -48.5z" />
    <glyph glyph-name="ydieresis" unicode="&#xff;" horiz-adv-x="1063" 
d="M6 -492q-54 0 -88.5 6t-58.5 13v240q26 -5 53.5 -9t62.5 -4q95 0 157 55.5t108 141.5l26 49l-164 1118h295l56 -518q5 -46 7.5 -98.5t3.5 -103.5t1 -91h8q14 34 28.5 76t34 91.5t46.5 105.5l260 538h327l-680 -1278q-60 -113 -134.5 -187t-161.5 -109.5t-187 -35.5z
M842 1272q-55 0 -91 24.5t-36 85.5q0 77 39.5 117.5t111.5 40.5q51 0 88 -23.5t37 -84.5q0 -73 -36 -116.5t-113 -43.5zM459 1272q-55 0 -91 24.5t-36 85.5q0 77 39.5 117.5t111.5 40.5q34 0 62.5 -10t45.5 -33.5t17 -64.5q0 -73 -36 -116.5t-113 -43.5z" />
    <glyph glyph-name="Amacron" unicode="&#x100;" horiz-adv-x="1286" 
d="M-123 0l766 1462h373l147 -1462h-297l-24 348h-473l-172 -348h-320zM494 608h333l-26 377q-4 60 -8 121t-2 125h-5q-19 -55 -44 -110t-56 -117zM542 1585l45 211h619l-45 -211h-619z" />
    <glyph glyph-name="amacron" unicode="&#x101;" horiz-adv-x="1217" 
d="M406 -20q-81 0 -153 40t-117.5 129t-45.5 236q0 110 23.5 218t68 204.5t108 171t144 117.5t174.5 43q71 0 124 -20.5t91 -57.5t62 -86h8l57 143h232l-238 -1118h-225l14 145h-8q-40 -49 -87 -86t-104 -58t-128 -21zM524 223q62 0 115 48.5t91 126.5t54 165
q8 40 11.5 80.5t3.5 87.5q0 71 -37.5 117.5t-102.5 46.5q-44 0 -83.5 -28.5t-72.5 -78t-57.5 -113t-37.5 -134.5t-13 -142q0 -87 34 -131.5t95 -44.5zM434 1241l45 211h619l-45 -211h-619z" />
    <glyph glyph-name="Abreve" unicode="&#x102;" horiz-adv-x="1286" 
d="M-123 0l766 1462h373l147 -1462h-297l-24 348h-473l-172 -348h-320zM494 608h333l-26 377q-4 60 -8 121t-2 125h-5q-19 -55 -44 -110t-56 -117zM854 1585q-119 0 -190 40t-102 102.5t-31 129.5q0 22 1.5 37.5t4.5 28.5h174q0 -43 16 -70.5t50.5 -41t87.5 -13.5
q78 0 128 27.5t66 97.5h189q-26 -161 -121.5 -249.5t-272.5 -88.5z" />
    <glyph glyph-name="abreve" unicode="&#x103;" horiz-adv-x="1217" 
d="M406 -20q-81 0 -153 40t-117.5 129t-45.5 236q0 110 23.5 218t68 204.5t108 171t144 117.5t174.5 43q71 0 124 -20.5t91 -57.5t62 -86h8l57 143h232l-238 -1118h-225l14 145h-8q-40 -49 -87 -86t-104 -58t-128 -21zM524 223q62 0 115 48.5t91 126.5t54 165
q8 40 11.5 80.5t3.5 87.5q0 71 -37.5 117.5t-102.5 46.5q-44 0 -83.5 -28.5t-72.5 -78t-57.5 -113t-37.5 -134.5t-13 -142q0 -87 34 -131.5t95 -44.5zM745 1241q-119 0 -190 40t-102 102.5t-31 129.5q0 22 1.5 37.5t4.5 28.5h174q0 -43 16 -70.5t50.5 -41t87.5 -13.5
q78 0 128 27.5t66 97.5h189q-26 -161 -121.5 -249.5t-272.5 -88.5z" />
    <glyph glyph-name="Aogonek" unicode="&#x104;" horiz-adv-x="1286" 
d="M-123 0l766 1462h373l147 -1462h-297l-24 348h-473l-172 -348h-320zM494 608h333l-26 377q-4 60 -8 121t-2 125h-5q-19 -55 -44 -110t-56 -117zM868 -492q-103 0 -162 53.5t-59 141.5q0 67 27.5 119t76 95t111.5 83h198q-48 -39 -91.5 -78t-71 -81.5t-27.5 -90.5
q0 -28 16 -43.5t43 -15.5q28 0 52.5 5.5t50.5 12.5v-176q-37 -10 -75.5 -17.5t-88.5 -7.5z" />
    <glyph glyph-name="aogonek" unicode="&#x105;" horiz-adv-x="1217" 
d="M406 -20q-81 0 -153 40t-117.5 129t-45.5 236q0 110 23.5 218t68 204.5t108 171t144 117.5t174.5 43q71 0 124 -20.5t91 -57.5t62 -86h8l57 143h232l-238 -1118h-225l14 145h-8q-40 -49 -87 -86t-104 -58t-128 -21zM524 223q62 0 115 48.5t91 126.5t54 165
q8 40 11.5 80.5t3.5 87.5q0 71 -37.5 117.5t-102.5 46.5q-44 0 -83.5 -28.5t-72.5 -78t-57.5 -113t-37.5 -134.5t-13 -142q0 -87 34 -131.5t95 -44.5zM725 -492q-103 0 -162 53.5t-59 141.5q0 67 27.5 119t76 95t111.5 83h198q-48 -39 -91.5 -78t-71 -81.5t-27.5 -90.5
q0 -28 16 -43.5t43 -15.5q28 0 52.5 5.5t50.5 12.5v-176q-37 -10 -75.5 -17.5t-88.5 -7.5z" />
    <glyph glyph-name="Cacute" unicode="&#x106;" horiz-adv-x="1253" 
d="M659 -20q-177 0 -296 70.5t-179.5 199t-60.5 303.5q0 129 29.5 261t89.5 252.5t153 214.5t220 149t290 55q139 0 236 -26t194 -79l-118 -250q-71 41 -145.5 69t-166.5 28q-99 0 -176 -40t-132.5 -108.5t-91.5 -154t-53.5 -177.5t-17.5 -178q0 -166 69 -247.5t218 -81.5
q83 0 168 21.5t170 55.5v-260q-61 -24 -163.5 -50.5t-236.5 -26.5zM753 1585v25q34 38 73.5 90.5t78 108.5t70.5 104h335v-17q-22 -27 -64 -68.5t-93 -87t-101.5 -86.5t-89.5 -69h-209z" />
    <glyph glyph-name="cacute" unicode="&#x107;" horiz-adv-x="989" 
d="M506 -20q-116 0 -210.5 41.5t-150 132t-55.5 237.5q0 121 25 232t74 205t121 163.5t165 108.5t207 39q100 0 179.5 -19t148.5 -53l-92 -229q-54 23 -106 40t-118 17q-71 0 -126.5 -41t-94 -110t-58.5 -154.5t-20 -173.5q0 -63 20.5 -106t59 -65t92.5 -22q76 0 141 23.5
t134 58.5v-246q-70 -37 -151 -58t-185 -21zM532 1241v25q34 38 73.5 90.5t78 108.5t70.5 104h335v-17q-22 -27 -64 -68.5t-93 -87t-101.5 -86.5t-89.5 -69h-209z" />
    <glyph glyph-name="Ccircumflex" unicode="&#x108;" horiz-adv-x="1253" 
d="M659 -20q-177 0 -296 70.5t-179.5 199t-60.5 303.5q0 129 29.5 261t89.5 252.5t153 214.5t220 149t290 55q139 0 236 -26t194 -79l-118 -250q-71 41 -145.5 69t-166.5 28q-99 0 -176 -40t-132.5 -108.5t-91.5 -154t-53.5 -177.5t-17.5 -178q0 -166 69 -247.5t218 -81.5
q83 0 168 21.5t170 55.5v-260q-61 -24 -163.5 -50.5t-236.5 -26.5zM497 1585v25q41 38 96.5 91.5t109.5 110t89 101.5h338q21 -48 51.5 -103t64 -107.5t60.5 -92.5v-25h-198q-23 21 -52 49t-57.5 59.5t-52.5 59.5q-60 -49 -116 -89.5t-115 -78.5h-218z" />
    <glyph glyph-name="ccircumflex" unicode="&#x109;" horiz-adv-x="989" 
d="M506 -20q-116 0 -210.5 41.5t-150 132t-55.5 237.5q0 121 25 232t74 205t121 163.5t165 108.5t207 39q100 0 179.5 -19t148.5 -53l-92 -229q-54 23 -106 40t-118 17q-71 0 -126.5 -41t-94 -110t-58.5 -154.5t-20 -173.5q0 -63 20.5 -106t59 -65t92.5 -22q76 0 141 23.5
t134 58.5v-246q-70 -37 -151 -58t-185 -21zM276 1241v25q41 38 96.5 91.5t109.5 110t89 101.5h338q21 -48 51.5 -103t64 -107.5t60.5 -92.5v-25h-198q-23 21 -52 49t-57.5 59.5t-52.5 59.5q-60 -49 -116 -89.5t-115 -78.5h-218z" />
    <glyph glyph-name="Cdot" unicode="&#x10a;" horiz-adv-x="1253" 
d="M659 -20q-177 0 -296 70.5t-179.5 199t-60.5 303.5q0 129 29.5 261t89.5 252.5t153 214.5t220 149t290 55q139 0 236 -26t194 -79l-118 -250q-71 41 -145.5 69t-166.5 28q-99 0 -176 -40t-132.5 -108.5t-91.5 -154t-53.5 -177.5t-17.5 -178q0 -166 69 -247.5t218 -81.5
q83 0 168 21.5t170 55.5v-260q-61 -24 -163.5 -50.5t-236.5 -26.5zM930 1601q-64 0 -108 28t-44 95q0 86 48.5 131t133.5 45q40 0 74 -11t55 -37.5t21 -71.5q0 -80 -44 -129.5t-136 -49.5z" />
    <glyph glyph-name="cdot" unicode="&#x10b;" horiz-adv-x="989" 
d="M506 -20q-116 0 -210.5 41.5t-150 132t-55.5 237.5q0 121 25 232t74 205t121 163.5t165 108.5t207 39q100 0 179.5 -19t148.5 -53l-92 -229q-54 23 -106 40t-118 17q-71 0 -126.5 -41t-94 -110t-58.5 -154.5t-20 -173.5q0 -63 20.5 -106t59 -65t92.5 -22q76 0 141 23.5
t134 58.5v-246q-70 -37 -151 -58t-185 -21zM709 1257q-64 0 -108 28t-44 95q0 86 48.5 131t133.5 45q40 0 74 -11t55 -37.5t21 -71.5q0 -80 -44 -129.5t-136 -49.5z" />
    <glyph glyph-name="Ccaron" unicode="&#x10c;" horiz-adv-x="1253" 
d="M659 -20q-177 0 -296 70.5t-179.5 199t-60.5 303.5q0 129 29.5 261t89.5 252.5t153 214.5t220 149t290 55q139 0 236 -26t194 -79l-118 -250q-71 41 -145.5 69t-166.5 28q-99 0 -176 -40t-132.5 -108.5t-91.5 -154t-53.5 -177.5t-17.5 -178q0 -166 69 -247.5t218 -81.5
q83 0 168 21.5t170 55.5v-260q-61 -24 -163.5 -50.5t-236.5 -26.5zM749 1585q-20 48 -51 103t-64 107.5t-61 92.5v25h199q24 -20 52 -48.5t57 -59.5t52 -60q60 49 116 89.5t116 78.5h217v-25q-41 -38 -96.5 -92t-109 -110t-89.5 -101h-338z" />
    <glyph glyph-name="ccaron" unicode="&#x10d;" horiz-adv-x="989" 
d="M506 -20q-116 0 -210.5 41.5t-150 132t-55.5 237.5q0 121 25 232t74 205t121 163.5t165 108.5t207 39q100 0 179.5 -19t148.5 -53l-92 -229q-54 23 -106 40t-118 17q-71 0 -126.5 -41t-94 -110t-58.5 -154.5t-20 -173.5q0 -63 20.5 -106t59 -65t92.5 -22q76 0 141 23.5
t134 58.5v-246q-70 -37 -151 -58t-185 -21zM528 1241q-20 48 -51 103t-64 107.5t-61 92.5v25h199q24 -20 52 -48.5t57 -59.5t52 -60q60 49 116 89.5t116 78.5h217v-25q-41 -38 -96.5 -92t-109 -110t-89.5 -101h-338z" />
    <glyph glyph-name="Dcaron" unicode="&#x10e;" horiz-adv-x="1386" 
d="M53 0l309 1462h396q269 0 417 -142t148 -411q0 -166 -35 -307t-102.5 -252.5t-167 -189.5t-228.5 -119t-286 -41h-451zM412 256h106q101 0 180.5 33.5t138 93.5t97 140t57.5 174.5t19 195.5q0 161 -75 238t-206 77h-115zM735 1585q-20 48 -51 103t-64 107.5t-61 92.5v25
h199q24 -20 52 -48.5t57 -59.5t52 -60q60 49 116 89.5t116 78.5h217v-25q-41 -38 -96.5 -92t-109 -110t-89.5 -101h-338z" />
    <glyph glyph-name="dcaron" unicode="&#x10f;" horiz-adv-x="1382" 
d="M406 -20q-81 0 -153 40t-117.5 129.5t-45.5 237.5q0 109 23.5 217t68 204.5t108 171t144 117t174.5 42.5q67 0 113.5 -22t80.5 -59t60 -83h8q0 6 3 44t9 87.5t15 91.5l76 358h301l-330 -1556h-229l18 145h-8q-40 -49 -86.5 -86t-103.5 -58t-129 -21zM532 223
q47 0 85.5 25.5t68 68t51 95.5t35.5 108.5t20.5 107.5t6.5 91q0 80 -37.5 128t-102.5 48q-44 0 -83.5 -28.5t-72.5 -78t-57.5 -113t-37.5 -134.5t-13 -142q0 -87 35.5 -131.5t101.5 -44.5zM1289 1229v26q19 40 42.5 93.5t45.5 108.5t36 99h283v-20q-24 -45 -60 -97t-79 -106
t-88 -104h-180z" />
    <glyph glyph-name="Dcroat" unicode="&#x110;" horiz-adv-x="1386" 
d="M53 0l125 596h-141l55 254h139l131 612h396q269 0 417 -142t148 -411q0 -166 -35 -307t-102.5 -252.5t-167 -189.5t-228.5 -119t-286 -41h-451zM412 256h106q101 0 180.5 33.5t138 93.5t97 140t57.5 174.5t19 195.5q0 161 -75 238t-206 77h-115l-75 -358h237l-55 -254
h-238z" />
    <glyph glyph-name="dcroat" unicode="&#x111;" horiz-adv-x="1217" 
d="M416 -20q-93 0 -167 44.5t-116.5 134.5t-42.5 228q0 90 20 186.5t60 186t101 161.5t142 114t183 42q69 0 118 -19.5t83 -53t57 -76.5h8q0 19 2.5 49.5t7 65t9.5 63.5l16 90h-295l41 199h295l35 161h301l-35 -161h154l-41 -199h-156l-252 -1196h-225l14 145h-8
q-37 -44 -81.5 -81.5t-100 -60.5t-127.5 -23zM537 223q42 0 77.5 21t64.5 57t51 81.5t37 96.5t22.5 101t7.5 94q0 72 -32.5 116t-105.5 44q-47 0 -87.5 -25t-73 -68.5t-55.5 -99t-35.5 -118t-12.5 -124.5q0 -87 38 -131.5t104 -44.5z" />
    <glyph glyph-name="Emacron" unicode="&#x112;" horiz-adv-x="1110" 
d="M53 0l309 1462h818l-54 -254h-512l-67 -321h477l-55 -254h-477l-80 -377h512l-54 -256h-817zM460 1585l45 211h619l-45 -211h-619z" />
    <glyph glyph-name="emacron" unicode="&#x113;" horiz-adv-x="1141" 
d="M532 -20q-131 0 -230.5 47.5t-155.5 143.5t-56 241q0 140 40 270.5t119.5 233.5t196 163t269.5 60q188 0 281.5 -85.5t93.5 -219.5q0 -88 -39.5 -160t-119.5 -123.5t-201 -79t-284 -27.5h-51q-1 -12 -1.5 -21t-0.5 -20q0 -90 52 -143t147 -53q88 0 160 20t170 66v-227
q-88 -43 -179 -64.5t-211 -21.5zM428 647h45q116 0 188.5 25t106 66t33.5 89t-27.5 71.5t-77.5 23.5q-56 0 -111 -35t-97 -97t-60 -143zM409 1241l45 211h619l-45 -211h-619z" />
    <glyph glyph-name="Ebreve" unicode="&#x114;" horiz-adv-x="1110" 
d="M53 0l309 1462h818l-54 -254h-512l-67 -321h477l-55 -254h-477l-80 -377h512l-54 -256h-817zM772 1585q-119 0 -190 40t-102 102.5t-31 129.5q0 22 1.5 37.5t4.5 28.5h174q0 -43 16 -70.5t50.5 -41t87.5 -13.5q78 0 128 27.5t66 97.5h189q-26 -161 -121.5 -249.5
t-272.5 -88.5z" />
    <glyph glyph-name="ebreve" unicode="&#x115;" horiz-adv-x="1141" 
d="M532 -20q-131 0 -230.5 47.5t-155.5 143.5t-56 241q0 140 40 270.5t119.5 233.5t196 163t269.5 60q188 0 281.5 -85.5t93.5 -219.5q0 -88 -39.5 -160t-119.5 -123.5t-201 -79t-284 -27.5h-51q-1 -12 -1.5 -21t-0.5 -20q0 -90 52 -143t147 -53q88 0 160 20t170 66v-227
q-88 -43 -179 -64.5t-211 -21.5zM428 647h45q116 0 188.5 25t106 66t33.5 89t-27.5 71.5t-77.5 23.5q-56 0 -111 -35t-97 -97t-60 -143zM720 1241q-119 0 -190 40t-102 102.5t-31 129.5q0 22 1.5 37.5t4.5 28.5h174q0 -43 16 -70.5t50.5 -41t87.5 -13.5q78 0 128 27.5
t66 97.5h189q-26 -161 -121.5 -249.5t-272.5 -88.5z" />
    <glyph glyph-name="Edotaccent" unicode="&#x116;" horiz-adv-x="1110" 
d="M53 0l309 1462h818l-54 -254h-512l-67 -321h477l-55 -254h-477l-80 -377h512l-54 -256h-817zM791 1601q-64 0 -108 28t-44 95q0 86 48.5 131t133.5 45q40 0 74 -11t55 -37.5t21 -71.5q0 -80 -44 -129.5t-136 -49.5z" />
    <glyph glyph-name="edotaccent" unicode="&#x117;" horiz-adv-x="1141" 
d="M532 -20q-131 0 -230.5 47.5t-155.5 143.5t-56 241q0 140 40 270.5t119.5 233.5t196 163t269.5 60q188 0 281.5 -85.5t93.5 -219.5q0 -88 -39.5 -160t-119.5 -123.5t-201 -79t-284 -27.5h-51q-1 -12 -1.5 -21t-0.5 -20q0 -90 52 -143t147 -53q88 0 160 20t170 66v-227
q-88 -43 -179 -64.5t-211 -21.5zM428 647h45q116 0 188.5 25t106 66t33.5 89t-27.5 71.5t-77.5 23.5q-56 0 -111 -35t-97 -97t-60 -143zM740 1257q-64 0 -108 28t-44 95q0 86 48.5 131t133.5 45q40 0 74 -11t55 -37.5t21 -71.5q0 -80 -44 -129.5t-136 -49.5z" />
    <glyph glyph-name="Eogonek" unicode="&#x118;" horiz-adv-x="1110" 
d="M53 0l309 1462h818l-54 -254h-512l-67 -321h477l-55 -254h-477l-80 -377h512l-54 -256h-817zM604 -492q-103 0 -162 53.5t-59 141.5q0 67 27.5 119t76 95t111.5 83h198q-48 -39 -91.5 -78t-71 -81.5t-27.5 -90.5q0 -28 16 -43.5t43 -15.5q28 0 52.5 5.5t50.5 12.5v-176
q-37 -10 -75.5 -17.5t-88.5 -7.5z" />
    <glyph glyph-name="eogonek" unicode="&#x119;" horiz-adv-x="1141" 
d="M627 -492q-103 0 -162 53.5t-59 141.5q0 67 27.5 119t76.5 95t111 83l247 49q-71 -55 -125 -105t-84 -98t-30 -96q0 -28 15.5 -43.5t43.5 -15.5t52.5 5.5t50.5 12.5v-176q-37 -10 -76 -17.5t-88 -7.5zM532 -20q-131 0 -230.5 47.5t-155.5 143.5t-56 241q0 140 40 270.5
t119.5 233.5t196 163t269.5 60q188 0 281.5 -85.5t93.5 -219.5q0 -88 -39.5 -160t-119.5 -123.5t-201 -79t-284 -27.5h-51q-1 -12 -1.5 -21t-0.5 -20q0 -90 52 -143t147 -53q88 0 160 20t170 66v-227q-88 -43 -179 -64.5t-211 -21.5zM428 647h45q116 0 188.5 25t106 66
t33.5 89t-27.5 71.5t-77.5 23.5q-56 0 -111 -35t-97 -97t-60 -143z" />
    <glyph glyph-name="Ecaron" unicode="&#x11a;" horiz-adv-x="1110" 
d="M53 0l309 1462h818l-54 -254h-512l-67 -321h477l-55 -254h-477l-80 -377h512l-54 -256h-817zM610 1585q-20 48 -51 103t-64 107.5t-61 92.5v25h199q24 -20 52 -48.5t57 -59.5t52 -60q60 49 116 89.5t116 78.5h217v-25q-41 -38 -96.5 -92t-109 -110t-89.5 -101h-338z" />
    <glyph glyph-name="ecaron" unicode="&#x11b;" horiz-adv-x="1141" 
d="M532 -20q-131 0 -230.5 47.5t-155.5 143.5t-56 241q0 140 40 270.5t119.5 233.5t196 163t269.5 60q188 0 281.5 -85.5t93.5 -219.5q0 -88 -39.5 -160t-119.5 -123.5t-201 -79t-284 -27.5h-51q-1 -12 -1.5 -21t-0.5 -20q0 -90 52 -143t147 -53q88 0 160 20t170 66v-227
q-88 -43 -179 -64.5t-211 -21.5zM428 647h45q116 0 188.5 25t106 66t33.5 89t-27.5 71.5t-77.5 23.5q-56 0 -111 -35t-97 -97t-60 -143zM559 1241q-20 48 -51 103t-64 107.5t-61 92.5v25h199q24 -20 52 -48.5t57 -59.5t52 -60q60 49 116 89.5t116 78.5h217v-25
q-41 -38 -96.5 -92t-109 -110t-89.5 -101h-338z" />
    <glyph glyph-name="Gcircumflex" unicode="&#x11c;" horiz-adv-x="1413" 
d="M664 -20q-255 0 -398 145.5t-143 423.5q0 149 35 288t104 256.5t172.5 205.5t239.5 137t305 49q113 0 212 -24t198 -75l-115 -251q-73 40 -147.5 64t-161.5 24q-135 0 -234.5 -57.5t-165.5 -152t-98.5 -209.5t-32.5 -231q0 -108 30 -182.5t95.5 -112.5t169.5 -38
q51 0 89 7t81 17l66 299h-267l56 258h563l-162 -762q-100 -34 -212 -56.5t-279 -22.5zM534 1585v25q41 38 96.5 91.5t109.5 110t89 101.5h338q21 -48 51.5 -103t64 -107.5t60.5 -92.5v-25h-198q-23 21 -52 49t-57.5 59.5t-52.5 59.5q-60 -49 -116 -89.5t-115 -78.5h-218z
" />
    <glyph glyph-name="gcircumflex" unicode="&#x11d;" horiz-adv-x="1108" 
d="M326 -492q-208 0 -324.5 75.5t-116.5 207.5q0 102 68.5 175.5t214.5 121.5q-37 23 -55.5 56.5t-18.5 76.5q0 71 44.5 122.5t146.5 98.5q-65 49 -96 112t-31 153q0 96 30.5 174.5t87.5 133.5q61 60 149 92t200 32q41 0 83 -6t83 -17h395l-35 -166l-174 -41q8 -26 12 -55.5
t4 -62.5q0 -94 -29.5 -170.5t-84.5 -131.5q-58 -58 -143.5 -89t-192.5 -31q-29 0 -54 2.5t-45 7.5q-42 -13 -63 -32.5t-21 -45.5q0 -23 15 -38q14 -13 40 -21t64 -13l137 -18q109 -14 177.5 -46.5t101.5 -87t33 -134.5q0 -109 -42 -191.5t-124 -138.5q-76 -52 -186 -78.5
t-250 -26.5zM344 -287q83 0 144.5 14t98.5 41q31 22 46.5 51t15.5 66q0 16 -4.5 27.5t-13.5 20.5q-19 20 -51.5 29.5t-78.5 15.5l-136 16q-70 -9 -118 -31.5t-72.5 -56.5t-24.5 -78q0 -58 48.5 -86.5t145.5 -28.5zM545 561q50 0 88 35t59 96t21 139q0 32 -7.5 55t-21.5 37
q-12 13 -29.5 19t-40.5 6q-39 0 -70.5 -20.5t-54 -57t-35 -85t-12.5 -105.5q0 -18 2.5 -33t6.5 -28q22 -58 94 -58zM311 1241v25q41 38 96.5 91.5t109.5 110t89 101.5h338q21 -48 51.5 -103t64 -107.5t60.5 -92.5v-25h-198q-23 21 -52 49t-57.5 59.5t-52.5 59.5
q-60 -49 -116 -89.5t-115 -78.5h-218z" />
    <glyph glyph-name="Gbreve" unicode="&#x11e;" horiz-adv-x="1413" 
d="M664 -20q-255 0 -398 145.5t-143 423.5q0 149 35 288t104 256.5t172.5 205.5t239.5 137t305 49q113 0 212 -24t198 -75l-115 -251q-73 40 -147.5 64t-161.5 24q-135 0 -234.5 -57.5t-165.5 -152t-98.5 -209.5t-32.5 -231q0 -108 30 -182.5t95.5 -112.5t169.5 -38
q51 0 89 7t81 17l66 299h-267l56 258h563l-162 -762q-100 -34 -212 -56.5t-279 -22.5zM948 1585q-119 0 -190 40t-102 102.5t-31 129.5q0 22 1.5 37.5t4.5 28.5h174q0 -43 16 -70.5t50.5 -41t87.5 -13.5q78 0 128 27.5t66 97.5h189q-26 -161 -121.5 -249.5t-272.5 -88.5z
" />
    <glyph glyph-name="gbreve" unicode="&#x11f;" horiz-adv-x="1108" 
d="M326 -492q-208 0 -324.5 75.5t-116.5 207.5q0 102 68.5 175.5t214.5 121.5q-37 23 -55.5 56.5t-18.5 76.5q0 71 44.5 122.5t146.5 98.5q-65 49 -96 112t-31 153q0 96 30.5 174.5t87.5 133.5q61 60 149 92t200 32q41 0 83 -6t83 -17h395l-35 -166l-174 -41q8 -26 12 -55.5
t4 -62.5q0 -94 -29.5 -170.5t-84.5 -131.5q-58 -58 -143.5 -89t-192.5 -31q-29 0 -54 2.5t-45 7.5q-42 -13 -63 -32.5t-21 -45.5q0 -23 15 -38q14 -13 40 -21t64 -13l137 -18q109 -14 177.5 -46.5t101.5 -87t33 -134.5q0 -109 -42 -191.5t-124 -138.5q-76 -52 -186 -78.5
t-250 -26.5zM344 -287q83 0 144.5 14t98.5 41q31 22 46.5 51t15.5 66q0 16 -4.5 27.5t-13.5 20.5q-19 20 -51.5 29.5t-78.5 15.5l-136 16q-70 -9 -118 -31.5t-72.5 -56.5t-24.5 -78q0 -58 48.5 -86.5t145.5 -28.5zM545 561q50 0 88 35t59 96t21 139q0 32 -7.5 55t-21.5 37
q-12 13 -29.5 19t-40.5 6q-39 0 -70.5 -20.5t-54 -57t-35 -85t-12.5 -105.5q0 -18 2.5 -33t6.5 -28q22 -58 94 -58zM682 1241q-119 0 -190 40t-102 102.5t-31 129.5q0 22 1.5 37.5t4.5 28.5h174q0 -43 16 -70.5t50.5 -41t87.5 -13.5q78 0 128 27.5t66 97.5h189
q-26 -161 -121.5 -249.5t-272.5 -88.5z" />
    <glyph glyph-name="Gdot" unicode="&#x120;" horiz-adv-x="1413" 
d="M664 -20q-255 0 -398 145.5t-143 423.5q0 149 35 288t104 256.5t172.5 205.5t239.5 137t305 49q113 0 212 -24t198 -75l-115 -251q-73 40 -147.5 64t-161.5 24q-135 0 -234.5 -57.5t-165.5 -152t-98.5 -209.5t-32.5 -231q0 -108 30 -182.5t95.5 -112.5t169.5 -38
q51 0 89 7t81 17l66 299h-267l56 258h563l-162 -762q-100 -34 -212 -56.5t-279 -22.5zM967 1601q-64 0 -108 28t-44 95q0 86 48.5 131t133.5 45q40 0 74 -11t55 -37.5t21 -71.5q0 -80 -44 -129.5t-136 -49.5z" />
    <glyph glyph-name="gdot" unicode="&#x121;" horiz-adv-x="1108" 
d="M326 -492q-208 0 -324.5 75.5t-116.5 207.5q0 102 68.5 175.5t214.5 121.5q-37 23 -55.5 56.5t-18.5 76.5q0 71 44.5 122.5t146.5 98.5q-65 49 -96 112t-31 153q0 96 30.5 174.5t87.5 133.5q61 60 149 92t200 32q41 0 83 -6t83 -17h395l-35 -166l-174 -41q8 -26 12 -55.5
t4 -62.5q0 -94 -29.5 -170.5t-84.5 -131.5q-58 -58 -143.5 -89t-192.5 -31q-29 0 -54 2.5t-45 7.5q-42 -13 -63 -32.5t-21 -45.5q0 -23 15 -38q14 -13 40 -21t64 -13l137 -18q109 -14 177.5 -46.5t101.5 -87t33 -134.5q0 -109 -42 -191.5t-124 -138.5q-76 -52 -186 -78.5
t-250 -26.5zM344 -287q83 0 144.5 14t98.5 41q31 22 46.5 51t15.5 66q0 16 -4.5 27.5t-13.5 20.5q-19 20 -51.5 29.5t-78.5 15.5l-136 16q-70 -9 -118 -31.5t-72.5 -56.5t-24.5 -78q0 -58 48.5 -86.5t145.5 -28.5zM545 561q50 0 88 35t59 96t21 139q0 32 -7.5 55t-21.5 37
q-12 13 -29.5 19t-40.5 6q-39 0 -70.5 -20.5t-54 -57t-35 -85t-12.5 -105.5q0 -18 2.5 -33t6.5 -28q22 -58 94 -58zM704 1257q-64 0 -108 28t-44 95q0 86 48.5 131t133.5 45q40 0 74 -11t55 -37.5t21 -71.5q0 -80 -44 -129.5t-136 -49.5z" />
    <glyph glyph-name="uni0122" unicode="&#x122;" horiz-adv-x="1413" 
d="M664 -20q-255 0 -398 145.5t-143 423.5q0 149 35 288t104 256.5t172.5 205.5t239.5 137t305 49q113 0 212 -24t198 -75l-115 -251q-73 40 -147.5 64t-161.5 24q-135 0 -234.5 -57.5t-165.5 -152t-98.5 -209.5t-32.5 -231q0 -108 30 -182.5t95.5 -112.5t169.5 -38
q51 0 89 7t81 17l66 299h-267l56 258h563l-162 -762q-100 -34 -212 -56.5t-279 -22.5zM416 -453v27q20 40 43.5 93.5t45.5 108.5t36 99h282v-20q-25 -45 -60.5 -97.5t-78.5 -106t-88 -104.5h-180z" />
    <glyph glyph-name="uni0123" unicode="&#x123;" horiz-adv-x="1108" 
d="M538 1241v21q25 45 60.5 97t78.5 106t88 104h181v-27q-19 -40 -43 -93.5t-46 -108.5t-36 -99h-283zM326 -492q-208 0 -324.5 75.5t-116.5 207.5q0 102 68.5 175.5t214.5 121.5q-37 23 -55.5 56.5t-18.5 76.5q0 71 44.5 122.5t146.5 98.5q-65 49 -96 112t-31 153
q0 96 30.5 174.5t87.5 133.5q61 60 149 92t200 32q41 0 83 -6t83 -17h395l-35 -166l-174 -41q8 -26 12 -55.5t4 -62.5q0 -94 -29.5 -170.5t-84.5 -131.5q-58 -58 -143.5 -89t-192.5 -31q-29 0 -54 2.5t-45 7.5q-42 -13 -63 -32.5t-21 -45.5q0 -23 15 -38q14 -13 40 -21
t64 -13l137 -18q109 -14 177.5 -46.5t101.5 -87t33 -134.5q0 -109 -42 -191.5t-124 -138.5q-76 -52 -186 -78.5t-250 -26.5zM344 -287q83 0 144.5 14t98.5 41q31 22 46.5 51t15.5 66q0 16 -4.5 27.5t-13.5 20.5q-19 20 -51.5 29.5t-78.5 15.5l-136 16q-70 -9 -118 -31.5
t-72.5 -56.5t-24.5 -78q0 -58 48.5 -86.5t145.5 -28.5zM545 561q50 0 88 35t59 96t21 139q0 32 -7.5 55t-21.5 37q-12 13 -29.5 19t-40.5 6q-39 0 -70.5 -20.5t-54 -57t-35 -85t-12.5 -105.5q0 -18 2.5 -33t6.5 -28q22 -58 94 -58z" />
    <glyph glyph-name="Hcircumflex" unicode="&#x124;" horiz-adv-x="1434" 
d="M53 0l309 1462h306l-121 -573h471l121 573h305l-309 -1462h-306l134 631h-471l-134 -631h-305zM505 1585v25q41 38 96.5 91.5t109.5 110t89 101.5h338q21 -48 51.5 -103t64 -107.5t60.5 -92.5v-25h-198q-23 21 -52 49t-57.5 59.5t-52.5 59.5q-60 -49 -116 -89.5
t-115 -78.5h-218z" />
    <glyph glyph-name="hcircumflex" unicode="&#x125;" horiz-adv-x="1237" 
d="M37 0l330 1556h301l-58 -270q-9 -46 -24.5 -104.5t-32.5 -115t-31 -97.5h8q41 51 88.5 89.5t103.5 59.5t122 21q96 0 160.5 -39.5t96.5 -111.5t32 -171q0 -37 -6 -83t-17 -97l-133 -637h-301l137 653q8 34 12 64t4 55q0 63 -27 93t-81 30q-68 0 -123 -58.5t-95.5 -156.5
t-66.5 -217l-98 -463h-301zM125 1679v25q41 38 96.5 91.5t109.5 110t89 101.5h338q21 -48 51.5 -103t64 -107.5t60.5 -92.5v-25h-198q-23 21 -52 49t-57.5 59.5t-52.5 59.5q-60 -49 -116 -89.5t-115 -78.5h-218z" />
    <glyph glyph-name="Hbar" unicode="&#x126;" horiz-adv-x="1434" 
d="M53 0l226 1069h-177l41 199h179l40 194h306l-41 -194h471l41 194h305l-41 -194h178l-41 -199h-180l-225 -1069h-306l134 631h-471l-134 -631h-305zM547 889h471l37 180h-471z" />
    <glyph glyph-name="hbar" unicode="&#x127;" horiz-adv-x="1237" 
d="M37 0l254 1196h-162l43 199h160l35 161h301l-33 -161h299l-43 -199h-299q-14 -62 -29.5 -117.5t-28.5 -99.5t-22 -72h8q41 52 87.5 90t102 59t121.5 21q97 0 161 -39.5t96 -111.5t32 -170q0 -37 -5.5 -83.5t-16.5 -97.5l-121 -575h-301l125 592q8 34 12 64t4 55
q0 63 -26.5 93t-79.5 30q-69 0 -124.5 -58.5t-96 -157t-66.5 -217.5l-86 -401h-301z" />
    <glyph glyph-name="Itilde" unicode="&#x128;" horiz-adv-x="655" 
d="M51 0l311 1462h306l-312 -1462h-305zM154 1583q21 108 60.5 176t95.5 100.5t125 32.5q49 0 88 -15.5t71 -36.5t61.5 -36.5t59.5 -15.5q35 0 59 25.5t46 80.5h172q-23 -109 -63.5 -177.5t-96.5 -100t-127 -31.5q-49 0 -87 16t-69.5 36.5t-61 36.5t-62.5 16q-31 0 -56 -28
t-39 -79h-176z" />
    <glyph glyph-name="itilde" unicode="&#x129;" horiz-adv-x="608" 
d="M37 0l237 1118h301l-237 -1118h-301zM53 1239q21 108 60.5 176t95.5 100.5t125 32.5q49 0 88 -15.5t71 -36.5t61.5 -36.5t59.5 -15.5q35 0 59 25.5t46 80.5h172q-23 -109 -63.5 -177.5t-96.5 -100t-127 -31.5q-49 0 -87 16t-69.5 36.5t-61 36.5t-62.5 16q-31 0 -56 -28
t-39 -79h-176z" />
    <glyph glyph-name="Imacron" unicode="&#x12a;" horiz-adv-x="655" 
d="M51 0l311 1462h306l-312 -1462h-305zM232 1585l45 211h619l-45 -211h-619z" />
    <glyph glyph-name="imacron" unicode="&#x12b;" horiz-adv-x="608" 
d="M37 0l237 1118h301l-237 -1118h-301zM131 1241l45 211h619l-45 -211h-619z" />
    <glyph glyph-name="Ibreve" unicode="&#x12c;" horiz-adv-x="655" 
d="M51 0l311 1462h306l-312 -1462h-305zM540 1585q-119 0 -190 40t-102 102.5t-31 129.5q0 22 1.5 37.5t4.5 28.5h174q0 -43 16 -70.5t50.5 -41t87.5 -13.5q78 0 128 27.5t66 97.5h189q-26 -161 -121.5 -249.5t-272.5 -88.5z" />
    <glyph glyph-name="ibreve" unicode="&#x12d;" horiz-adv-x="608" 
d="M37 0l237 1118h301l-237 -1118h-301zM442 1241q-119 0 -190 40t-102 102.5t-31 129.5q0 22 1.5 37.5t4.5 28.5h174q0 -43 16 -70.5t50.5 -41t87.5 -13.5q78 0 128 27.5t66 97.5h189q-26 -161 -121.5 -249.5t-272.5 -88.5z" />
    <glyph glyph-name="Iogonek" unicode="&#x12e;" horiz-adv-x="655" 
d="M51 0l311 1462h306l-312 -1462h-305zM162 -492q-103 0 -162 53.5t-59 141.5q0 67 27.5 119t76 95t111.5 83h198q-48 -39 -91.5 -78t-71 -81.5t-27.5 -90.5q0 -28 16 -43.5t43 -15.5q28 0 52.5 5.5t50.5 12.5v-176q-37 -10 -75.5 -17.5t-88.5 -7.5z" />
    <glyph glyph-name="iogonek" unicode="&#x12f;" horiz-adv-x="608" 
d="M37 0l237 1118h301l-237 -1118h-301zM473 1257q-64 0 -107.5 28t-43.5 95q0 58 21.5 97t62.5 59t98 20q60 0 104.5 -26t44.5 -94q0 -80 -44 -129.5t-136 -49.5zM147 -492q-103 0 -162 53.5t-59 141.5q0 67 27.5 119t76 95t111.5 83h198q-48 -39 -91.5 -78t-71 -81.5
t-27.5 -90.5q0 -28 16 -43.5t43 -15.5q28 0 52.5 5.5t50.5 12.5v-176q-37 -10 -75.5 -17.5t-88.5 -7.5z" />
    <glyph glyph-name="Idotaccent" unicode="&#x130;" horiz-adv-x="655" 
d="M51 0l311 1462h306l-312 -1462h-305zM562 1601q-64 0 -108 28t-44 95q0 86 48.5 131t133.5 45q40 0 74 -11t55 -37.5t21 -71.5q0 -80 -44 -129.5t-136 -49.5z" />
    <glyph glyph-name="dotlessi" unicode="&#x131;" horiz-adv-x="608" 
d="M37 0l237 1118h301l-237 -1118h-301z" />
    <glyph glyph-name="IJ" unicode="&#x132;" horiz-adv-x="1333" 
d="M51 0l311 1462h306l-312 -1462h-305zM520 -430q-63 0 -106 8t-81 19v253q35 -7 75 -13.5t89 -6.5q66 0 115 27t83 82.5t52 142.5l293 1380h305l-303 -1423q-36 -168 -103.5 -271t-170.5 -150.5t-248 -47.5z" />
    <glyph glyph-name="ij" unicode="&#x133;" horiz-adv-x="1217" 
d="M37 0l237 1118h301l-237 -1118h-301zM473 1257q-64 0 -107.5 28t-43.5 95q0 58 21.5 97t62.5 59t98 20q60 0 104.5 -26t44.5 -94q0 -80 -44 -129.5t-136 -49.5zM518 -492q-48 0 -95.5 7.5t-78.5 17.5v242q32 -11 59 -16t55 -5q41 0 75.5 17.5t60 55.5t37.5 97l253 1194
h302l-265 -1239q-21 -102 -67.5 -186.5t-128 -134.5t-207.5 -50zM1083 1257q-64 0 -107.5 28t-43.5 95q0 58 21.5 97t62.5 59t98 20q60 0 104.5 -26t44.5 -94q0 -80 -44 -129.5t-136 -49.5z" />
    <glyph glyph-name="Jcircumflex" unicode="&#x134;" horiz-adv-x="678" 
d="M-135 -430q-63 0 -106 8t-81 19v253q35 -7 75 -13.5t89 -6.5q66 0 115 27t83 82.5t52 142.5l293 1380h305l-303 -1423q-36 -168 -103.5 -271t-170.5 -150.5t-248 -47.5zM137 1585v25q41 38 96.5 91.5t109.5 110t89 101.5h338q21 -48 51.5 -103t64 -107.5t60.5 -92.5v-25
h-198q-23 21 -52 49t-57.5 59.5t-52.5 59.5q-60 -49 -116 -89.5t-115 -78.5h-218z" />
    <glyph glyph-name="jcircumflex" unicode="&#x135;" horiz-adv-x="608" 
d="M-88 -492q-48 0 -95.5 7.5t-78.5 17.5v242q32 -11 59 -16t56 -5q41 0 75 17.5t59.5 55.5t37.5 97l254 1194h301l-265 -1239q-21 -102 -67.5 -186.5t-128 -134.5t-207.5 -50zM26 1241v25q41 38 96.5 91.5t109.5 110t89 101.5h338q21 -48 51.5 -103t64 -107.5t60.5 -92.5
v-25h-198q-23 21 -52 49t-57.5 59.5t-52.5 59.5q-60 -49 -116 -89.5t-115 -78.5h-218z" />
    <glyph glyph-name="uni0136" unicode="&#x136;" horiz-adv-x="1255" 
d="M53 0l309 1462h306l-154 -706l156 209l413 497h361l-594 -700l291 -762h-338l-211 592l-125 -70l-109 -522h-305zM293 -453v27q20 40 43.5 93.5t45.5 108.5t36 99h282v-20q-25 -45 -60.5 -97.5t-78.5 -106t-88 -104.5h-180z" />
    <glyph glyph-name="uni0137" unicode="&#x137;" horiz-adv-x="1163" 
d="M37 0l330 1556h301l-148 -694q-7 -33 -19 -76t-24 -81.5t-18 -61.5h8l453 475h344l-498 -504l285 -614h-336l-183 420l-120 -72l-74 -348h-301zM242 -453v27q20 40 43.5 93.5t45.5 108.5t36 99h282v-20q-25 -45 -60.5 -97.5t-78.5 -106t-88 -104.5h-180z" />
    <glyph glyph-name="kgreenlandic" unicode="&#x138;" horiz-adv-x="1163" 
d="M37 0l237 1118h301l-55 -246q-12 -53 -30 -117t-35 -118h8l457 481h344l-498 -504l285 -614h-336l-183 420l-120 -72l-74 -348h-301z" />
    <glyph glyph-name="Lacute" unicode="&#x139;" horiz-adv-x="1061" 
d="M53 0l309 1462h306l-256 -1206h512l-54 -256h-817zM436 1585v25q34 38 73.5 90.5t78 108.5t70.5 104h335v-17q-22 -27 -64 -68.5t-93 -87t-101.5 -86.5t-89.5 -69h-209z" />
    <glyph glyph-name="lacute" unicode="&#x13a;" horiz-adv-x="608" 
d="M37 0l330 1556h301l-330 -1556h-301zM381 1679v25q34 38 73.5 90.5t78 108.5t70.5 104h335v-17q-22 -27 -64 -68.5t-93 -87t-101.5 -86.5t-89.5 -69h-209z" />
    <glyph glyph-name="uni013B" unicode="&#x13b;" horiz-adv-x="1061" 
d="M53 0l309 1462h306l-256 -1206h512l-54 -256h-817zM201 -453v27q20 40 43.5 93.5t45.5 108.5t36 99h282v-20q-25 -45 -60.5 -97.5t-78.5 -106t-88 -104.5h-180z" />
    <glyph glyph-name="uni013C" unicode="&#x13c;" horiz-adv-x="608" 
d="M37 0l330 1556h301l-330 -1556h-301zM-78 -453v27q20 40 43.5 93.5t45.5 108.5t36 99h282v-20q-25 -45 -60.5 -97.5t-78.5 -106t-88 -104.5h-180z" />
    <glyph glyph-name="Lcaron" unicode="&#x13d;" horiz-adv-x="1061" 
d="M53 0l309 1462h306l-256 -1206h512l-54 -256h-817zM766 1131v26q19 40 42.5 93.5t45.5 108.5t36 99h283v-20q-24 -45 -60 -97t-79 -106t-88 -104h-180z" />
    <glyph glyph-name="lcaron" unicode="&#x13e;" horiz-adv-x="768" 
d="M37 0l330 1556h301l-330 -1556h-301zM674 1229v26q19 40 42.5 93.5t45.5 108.5t36 99h283v-20q-24 -45 -60 -97t-79 -106t-88 -104h-180z" />
    <glyph glyph-name="Ldot" unicode="&#x13f;" horiz-adv-x="1061" 
d="M53 0l309 1462h306l-256 -1206h512l-54 -256h-817zM846 600q-64 0 -108 28t-44 95q0 86 48.5 131t133.5 45q40 0 74 -11t55 -37.5t21 -71.5q0 -80 -44 -129.5t-136 -49.5z" />
    <glyph glyph-name="ldot" unicode="&#x140;" horiz-adv-x="889" 
d="M37 0l330 1556h301l-330 -1556h-301zM762 544q-64 0 -108 28t-44 95q0 86 48.5 131t133.5 45q40 0 74 -11t55 -37.5t21 -71.5q0 -80 -44 -129.5t-136 -49.5z" />
    <glyph glyph-name="Lslash" unicode="&#x141;" horiz-adv-x="1061" 
d="M55 0l103 481l-58 -30l-102 202l221 119l146 690h303l-107 -506l141 78l107 -203l-311 -167l-86 -408h512l-54 -256h-815z" />
    <glyph glyph-name="lslash" unicode="&#x142;" horiz-adv-x="670" 
d="M63 0l99 467l-60 -33l-102 203l223 121l170 798h297l-131 -620l64 37l106 -203l-231 -125l-138 -645h-297z" />
    <glyph glyph-name="Nacute" unicode="&#x143;" horiz-adv-x="1546" 
d="M53 0l309 1462h357l340 -1077h8q7 43 18 111.5t24.5 142t25.5 131.5l147 692h274l-309 -1462h-342l-356 1106h-10q-1 -12 -7.5 -58t-16 -110.5t-20.5 -131t-22 -118.5l-145 -688h-275zM837 1585v25q34 38 73.5 90.5t78 108.5t70.5 104h335v-17q-22 -27 -64 -68.5t-93 -87
t-101.5 -86.5t-89.5 -69h-209z" />
    <glyph glyph-name="nacute" unicode="&#x144;" horiz-adv-x="1237" 
d="M37 0l237 1118h230l-21 -207h9q43 67 95 118t115.5 80.5t141.5 29.5q96 0 160.5 -39.5t96.5 -111.5t32 -171q0 -37 -6 -83t-17 -97l-133 -637h-301l137 653q8 34 12 64t4 55q0 63 -27 93t-81 30q-68 0 -123 -58.5t-95.5 -156.5t-66.5 -217l-98 -463h-301zM602 1241v25
q34 38 73.5 90.5t78 108.5t70.5 104h335v-17q-22 -27 -64 -68.5t-93 -87t-101.5 -86.5t-89.5 -69h-209z" />
    <glyph glyph-name="uni0145" unicode="&#x145;" horiz-adv-x="1546" 
d="M53 0l309 1462h357l340 -1077h8q7 43 18 111.5t24.5 142t25.5 131.5l147 692h274l-309 -1462h-342l-356 1106h-10q-1 -12 -7.5 -58t-16 -110.5t-20.5 -131t-22 -118.5l-145 -688h-275zM373 -453v27q20 40 43.5 93.5t45.5 108.5t36 99h282v-20q-25 -45 -60.5 -97.5
t-78.5 -106t-88 -104.5h-180z" />
    <glyph glyph-name="uni0146" unicode="&#x146;" horiz-adv-x="1237" 
d="M37 0l237 1118h230l-21 -207h9q43 67 95 118t115.5 80.5t141.5 29.5q96 0 160.5 -39.5t96.5 -111.5t32 -171q0 -37 -6 -83t-17 -97l-133 -637h-301l137 653q8 34 12 64t4 55q0 63 -27 93t-81 30q-68 0 -123 -58.5t-95.5 -156.5t-66.5 -217l-98 -463h-301zM248 -453v27
q20 40 43.5 93.5t45.5 108.5t36 99h282v-20q-25 -45 -60.5 -97.5t-78.5 -106t-88 -104.5h-180z" />
    <glyph glyph-name="Ncaron" unicode="&#x147;" horiz-adv-x="1546" 
d="M53 0l309 1462h357l340 -1077h8q7 43 18 111.5t24.5 142t25.5 131.5l147 692h274l-309 -1462h-342l-356 1106h-10q-1 -12 -7.5 -58t-16 -110.5t-20.5 -131t-22 -118.5l-145 -688h-275zM833 1585q-20 48 -51 103t-64 107.5t-61 92.5v25h199q24 -20 52 -48.5t57 -59.5
t52 -60q60 49 116 89.5t116 78.5h217v-25q-41 -38 -96.5 -92t-109 -110t-89.5 -101h-338z" />
    <glyph glyph-name="ncaron" unicode="&#x148;" horiz-adv-x="1237" 
d="M37 0l237 1118h230l-21 -207h9q43 67 95 118t115.5 80.5t141.5 29.5q96 0 160.5 -39.5t96.5 -111.5t32 -171q0 -37 -6 -83t-17 -97l-133 -637h-301l137 653q8 34 12 64t4 55q0 63 -27 93t-81 30q-68 0 -123 -58.5t-95.5 -156.5t-66.5 -217l-98 -463h-301zM598 1241
q-20 48 -51 103t-64 107.5t-61 92.5v25h199q24 -20 52 -48.5t57 -59.5t52 -60q60 49 116 89.5t116 78.5h217v-25q-41 -38 -96.5 -92t-109 -110t-89.5 -101h-338z" />
    <glyph glyph-name="napostrophe" unicode="&#x149;" horiz-adv-x="1446" 
d="M246 0l237 1118h230l-21 -207h9q43 67 95 118t115.5 80.5t141.5 29.5q96 0 160.5 -39.5t96.5 -111.5t32 -171q0 -37 -6 -83t-17 -97l-133 -637h-301l137 653q8 34 12 64t4 55q0 63 -27 93t-81 30q-68 0 -123 -58.5t-95.5 -156.5t-66.5 -217l-98 -463h-301zM51 961
q35 81 70 170t67.5 175t57.5 156h285l8 -22q-32 -71 -75 -153.5t-91 -166t-96 -159.5h-226z" />
    <glyph glyph-name="Eng" unicode="&#x14a;" horiz-adv-x="1546" 
d="M727 -430q-63 0 -110.5 7t-79.5 17v242q37 -9 77.5 -15.5t83.5 -6.5q74 0 126 19t87 60t56 107l-418 1106h-8q-1 -12 -8 -58t-16.5 -110.5t-21 -131t-22.5 -118.5l-145 -688h-275l309 1462h330l381 -985h10q7 43 17 112t23.5 145t27.5 140l131 588h274l-309 -1462
q-31 -148 -103 -243.5t-177.5 -141t-239.5 -45.5z" />
    <glyph glyph-name="eng" unicode="&#x14b;" horiz-adv-x="1237" 
d="M547 -492q-48 0 -95.5 7.5t-78.5 17.5v242q32 -11 59 -16t55 -5q41 0 75.5 17.5t59.5 55.5t37 97l154 729q8 34 12 64t4 55q0 63 -27 93t-81 30q-68 0 -123 -58.5t-95.5 -156.5t-66.5 -217l-98 -463h-301l237 1118h228l-21 -207h8q43 67 95.5 118t117 80.5t142.5 29.5
q96 0 160.5 -39.5t96.5 -111.5t32 -171q0 -37 -6 -83t-17 -97l-158 -754q-22 -106 -69 -191t-128.5 -134.5t-207.5 -49.5z" />
    <glyph glyph-name="Omacron" unicode="&#x14c;" horiz-adv-x="1495" 
d="M666 -20q-178 0 -298.5 69t-182.5 194.5t-62 293.5q0 114 20.5 228t62 220t105 197t149.5 159t195 106t242 38q266 0 400.5 -149.5t134.5 -397.5q0 -119 -19.5 -236t-60 -224t-103 -197.5t-147.5 -158t-193.5 -105t-242.5 -37.5zM688 240q60 0 115 22t103 63.5t87.5 102
t67.5 137t43.5 168.5t15.5 197q0 135 -62.5 216t-185.5 81q-63 0 -120.5 -25t-106 -71t-87.5 -109t-67 -140t-42.5 -164t-14.5 -181q0 -97 30 -163.5t87 -100t137 -33.5zM647 1585l45 211h619l-45 -211h-619z" />
    <glyph glyph-name="omacron" unicode="&#x14d;" horiz-adv-x="1198" 
d="M518 -20q-126 0 -222.5 52t-151 148.5t-54.5 229.5q0 119 23.5 227.5t71 200t119 159t166.5 105t214 37.5q130 0 225 -52.5t147 -151.5t52 -239q0 -114 -22.5 -219.5t-68.5 -196t-116 -158t-165.5 -105t-217.5 -37.5zM543 225q50 0 91 25.5t73 71t53.5 105t33 128.5
t11.5 141q0 57 -13.5 101.5t-45 70t-84.5 25.5q-55 0 -98.5 -30.5t-75.5 -81.5t-53 -114t-31.5 -129.5t-10.5 -127.5q0 -91 37 -138t113 -47zM408 1241l45 211h619l-45 -211h-619z" />
    <glyph glyph-name="Obreve" unicode="&#x14e;" horiz-adv-x="1495" 
d="M666 -20q-178 0 -298.5 69t-182.5 194.5t-62 293.5q0 114 20.5 228t62 220t105 197t149.5 159t195 106t242 38q266 0 400.5 -149.5t134.5 -397.5q0 -119 -19.5 -236t-60 -224t-103 -197.5t-147.5 -158t-193.5 -105t-242.5 -37.5zM688 240q60 0 115 22t103 63.5t87.5 102
t67.5 137t43.5 168.5t15.5 197q0 135 -62.5 216t-185.5 81q-63 0 -120.5 -25t-106 -71t-87.5 -109t-67 -140t-42.5 -164t-14.5 -181q0 -97 30 -163.5t87 -100t137 -33.5zM958 1585q-119 0 -190 40t-102 102.5t-31 129.5q0 22 1.5 37.5t4.5 28.5h174q0 -43 16 -70.5t50.5 -41
t87.5 -13.5q78 0 128 27.5t66 97.5h189q-26 -161 -121.5 -249.5t-272.5 -88.5z" />
    <glyph glyph-name="obreve" unicode="&#x14f;" horiz-adv-x="1198" 
d="M518 -20q-126 0 -222.5 52t-151 148.5t-54.5 229.5q0 119 23.5 227.5t71 200t119 159t166.5 105t214 37.5q130 0 225 -52.5t147 -151.5t52 -239q0 -114 -22.5 -219.5t-68.5 -196t-116 -158t-165.5 -105t-217.5 -37.5zM543 225q50 0 91 25.5t73 71t53.5 105t33 128.5
t11.5 141q0 57 -13.5 101.5t-45 70t-84.5 25.5q-55 0 -98.5 -30.5t-75.5 -81.5t-53 -114t-31.5 -129.5t-10.5 -127.5q0 -91 37 -138t113 -47zM720 1241q-119 0 -190 40t-102 102.5t-31 129.5q0 22 1.5 37.5t4.5 28.5h174q0 -43 16 -70.5t50.5 -41t87.5 -13.5q78 0 128 27.5
t66 97.5h189q-26 -161 -121.5 -249.5t-272.5 -88.5z" />
    <glyph glyph-name="Ohungarumlaut" unicode="&#x150;" horiz-adv-x="1495" 
d="M666 -20q-178 0 -298.5 69t-182.5 194.5t-62 293.5q0 114 20.5 228t62 220t105 197t149.5 159t195 106t242 38q266 0 400.5 -149.5t134.5 -397.5q0 -119 -19.5 -236t-60 -224t-103 -197.5t-147.5 -158t-193.5 -105t-242.5 -37.5zM688 240q60 0 115 22t103 63.5t87.5 102
t67.5 137t43.5 168.5t15.5 197q0 135 -62.5 216t-185.5 81q-63 0 -120.5 -25t-106 -71t-87.5 -109t-67 -140t-42.5 -164t-14.5 -181q0 -97 30 -163.5t87 -100t137 -33.5zM1045 1585v25q34 38 75.5 90.5t83 108.5t72.5 104h305v-17q-22 -27 -65.5 -68.5t-96.5 -87t-105 -86.5
t-91 -69h-178zM647 1585v25q34 38 76 90.5t83 108.5t73 104h305v-17q-22 -27 -65.5 -68.5t-96.5 -87t-105 -86.5t-91 -69h-179z" />
    <glyph glyph-name="ohungarumlaut" unicode="&#x151;" horiz-adv-x="1198" 
d="M518 -20q-126 0 -222.5 52t-151 148.5t-54.5 229.5q0 119 23.5 227.5t71 200t119 159t166.5 105t214 37.5q130 0 225 -52.5t147 -151.5t52 -239q0 -114 -22.5 -219.5t-68.5 -196t-116 -158t-165.5 -105t-217.5 -37.5zM543 225q50 0 91 25.5t73 71t53.5 105t33 128.5
t11.5 141q0 57 -13.5 101.5t-45 70t-84.5 25.5q-55 0 -98.5 -30.5t-75.5 -81.5t-53 -114t-31.5 -129.5t-10.5 -127.5q0 -91 37 -138t113 -47zM807 1241v25q34 38 75.5 90.5t83 108.5t72.5 104h305v-17q-22 -27 -65.5 -68.5t-96.5 -87t-105 -86.5t-91 -69h-178zM409 1241v25
q34 38 76 90.5t83 108.5t73 104h305v-17q-22 -27 -65.5 -68.5t-96.5 -87t-105 -86.5t-91 -69h-179z" />
    <glyph glyph-name="OE" unicode="&#x152;" horiz-adv-x="1845" 
d="M666 -20q-178 0 -298.5 69t-182.5 194.5t-62 293.5q0 137 29.5 273t90 257.5t152.5 215.5t217 148t285 54q72 0 119 -4.5t90 -18.5h809l-53 -254h-512l-68 -321h477l-55 -254h-477l-80 -377h512l-53 -256h-760q-41 -9 -87 -14.5t-93 -5.5zM688 240q40 0 80.5 8t77.5 24
l194 916q-32 20 -75 29.5t-93 9.5q-76 0 -143 -35.5t-121 -99.5t-93 -150.5t-60 -189.5t-21 -215q0 -97 30 -163.5t87 -100t137 -33.5z" />
    <glyph glyph-name="oe" unicode="&#x153;" horiz-adv-x="1806" 
d="M498 -20q-183 0 -295.5 114.5t-112.5 319.5q0 119 22.5 227t68 199t114.5 158t162 104t211 37q106 0 185 -41.5t128 -118.5q71 74 170 117t229 43q188 0 281.5 -85.5t93.5 -219.5q0 -88 -39.5 -160t-119.5 -123.5t-200.5 -79t-283.5 -27.5h-51q-1 -12 -1.5 -21t-0.5 -20
q0 -90 51.5 -143t146.5 -53q88 0 160 20t170 66v-227q-88 -43 -178.5 -64.5t-210.5 -21.5q-72 0 -138.5 16t-120 48t-87.5 81q-63 -67 -147 -106t-207 -39zM539 225q48 0 87 25.5t69.5 71t51 105t31 128.5t10.5 141q0 85 -33 141t-110 56q-52 0 -93 -30t-71 -80.5
t-49.5 -113t-29 -128.5t-9.5 -127q0 -91 36.5 -140t109.5 -49zM1094 647h45q116 0 188 25t105.5 66t33.5 89t-27.5 71.5t-76.5 23.5q-56 0 -111.5 -35t-97.5 -97t-59 -143z" />
    <glyph glyph-name="Racute" unicode="&#x154;" horiz-adv-x="1247" 
d="M53 0l309 1462h359q220 0 347.5 -94.5t127.5 -306.5q0 -116 -42 -203t-114.5 -146t-165.5 -91l261 -621h-332l-207 561h-119l-119 -561h-305zM530 813h78q65 0 116.5 14.5t87.5 43t54.5 72t18.5 101.5q0 82 -48 123t-149 41h-74zM677 1585v25q34 38 73.5 90.5t78 108.5
t70.5 104h335v-17q-22 -27 -64 -68.5t-93 -87t-101.5 -86.5t-89.5 -69h-209z" />
    <glyph glyph-name="racute" unicode="&#x155;" horiz-adv-x="862" 
d="M37 0l237 1118h230l-21 -207h11q45 71 98 122t115 78.5t135 27.5q24 0 51.5 -3t44.5 -8l-66 -290q-16 6 -42.5 11t-57.5 5q-56 0 -107 -22.5t-94 -66.5t-75.5 -110.5t-51.5 -154.5l-106 -500h-301zM460 1241v25q34 38 73.5 90.5t78 108.5t70.5 104h335v-17
q-22 -27 -64 -68.5t-93 -87t-101.5 -86.5t-89.5 -69h-209z" />
    <glyph glyph-name="uni0156" unicode="&#x156;" horiz-adv-x="1247" 
d="M53 0l309 1462h359q220 0 347.5 -94.5t127.5 -306.5q0 -116 -42 -203t-114.5 -146t-165.5 -91l261 -621h-332l-207 561h-119l-119 -561h-305zM530 813h78q65 0 116.5 14.5t87.5 43t54.5 72t18.5 101.5q0 82 -48 123t-149 41h-74zM268 -453v27q20 40 43.5 93.5t45.5 108.5
t36 99h282v-20q-25 -45 -60.5 -97.5t-78.5 -106t-88 -104.5h-180z" />
    <glyph glyph-name="uni0157" unicode="&#x157;" horiz-adv-x="862" 
d="M37 0l237 1118h230l-21 -207h11q45 71 98 122t115 78.5t135 27.5q24 0 51.5 -3t44.5 -8l-66 -290q-16 6 -42.5 11t-57.5 5q-56 0 -107 -22.5t-94 -66.5t-75.5 -110.5t-51.5 -154.5l-106 -500h-301zM-67 -453v27q20 40 43.5 93.5t45.5 108.5t36 99h282v-20
q-25 -45 -60.5 -97.5t-78.5 -106t-88 -104.5h-180z" />
    <glyph glyph-name="Rcaron" unicode="&#x158;" horiz-adv-x="1247" 
d="M53 0l309 1462h359q220 0 347.5 -94.5t127.5 -306.5q0 -116 -42 -203t-114.5 -146t-165.5 -91l261 -621h-332l-207 561h-119l-119 -561h-305zM530 813h78q65 0 116.5 14.5t87.5 43t54.5 72t18.5 101.5q0 82 -48 123t-149 41h-74zM674 1585q-20 48 -51 103t-64 107.5
t-61 92.5v25h199q24 -20 52 -48.5t57 -59.5t52 -60q60 49 116 89.5t116 78.5h217v-25q-41 -38 -96.5 -92t-109 -110t-89.5 -101h-338z" />
    <glyph glyph-name="rcaron" unicode="&#x159;" horiz-adv-x="862" 
d="M37 0l237 1118h230l-21 -207h11q45 71 98 122t115 78.5t135 27.5q24 0 51.5 -3t44.5 -8l-66 -290q-16 6 -42.5 11t-57.5 5q-56 0 -107 -22.5t-94 -66.5t-75.5 -110.5t-51.5 -154.5l-106 -500h-301zM457 1241q-20 48 -51 103t-64 107.5t-61 92.5v25h199q24 -20 52 -48.5
t57 -59.5t52 -60q60 49 116 89.5t116 78.5h217v-25q-41 -38 -96.5 -92t-109 -110t-89.5 -101h-338z" />
    <glyph glyph-name="Sacute" unicode="&#x15a;" horiz-adv-x="1085" 
d="M397 -20q-110 0 -201.5 24t-154.5 66v274q91 -51 178.5 -79.5t179.5 -28.5q51 0 94.5 9.5t75.5 29.5t50 50t18 70q0 57 -22.5 95.5t-62 71.5t-91.5 71q-61 44 -118.5 100t-94.5 130.5t-37 174.5q0 98 35.5 179t101.5 141t158.5 92.5t206.5 32.5q113 0 209.5 -24.5
t187.5 -74.5l-109 -233q-78 37 -148.5 55.5t-139.5 18.5q-41 0 -75.5 -11.5t-60 -33t-39.5 -51.5t-14 -68q0 -52 21.5 -89t62 -68.5t97.5 -69.5q81 -53 134.5 -113.5t80 -131.5t26.5 -157q0 -115 -43 -200t-118.5 -141t-175 -83.5t-212.5 -27.5zM581 1585v25
q34 38 73.5 90.5t78 108.5t70.5 104h335v-17q-22 -27 -64 -68.5t-93 -87t-101.5 -86.5t-89.5 -69h-209z" />
    <glyph glyph-name="sacute" unicode="&#x15b;" horiz-adv-x="969" 
d="M358 -20q-107 0 -186.5 15t-148.5 50v248q75 -43 154.5 -66.5t164.5 -23.5q47 0 88.5 13t67.5 40t26 68q0 28 -13 50t-49.5 48.5t-105.5 64.5q-69 39 -117.5 80t-74 93t-25.5 122q0 116 51 195.5t146.5 120.5t228.5 41q97 0 187 -22t176 -73l-99 -215q-59 36 -125.5 60
t-132.5 24q-49 0 -88 -23t-39 -71q0 -26 14 -47.5t47.5 -43.5t90.5 -52q68 -35 120.5 -77.5t82.5 -98t30 -131.5q0 -128 -58 -214.5t-163.5 -130.5t-249.5 -44zM438 1241v25q34 38 73.5 90.5t78 108.5t70.5 104h335v-17q-22 -27 -64 -68.5t-93 -87t-101.5 -86.5t-89.5 -69
h-209z" />
    <glyph glyph-name="Scircumflex" unicode="&#x15c;" horiz-adv-x="1085" 
d="M397 -20q-110 0 -201.5 24t-154.5 66v274q91 -51 178.5 -79.5t179.5 -28.5q51 0 94.5 9.5t75.5 29.5t50 50t18 70q0 57 -22.5 95.5t-62 71.5t-91.5 71q-61 44 -118.5 100t-94.5 130.5t-37 174.5q0 98 35.5 179t101.5 141t158.5 92.5t206.5 32.5q113 0 209.5 -24.5
t187.5 -74.5l-109 -233q-78 37 -148.5 55.5t-139.5 18.5q-41 0 -75.5 -11.5t-60 -33t-39.5 -51.5t-14 -68q0 -52 21.5 -89t62 -68.5t97.5 -69.5q81 -53 134.5 -113.5t80 -131.5t26.5 -157q0 -115 -43 -200t-118.5 -141t-175 -83.5t-212.5 -27.5zM325 1585v25
q41 38 96.5 91.5t109.5 110t89 101.5h338q21 -48 51.5 -103t64 -107.5t60.5 -92.5v-25h-198q-23 21 -52 49t-57.5 59.5t-52.5 59.5q-60 -49 -116 -89.5t-115 -78.5h-218z" />
    <glyph glyph-name="scircumflex" unicode="&#x15d;" horiz-adv-x="969" 
d="M358 -20q-107 0 -186.5 15t-148.5 50v248q75 -43 154.5 -66.5t164.5 -23.5q47 0 88.5 13t67.5 40t26 68q0 28 -13 50t-49.5 48.5t-105.5 64.5q-69 39 -117.5 80t-74 93t-25.5 122q0 116 51 195.5t146.5 120.5t228.5 41q97 0 187 -22t176 -73l-99 -215q-59 36 -125.5 60
t-132.5 24q-49 0 -88 -23t-39 -71q0 -26 14 -47.5t47.5 -43.5t90.5 -52q68 -35 120.5 -77.5t82.5 -98t30 -131.5q0 -128 -58 -214.5t-163.5 -130.5t-249.5 -44zM182 1241v25q41 38 96.5 91.5t109.5 110t89 101.5h338q21 -48 51.5 -103t64 -107.5t60.5 -92.5v-25h-198
q-23 21 -52 49t-57.5 59.5t-52.5 59.5q-60 -49 -116 -89.5t-115 -78.5h-218z" />
    <glyph glyph-name="Scedilla" unicode="&#x15e;" horiz-adv-x="1085" 
d="M397 -20q-110 0 -201.5 24t-154.5 66v274q91 -51 178.5 -79.5t179.5 -28.5q51 0 94.5 9.5t75.5 29.5t50 50t18 70q0 57 -22.5 95.5t-62 71.5t-91.5 71q-61 44 -118.5 100t-94.5 130.5t-37 174.5q0 98 35.5 179t101.5 141t158.5 92.5t206.5 32.5q113 0 209.5 -24.5
t187.5 -74.5l-109 -233q-78 37 -148.5 55.5t-139.5 18.5q-41 0 -75.5 -11.5t-60 -33t-39.5 -51.5t-14 -68q0 -52 21.5 -89t62 -68.5t97.5 -69.5q81 -53 134.5 -113.5t80 -131.5t26.5 -157q0 -115 -43 -200t-118.5 -141t-175 -83.5t-212.5 -27.5zM297 -492q-48 0 -88.5 8
t-63.5 15v168q22 -7 56 -15t69 -8q34 0 56.5 9.5t34 28t11.5 44.5q0 34 -31 56.5t-110 31.5l96 154h185l-39 -72q59 -19 100 -61t41 -117q0 -68 -33 -123t-102.5 -87t-181.5 -32z" />
    <glyph glyph-name="scedilla" unicode="&#x15f;" horiz-adv-x="969" 
d="M358 -20q-107 0 -186.5 15t-148.5 50v248q75 -43 154.5 -66.5t164.5 -23.5q47 0 88.5 13t67.5 40t26 68q0 28 -13 50t-49.5 48.5t-105.5 64.5q-69 39 -117.5 80t-74 93t-25.5 122q0 116 51 195.5t146.5 120.5t228.5 41q97 0 187 -22t176 -73l-99 -215q-59 36 -125.5 60
t-132.5 24q-49 0 -88 -23t-39 -71q0 -26 14 -47.5t47.5 -43.5t90.5 -52q68 -35 120.5 -77.5t82.5 -98t30 -131.5q0 -128 -58 -214.5t-163.5 -130.5t-249.5 -44zM252 -492q-48 0 -88.5 8t-63.5 15v168q22 -7 56 -15t69 -8q34 0 56.5 9.5t34 28t11.5 44.5q0 34 -31 56.5
t-110 31.5l96 154h185l-39 -72q59 -19 100 -61t41 -117q0 -68 -33 -123t-102.5 -87t-181.5 -32z" />
    <glyph glyph-name="Scaron" unicode="&#x160;" horiz-adv-x="1085" 
d="M397 -20q-110 0 -201.5 24t-154.5 66v274q91 -51 178.5 -79.5t179.5 -28.5q51 0 94.5 9.5t75.5 29.5t50 50t18 70q0 57 -22.5 95.5t-62 71.5t-91.5 71q-61 44 -118.5 100t-94.5 130.5t-37 174.5q0 98 35.5 179t101.5 141t158.5 92.5t206.5 32.5q113 0 209.5 -24.5
t187.5 -74.5l-109 -233q-78 37 -148.5 55.5t-139.5 18.5q-41 0 -75.5 -11.5t-60 -33t-39.5 -51.5t-14 -68q0 -52 21.5 -89t62 -68.5t97.5 -69.5q81 -53 134.5 -113.5t80 -131.5t26.5 -157q0 -115 -43 -200t-118.5 -141t-175 -83.5t-212.5 -27.5zM577 1585q-20 48 -51 103
t-64 107.5t-61 92.5v25h199q24 -20 52 -48.5t57 -59.5t52 -60q60 49 116 89.5t116 78.5h217v-25q-41 -38 -96.5 -92t-109 -110t-89.5 -101h-338z" />
    <glyph glyph-name="scaron" unicode="&#x161;" horiz-adv-x="969" 
d="M358 -20q-107 0 -186.5 15t-148.5 50v248q75 -43 154.5 -66.5t164.5 -23.5q47 0 88.5 13t67.5 40t26 68q0 28 -13 50t-49.5 48.5t-105.5 64.5q-69 39 -117.5 80t-74 93t-25.5 122q0 116 51 195.5t146.5 120.5t228.5 41q97 0 187 -22t176 -73l-99 -215q-59 36 -125.5 60
t-132.5 24q-49 0 -88 -23t-39 -71q0 -26 14 -47.5t47.5 -43.5t90.5 -52q68 -35 120.5 -77.5t82.5 -98t30 -131.5q0 -128 -58 -214.5t-163.5 -130.5t-249.5 -44zM434 1241q-20 48 -51 103t-64 107.5t-61 92.5v25h199q24 -20 52 -48.5t57 -59.5t52 -60q60 49 116 89.5
t116 78.5h217v-25q-41 -38 -96.5 -92t-109 -110t-89.5 -101h-338z" />
    <glyph glyph-name="uni0162" unicode="&#x162;" horiz-adv-x="1087" 
d="M266 0l254 1204h-352l55 258h1010l-55 -258h-353l-254 -1204h-305zM312 -492q-48 0 -88.5 8t-63.5 15v168q22 -7 56 -15t69 -8q34 0 56.5 9.5t34 28t11.5 44.5q0 34 -31 56.5t-110 31.5l96 154h185l-39 -72q59 -19 100 -61t41 -117q0 -68 -33 -123t-102.5 -87t-181.5 -32
z" />
    <glyph glyph-name="uni0163" unicode="&#x163;" horiz-adv-x="840" 
d="M410 -20q-133 0 -212 56t-79 202q0 24 3 52.5t9 59.5l115 539h-152l29 147l196 84l132 236h194l-49 -238h283l-50 -229h-282l-115 -539q-3 -15 -4.5 -29.5t-1.5 -23.5q0 -40 24 -57t64 -17q41 0 78.5 9.5t83.5 25.5v-225q-48 -23 -115.5 -38t-150.5 -15zM254 -492
q-48 0 -88.5 8t-63.5 15v168q22 -7 56 -15t69 -8q34 0 56.5 9.5t34 28t11.5 44.5q0 34 -31 56.5t-110 31.5l96 154h185l-39 -72q59 -19 100 -61t41 -117q0 -68 -33 -123t-102.5 -87t-181.5 -32z" />
    <glyph glyph-name="Tcaron" unicode="&#x164;" horiz-adv-x="1087" 
d="M266 0l254 1204h-352l55 258h1010l-55 -258h-353l-254 -1204h-305zM594 1585q-20 48 -51 103t-64 107.5t-61 92.5v25h199q24 -20 52 -48.5t57 -59.5t52 -60q60 49 116 89.5t116 78.5h217v-25q-41 -38 -96.5 -92t-109 -110t-89.5 -101h-338z" />
    <glyph glyph-name="tcaron" unicode="&#x165;" horiz-adv-x="840" 
d="M410 -20q-133 0 -212 56t-79 202q0 24 3 52.5t9 59.5l115 539h-152l29 147l196 84l132 236h194l-49 -238h283l-50 -229h-282l-115 -539q-3 -15 -4.5 -29.5t-1.5 -23.5q0 -40 24 -57t64 -17q41 0 78.5 9.5t83.5 25.5v-225q-48 -23 -115.5 -38t-150.5 -15zM709 1229v26
q19 40 42.5 93.5t45.5 108.5t36 99h283v-20q-24 -45 -60 -97t-79 -106t-88 -104h-180z" />
    <glyph glyph-name="Tbar" unicode="&#x166;" horiz-adv-x="1087" 
d="M266 0l125 596h-225l55 254h223l76 354h-352l55 258h1010l-55 -258h-353l-75 -354h235l-55 -254h-234l-125 -596h-305z" />
    <glyph glyph-name="tbar" unicode="&#x167;" horiz-adv-x="840" 
d="M410 -20q-133 0 -212 56t-79 202q0 24 2.5 52.5t9.5 59.5l33 148h-133l41 198h133l41 193h-152l29 147l196 84l132 236h194l-49 -238h283l-50 -229h-282l-41 -193h233l-41 -198h-235l-31 -148q-3 -15 -4.5 -29.5t-1.5 -23.5q0 -40 24 -57t64 -17q41 0 78.5 9.5t83.5 25.5
v-225q-48 -23 -115.5 -38t-150.5 -15z" />
    <glyph glyph-name="Utilde" unicode="&#x168;" horiz-adv-x="1415" 
d="M604 -20q-151 0 -254.5 51t-156 143.5t-52.5 216.5q0 32 3.5 72.5t11.5 75.5l196 923h305l-194 -919q-7 -35 -12 -67t-5 -58q0 -86 47 -132t142 -46q89 0 147.5 34t94.5 102t57 169l194 917h306l-201 -946q-33 -155 -107.5 -276.5t-201.5 -190.5t-320 -69zM522 1583
q21 108 60.5 176t95.5 100.5t125 32.5q49 0 88 -15.5t71 -36.5t61.5 -36.5t59.5 -15.5q35 0 59 25.5t46 80.5h172q-23 -109 -63.5 -177.5t-96.5 -100t-127 -31.5q-49 0 -87 16t-69.5 36.5t-61 36.5t-62.5 16q-31 0 -56 -28t-39 -79h-176z" />
    <glyph glyph-name="utilde" unicode="&#x169;" horiz-adv-x="1237" 
d="M395 -20q-96 0 -159 39t-94 111.5t-31 170.5q0 37 6 95t18 118l127 604h301l-137 -653q-7 -34 -11.5 -64t-4.5 -55q0 -63 27 -93t81 -30q69 0 123.5 58.5t95.5 157t66 216.5l98 463h301l-237 -1118h-230l21 207h-11q-43 -66 -94.5 -117.5t-114.5 -80.5t-141 -29z
M366 1239q21 108 60.5 176t95.5 100.5t125 32.5q49 0 88 -15.5t71 -36.5t61.5 -36.5t59.5 -15.5q35 0 59 25.5t46 80.5h172q-23 -109 -63.5 -177.5t-96.5 -100t-127 -31.5q-49 0 -87 16t-69.5 36.5t-61 36.5t-62.5 16q-31 0 -56 -28t-39 -79h-176z" />
    <glyph glyph-name="Umacron" unicode="&#x16a;" horiz-adv-x="1415" 
d="M604 -20q-151 0 -254.5 51t-156 143.5t-52.5 216.5q0 32 3.5 72.5t11.5 75.5l196 923h305l-194 -919q-7 -35 -12 -67t-5 -58q0 -86 47 -132t142 -46q89 0 147.5 34t94.5 102t57 169l194 917h306l-201 -946q-33 -155 -107.5 -276.5t-201.5 -190.5t-320 -69zM600 1585
l45 211h619l-45 -211h-619z" />
    <glyph glyph-name="umacron" unicode="&#x16b;" horiz-adv-x="1237" 
d="M395 -20q-96 0 -159 39t-94 111.5t-31 170.5q0 37 6 95t18 118l127 604h301l-137 -653q-7 -34 -11.5 -64t-4.5 -55q0 -63 27 -93t81 -30q69 0 123.5 58.5t95.5 157t66 216.5l98 463h301l-237 -1118h-230l21 207h-11q-43 -66 -94.5 -117.5t-114.5 -80.5t-141 -29z
M444 1241l45 211h619l-45 -211h-619z" />
    <glyph glyph-name="Ubreve" unicode="&#x16c;" horiz-adv-x="1415" 
d="M604 -20q-151 0 -254.5 51t-156 143.5t-52.5 216.5q0 32 3.5 72.5t11.5 75.5l196 923h305l-194 -919q-7 -35 -12 -67t-5 -58q0 -86 47 -132t142 -46q89 0 147.5 34t94.5 102t57 169l194 917h306l-201 -946q-33 -155 -107.5 -276.5t-201.5 -190.5t-320 -69zM911 1585
q-119 0 -190 40t-102 102.5t-31 129.5q0 22 1.5 37.5t4.5 28.5h174q0 -43 16 -70.5t50.5 -41t87.5 -13.5q78 0 128 27.5t66 97.5h189q-26 -161 -121.5 -249.5t-272.5 -88.5z" />
    <glyph glyph-name="ubreve" unicode="&#x16d;" horiz-adv-x="1237" 
d="M395 -20q-96 0 -159 39t-94 111.5t-31 170.5q0 37 6 95t18 118l127 604h301l-137 -653q-7 -34 -11.5 -64t-4.5 -55q0 -63 27 -93t81 -30q69 0 123.5 58.5t95.5 157t66 216.5l98 463h301l-237 -1118h-230l21 207h-11q-43 -66 -94.5 -117.5t-114.5 -80.5t-141 -29z
M755 1241q-119 0 -190 40t-102 102.5t-31 129.5q0 22 1.5 37.5t4.5 28.5h174q0 -43 16 -70.5t50.5 -41t87.5 -13.5q78 0 128 27.5t66 97.5h189q-26 -161 -121.5 -249.5t-272.5 -88.5z" />
    <glyph glyph-name="Uring" unicode="&#x16e;" horiz-adv-x="1415" 
d="M604 -20q-151 0 -254.5 51t-156 143.5t-52.5 216.5q0 32 3.5 72.5t11.5 75.5l196 923h305l-194 -919q-7 -35 -12 -67t-5 -58q0 -86 47 -132t142 -46q89 0 147.5 34t94.5 102t57 169l194 917h306l-201 -946q-33 -155 -107.5 -276.5t-201.5 -190.5t-320 -69zM942 1583
q-110 0 -178.5 63.5t-68.5 174.5q0 110 68.5 173.5t178.5 63.5q107 0 180.5 -63t73.5 -172q0 -112 -73 -176t-181 -64zM942 1724q42 0 69.5 26t27.5 71q0 44 -27.5 70t-69.5 26q-41 0 -68.5 -26t-27.5 -70q0 -45 24.5 -71t71.5 -26z" />
    <glyph glyph-name="uring" unicode="&#x16f;" horiz-adv-x="1237" 
d="M395 -20q-96 0 -159 39t-94 111.5t-31 170.5q0 37 6 95t18 118l127 604h301l-137 -653q-7 -34 -11.5 -64t-4.5 -55q0 -63 27 -93t81 -30q69 0 123.5 58.5t95.5 157t66 216.5l98 463h301l-237 -1118h-230l21 207h-11q-43 -66 -94.5 -117.5t-114.5 -80.5t-141 -29z
M786 1239q-110 0 -178.5 63.5t-68.5 174.5q0 110 68.5 173.5t178.5 63.5q107 0 180.5 -63t73.5 -172q0 -112 -73 -176t-181 -64zM786 1380q42 0 69.5 26t27.5 71q0 44 -27.5 70t-69.5 26q-41 0 -68.5 -26t-27.5 -70q0 -45 24.5 -71t71.5 -26z" />
    <glyph glyph-name="Uhungarumlaut" unicode="&#x170;" horiz-adv-x="1415" 
d="M604 -20q-151 0 -254.5 51t-156 143.5t-52.5 216.5q0 32 3.5 72.5t11.5 75.5l196 923h305l-194 -919q-7 -35 -12 -67t-5 -58q0 -86 47 -132t142 -46q89 0 147.5 34t94.5 102t57 169l194 917h306l-201 -946q-33 -155 -107.5 -276.5t-201.5 -190.5t-320 -69zM998 1585v25
q34 38 75.5 90.5t83 108.5t72.5 104h305v-17q-22 -27 -65.5 -68.5t-96.5 -87t-105 -86.5t-91 -69h-178zM600 1585v25q34 38 76 90.5t83 108.5t73 104h305v-17q-22 -27 -65.5 -68.5t-96.5 -87t-105 -86.5t-91 -69h-179z" />
    <glyph glyph-name="uhungarumlaut" unicode="&#x171;" horiz-adv-x="1237" 
d="M395 -20q-96 0 -159 39t-94 111.5t-31 170.5q0 37 6 95t18 118l127 604h301l-137 -653q-7 -34 -11.5 -64t-4.5 -55q0 -63 27 -93t81 -30q69 0 123.5 58.5t95.5 157t66 216.5l98 463h301l-237 -1118h-230l21 207h-11q-43 -66 -94.5 -117.5t-114.5 -80.5t-141 -29z
M842 1241v25q34 38 75.5 90.5t83 108.5t72.5 104h305v-17q-22 -27 -65.5 -68.5t-96.5 -87t-105 -86.5t-91 -69h-178zM444 1241v25q34 38 76 90.5t83 108.5t73 104h305v-17q-22 -27 -65.5 -68.5t-96.5 -87t-105 -86.5t-91 -69h-179z" />
    <glyph glyph-name="Uogonek" unicode="&#x172;" horiz-adv-x="1415" 
d="M604 -20q-151 0 -254.5 51t-156 143.5t-52.5 216.5q0 32 3.5 72.5t11.5 75.5l196 923h305l-194 -919q-7 -35 -12 -67t-5 -58q0 -86 47 -132t142 -46q89 0 147.5 34t94.5 102t57 169l194 917h306l-201 -946q-33 -155 -107.5 -276.5t-201.5 -190.5t-320 -69zM596 -492
q-103 0 -162 53.5t-59 141.5q0 67 27.5 119t76 95t111.5 83h198q-48 -39 -91.5 -78t-71 -81.5t-27.5 -90.5q0 -28 16 -43.5t43 -15.5q28 0 52.5 5.5t50.5 12.5v-176q-37 -10 -75.5 -17.5t-88.5 -7.5z" />
    <glyph glyph-name="uogonek" unicode="&#x173;" horiz-adv-x="1237" 
d="M395 -20q-96 0 -159 39t-94 111.5t-31 170.5q0 37 6 95t18 118l127 604h301l-137 -653q-7 -34 -11.5 -64t-4.5 -55q0 -63 27 -93t81 -30q69 0 123.5 58.5t95.5 157t66 216.5l98 463h301l-237 -1118h-230l21 207h-11q-43 -66 -94.5 -117.5t-114.5 -80.5t-141 -29z
M737 -492q-103 0 -162 53.5t-59 141.5q0 67 27.5 119t76 95t111.5 83h198q-48 -39 -91.5 -78t-71 -81.5t-27.5 -90.5q0 -28 16 -43.5t43 -15.5q28 0 52.5 5.5t50.5 12.5v-176q-37 -10 -75.5 -17.5t-88.5 -7.5z" />
    <glyph glyph-name="Wcircumflex" unicode="&#x174;" horiz-adv-x="1831" 
d="M229 0l-45 1462h287l6 -798q0 -77 -3 -172t-11 -175h8q28 80 62.5 171.5t62.5 154.5l369 819h270l20 -819q2 -52 0 -147.5t-8 -178.5h8q19 57 41.5 120t45.5 123t42 106l330 796h309l-647 -1462h-346l-16 666q-2 89 -3 147.5t-1 105.5t2 99h-8q-26 -82 -54 -156t-59 -143
l-324 -719h-338zM712 1585v25q41 38 96.5 91.5t109.5 110t89 101.5h338q21 -48 51.5 -103t64 -107.5t60.5 -92.5v-25h-198q-23 21 -52 49t-57.5 59.5t-52.5 59.5q-60 -49 -116 -89.5t-115 -78.5h-218z" />
    <glyph glyph-name="wcircumflex" unicode="&#x175;" horiz-adv-x="1614" 
d="M176 0l-51 1118h281l4 -495q0 -82 -1.5 -163t-9.5 -175h9q14 51 36 113.5t42 114t28 69.5l231 536h328v-536q0 -70 -1 -142t-9 -155h10q15 46 36 110t43.5 126t39.5 102l219 495h307l-530 -1118h-330l-6 520q0 42 1 103t3.5 124.5t5.5 112.5h-12q-17 -49 -38 -109
t-41.5 -116t-37.5 -94l-233 -541h-324zM510 1241v25q41 38 96.5 91.5t109.5 110t89 101.5h338q21 -48 51.5 -103t64 -107.5t60.5 -92.5v-25h-198q-23 21 -52 49t-57.5 59.5t-52.5 59.5q-60 -49 -116 -89.5t-115 -78.5h-218z" />
    <glyph glyph-name="Ycircumflex" unicode="&#x176;" horiz-adv-x="1155" 
d="M303 0l119 559l-236 903h312l129 -592l374 592h342l-618 -903l-119 -559h-303zM354 1585v25q41 38 96.5 91.5t109.5 110t89 101.5h338q21 -48 51.5 -103t64 -107.5t60.5 -92.5v-25h-198q-23 21 -52 49t-57.5 59.5t-52.5 59.5q-60 -49 -116 -89.5t-115 -78.5h-218z" />
    <glyph glyph-name="ycircumflex" unicode="&#x177;" horiz-adv-x="1063" 
d="M6 -492q-54 0 -88.5 6t-58.5 13v240q26 -5 53.5 -9t62.5 -4q95 0 157 55.5t108 141.5l26 49l-164 1118h295l56 -518q5 -46 7.5 -98.5t3.5 -103.5t1 -91h8q14 34 28.5 76t34 91.5t46.5 105.5l260 538h327l-680 -1278q-60 -113 -134.5 -187t-161.5 -109.5t-187 -35.5z
M217 1241v25q41 38 96.5 91.5t109.5 110t89 101.5h338q21 -48 51.5 -103t64 -107.5t60.5 -92.5v-25h-198q-23 21 -52 49t-57.5 59.5t-52.5 59.5q-60 -49 -116 -89.5t-115 -78.5h-218z" />
    <glyph glyph-name="Ydieresis" unicode="&#x178;" horiz-adv-x="1155" 
d="M303 0l119 559l-236 903h312l129 -592l374 592h342l-618 -903l-119 -559h-303zM979 1616q-55 0 -91 24.5t-36 85.5q0 77 39.5 117.5t111.5 40.5q51 0 88 -23.5t37 -84.5q0 -73 -36 -116.5t-113 -43.5zM596 1616q-55 0 -91 24.5t-36 85.5q0 77 39.5 117.5t111.5 40.5
q34 0 62.5 -10t45.5 -33.5t17 -64.5q0 -73 -36 -116.5t-113 -43.5z" />
    <glyph glyph-name="Zacute" unicode="&#x179;" horiz-adv-x="1098" 
d="M-61 0l38 201l777 1005h-543l53 256h936l-41 -202l-782 -1004h596l-53 -256h-981zM604 1585v25q34 38 73.5 90.5t78 108.5t70.5 104h335v-17q-22 -27 -64 -68.5t-93 -87t-101.5 -86.5t-89.5 -69h-209z" />
    <glyph glyph-name="zacute" unicode="&#x17a;" horiz-adv-x="932" 
d="M-47 0l35 180l575 705h-397l51 233h750l-43 -200l-566 -685h439l-49 -233h-795zM446 1241v25q34 38 73.5 90.5t78 108.5t70.5 104h335v-17q-22 -27 -64 -68.5t-93 -87t-101.5 -86.5t-89.5 -69h-209z" />
    <glyph glyph-name="Zdotaccent" unicode="&#x17b;" horiz-adv-x="1098" 
d="M-61 0l38 201l777 1005h-543l53 256h936l-41 -202l-782 -1004h596l-53 -256h-981zM781 1601q-64 0 -108 28t-44 95q0 86 48.5 131t133.5 45q40 0 74 -11t55 -37.5t21 -71.5q0 -80 -44 -129.5t-136 -49.5z" />
    <glyph glyph-name="zdotaccent" unicode="&#x17c;" horiz-adv-x="932" 
d="M-47 0l35 180l575 705h-397l51 233h750l-43 -200l-566 -685h439l-49 -233h-795zM623 1257q-64 0 -108 28t-44 95q0 86 48.5 131t133.5 45q40 0 74 -11t55 -37.5t21 -71.5q0 -80 -44 -129.5t-136 -49.5z" />
    <glyph glyph-name="Zcaron" unicode="&#x17d;" horiz-adv-x="1098" 
d="M-61 0l38 201l777 1005h-543l53 256h936l-41 -202l-782 -1004h596l-53 -256h-981zM600 1585q-20 48 -51 103t-64 107.5t-61 92.5v25h199q24 -20 52 -48.5t57 -59.5t52 -60q60 49 116 89.5t116 78.5h217v-25q-41 -38 -96.5 -92t-109 -110t-89.5 -101h-338z" />
    <glyph glyph-name="zcaron" unicode="&#x17e;" horiz-adv-x="932" 
d="M-47 0l35 180l575 705h-397l51 233h750l-43 -200l-566 -685h439l-49 -233h-795zM442 1241q-20 48 -51 103t-64 107.5t-61 92.5v25h199q24 -20 52 -48.5t57 -59.5t52 -60q60 49 116 89.5t116 78.5h217v-25q-41 -38 -96.5 -92t-109 -110t-89.5 -101h-338z" />
    <glyph glyph-name="longs" unicode="&#x17f;" horiz-adv-x="733" 
d="M-72 -492q-47 0 -95 7.5t-79 17.5v242q32 -11 59 -16t56 -5q62 0 107.5 40.5t64.5 129.5l272 1278q29 136 84 215.5t137 114.5t191 35q69 0 128 -13t108 -36l-80 -224q-29 13 -61 22t-72 9q-38 0 -66 -18.5t-46 -51t-28 -75.5l-276 -1301q-21 -102 -68 -186.5
t-128.5 -134.5t-207.5 -50z" />
    <glyph glyph-name="florin" unicode="&#x192;" horiz-adv-x="1128" 
d="M143 -492q-47 0 -95 7.5t-79 17.5v242q32 -11 59 -16t56 -5q62 0 107.5 40.5t64.5 129.5l186 881h-168l29 149l189 80l18 84q30 136 84.5 215.5t136 114.5t191.5 35q69 0 127.5 -13t107.5 -36l-80 -224q-29 13 -61 22t-72 9q-57 0 -92 -40t-47 -105l-12 -62h219l-49 -229
h-220l-196 -926q-21 -102 -68 -186.5t-128.5 -134.5t-207.5 -50z" />
    <glyph glyph-name="Ohorn" unicode="&#x1a0;" horiz-adv-x="1581" 
d="M666 -20q-178 0 -298.5 69t-182.5 194.5t-62 293.5q0 114 20.5 228t62 220t105 197t149.5 159t195 106t242 38q157 0 267.5 -54.5t176.5 -152.5q53 35 90.5 106t53.5 172h303l10 -24q-50 -170 -147.5 -271t-237.5 -155q9 -40 14 -82t5 -86q0 -119 -19.5 -236t-60 -224
t-103 -197.5t-147.5 -158t-193.5 -105t-242.5 -37.5zM688 240q60 0 115 22t103 63.5t87.5 102t67.5 137t43.5 168.5t15.5 197q0 135 -62.5 216t-185.5 81q-63 0 -120.5 -25t-106 -71t-87.5 -109t-67 -140t-42.5 -164t-14.5 -181q0 -97 30 -163.5t87 -100t137 -33.5z" />
    <glyph glyph-name="ohorn" unicode="&#x1a1;" horiz-adv-x="1317" 
d="M518 -20q-126 0 -222.5 52t-151 148.5t-54.5 229.5q0 119 23.5 227.5t71 200t119 159t166.5 105t214 37.5q109 0 194 -37.5t140 -108.5q56 23 90.5 68t54 104t29.5 121h295l10 -24q-29 -110 -76 -191.5t-125 -141.5t-202 -104q8 -29 11 -61.5t3 -67.5
q0 -114 -22.5 -219.5t-68.5 -196t-116 -158t-165.5 -105t-217.5 -37.5zM543 225q50 0 91 25.5t73 71t53.5 105t33 128.5t11.5 141q0 57 -13.5 101.5t-45 70t-84.5 25.5q-55 0 -98.5 -30.5t-75.5 -81.5t-53 -114t-31.5 -129.5t-10.5 -127.5q0 -91 37 -138t113 -47z" />
    <glyph glyph-name="Uhorn" unicode="&#x1af;" horiz-adv-x="1587" 
d="M596 -20q-147 0 -248.5 54t-154 149t-52.5 218q0 32 3.5 67.5t11.5 70.5l196 923h305l-194 -919q-7 -35 -12 -67t-5 -58q0 -86 47 -132t142 -46q82 0 141 34t98 102t60 169l194 917h306l-39 -184q59 19 94.5 57.5t55.5 95t30 125.5h303l10 -24q-25 -85 -68 -161.5
t-107.5 -136.5t-153 -98t-205.5 -46l-121 -574q-33 -155 -109.5 -276.5t-206 -190.5t-321.5 -69z" />
    <glyph glyph-name="uhorn" unicode="&#x1b0;" horiz-adv-x="1456" 
d="M395 -20q-96 0 -160 39t-96.5 111.5t-32.5 170.5q0 37 8.5 95t20.5 118l127 604h301l-137 -653q-7 -34 -11.5 -64t-4.5 -55q0 -63 27 -93t81 -30q69 0 123.5 58.5t95.5 157t66 216.5l98 463h301l-24 -112q64 16 99 57t53.5 98.5t29.5 122.5h303l10 -24
q-25 -85 -68 -161.5t-107.5 -136.5t-153 -98t-205.5 -47l-174 -817h-228l21 207h-8q-43 -66 -95.5 -117.5t-117 -80.5t-142.5 -29z" />
    <glyph glyph-name="uni01EA" unicode="&#x1ea;" horiz-adv-x="1495" 
d="M666 -20q-178 0 -298.5 69t-182.5 194.5t-62 293.5q0 114 20.5 228t62 220t105 197t149.5 159t195 106t242 38q266 0 400.5 -149.5t134.5 -397.5q0 -119 -19.5 -236t-60 -224t-103 -197.5t-147.5 -158t-193.5 -105t-242.5 -37.5zM688 240q60 0 115 22t103 63.5t87.5 102
t67.5 137t43.5 168.5t15.5 197q0 135 -62.5 216t-185.5 81q-63 0 -120.5 -25t-106 -71t-87.5 -109t-67 -140t-42.5 -164t-14.5 -181q0 -97 30 -163.5t87 -100t137 -33.5zM600 -492q-103 0 -162 53.5t-59 141.5q0 67 27.5 119t76 95t111.5 83h198q-48 -39 -91.5 -78
t-71 -81.5t-27.5 -90.5q0 -28 16 -43.5t43 -15.5q28 0 52.5 5.5t50.5 12.5v-176q-37 -10 -75.5 -17.5t-88.5 -7.5z" />
    <glyph glyph-name="uni01EB" unicode="&#x1eb;" horiz-adv-x="1198" 
d="M518 -20q-126 0 -222.5 52t-151 148.5t-54.5 229.5q0 119 23.5 227.5t71 200t119 159t166.5 105t214 37.5q130 0 225 -52.5t147 -151.5t52 -239q0 -114 -22.5 -219.5t-68.5 -196t-116 -158t-165.5 -105t-217.5 -37.5zM543 225q50 0 91 25.5t73 71t53.5 105t33 128.5
t11.5 141q0 57 -13.5 101.5t-45 70t-84.5 25.5q-55 0 -98.5 -30.5t-75.5 -81.5t-53 -114t-31.5 -129.5t-10.5 -127.5q0 -91 37 -138t113 -47zM436 -492q-103 0 -162 53.5t-59 141.5q0 67 27.5 119t76 95t111.5 83h198q-48 -39 -91.5 -78t-71 -81.5t-27.5 -90.5
q0 -28 16 -43.5t43 -15.5q28 0 52.5 5.5t50.5 12.5v-176q-37 -10 -75.5 -17.5t-88.5 -7.5z" />
    <glyph glyph-name="uni01EC" unicode="&#x1ec;" horiz-adv-x="1495" 
d="M666 -20q-178 0 -298.5 69t-182.5 194.5t-62 293.5q0 114 20.5 228t62 220t105 197t149.5 159t195 106t242 38q266 0 400.5 -149.5t134.5 -397.5q0 -119 -19.5 -236t-60 -224t-103 -197.5t-147.5 -158t-193.5 -105t-242.5 -37.5zM688 240q60 0 115 22t103 63.5t87.5 102
t67.5 137t43.5 168.5t15.5 197q0 135 -62.5 216t-185.5 81q-63 0 -120.5 -25t-106 -71t-87.5 -109t-67 -140t-42.5 -164t-14.5 -181q0 -97 30 -163.5t87 -100t137 -33.5zM647 1585l45 211h619l-45 -211h-619zM600 -492q-103 0 -162 53.5t-59 141.5q0 67 27.5 119t76 95
t111.5 83h198q-48 -39 -91.5 -78t-71 -81.5t-27.5 -90.5q0 -28 16 -43.5t43 -15.5q28 0 52.5 5.5t50.5 12.5v-176q-37 -10 -75.5 -17.5t-88.5 -7.5z" />
    <glyph glyph-name="uni01ED" unicode="&#x1ed;" horiz-adv-x="1198" 
d="M518 -20q-126 0 -222.5 52t-151 148.5t-54.5 229.5q0 119 23.5 227.5t71 200t119 159t166.5 105t214 37.5q130 0 225 -52.5t147 -151.5t52 -239q0 -114 -22.5 -219.5t-68.5 -196t-116 -158t-165.5 -105t-217.5 -37.5zM543 225q50 0 91 25.5t73 71t53.5 105t33 128.5
t11.5 141q0 57 -13.5 101.5t-45 70t-84.5 25.5q-55 0 -98.5 -30.5t-75.5 -81.5t-53 -114t-31.5 -129.5t-10.5 -127.5q0 -91 37 -138t113 -47zM408 1241l45 211h619l-45 -211h-619zM436 -492q-103 0 -162 53.5t-59 141.5q0 67 27.5 119t76 95t111.5 83h198q-48 -39 -91.5 -78
t-71 -81.5t-27.5 -90.5q0 -28 16 -43.5t43 -15.5q28 0 52.5 5.5t50.5 12.5v-176q-37 -10 -75.5 -17.5t-88.5 -7.5z" />
    <glyph glyph-name="uni01F0" unicode="&#x1f0;" horiz-adv-x="608" 
d="M-88 -492q-48 0 -95.5 7.5t-78.5 17.5v242q32 -11 59 -16t56 -5q41 0 75 17.5t59.5 55.5t37.5 97l254 1194h301l-265 -1239q-21 -102 -67.5 -186.5t-128 -134.5t-207.5 -50zM272 1241q-20 48 -51 103t-64 107.5t-61 92.5v25h199q24 -20 52 -48.5t57 -59.5t52 -60
q60 49 116 89.5t116 78.5h217v-25q-41 -38 -96.5 -92t-109 -110t-89.5 -101h-338z" />
    <glyph glyph-name="Aringacute" unicode="&#x1fa;" horiz-adv-x="1286" 
d="M-123 0l731 1346q-12 24 -18 53t-6 61q0 111 68.5 174.5t178.5 63.5q107 0 180.5 -63t73.5 -173q0 -58 -21 -103.5t-56 -76.5l155 -1282h-297l-30 330h-469l-170 -330h-320zM498 590h323l-26 309q-3 34 -8 109t-7 141h-12q-23 -61 -50.5 -121.5t-45.5 -95.5zM831 1364
q42 0 69.5 26t27.5 70q0 45 -27.5 70.5t-69.5 25.5q-41 0 -68.5 -25.5t-27.5 -70.5q0 -44 24.5 -70t71.5 -26zM768 1753v14q33 26 72 60.5t76 70t63 64.5h342v-10q-41 -35 -102 -73t-124.5 -71t-111.5 -55h-215z" />
    <glyph glyph-name="aringacute" unicode="&#x1fb;" horiz-adv-x="1217" 
d="M406 -20q-81 0 -153 40t-117.5 129t-45.5 236q0 110 23.5 218t68 204.5t108 171t144 117.5t174.5 43q71 0 124 -20.5t91 -57.5t62 -86h8l57 143h232l-238 -1118h-225l14 145h-8q-40 -49 -87 -86t-104 -58t-128 -21zM524 223q62 0 115 48.5t91 126.5t54 165
q8 40 11.5 80.5t3.5 87.5q0 71 -37.5 117.5t-102.5 46.5q-44 0 -83.5 -28.5t-72.5 -78t-57.5 -113t-37.5 -134.5t-13 -142q0 -87 34 -131.5t95 -44.5zM741 1198q-110 0 -178.5 63.5t-68.5 174.5q0 110 68.5 173.5t178.5 63.5q107 0 180.5 -63t73.5 -172q0 -112 -73 -176
t-181 -64zM741 1339q42 0 69.5 26t27.5 71q0 44 -27.5 70t-69.5 26q-41 0 -68.5 -26t-27.5 -70q0 -45 24.5 -71t71.5 -26zM680 1753v14q33 26 71.5 60.5t76 70t63.5 64.5h342v-10q-41 -35 -102 -73t-124.5 -71t-111.5 -55h-215z" />
    <glyph glyph-name="AEacute" unicode="&#x1fc;" horiz-adv-x="1833" 
d="M-123 0l922 1462h1104l-54 -254h-512l-67 -321h477l-55 -254h-478l-79 -377h512l-54 -256h-817l74 348h-426l-219 -348h-328zM588 608h317l127 600h-80zM970 1585v25q34 38 73.5 90.5t78 108.5t70.5 104h335v-17q-22 -27 -64 -68.5t-93 -87t-101.5 -86.5t-89.5 -69h-209z
" />
    <glyph glyph-name="aeacute" unicode="&#x1fd;" horiz-adv-x="1786" 
d="M399 -20q-92 0 -161.5 46.5t-108.5 136.5t-39 222q0 117 24 228t69.5 206t108.5 167t141.5 112.5t168.5 40.5q69 0 118 -19t85.5 -55.5t66.5 -89.5h11l57 143h188l-18 -90q48 54 126 82.5t163 28.5q161 0 248.5 -85.5t87.5 -219.5q0 -88 -39.5 -160t-119.5 -123.5
t-200.5 -79t-283.5 -27.5h-52q-1 -12 -1.5 -19.5t-0.5 -18.5q0 -80 47 -139.5t168 -59.5q76 0 161.5 25.5t152.5 60.5v-227q-79 -37 -171 -61.5t-190 -24.5q-109 0 -179.5 27t-117.5 87l-16 -94h-188l14 145h-10q-40 -49 -84.5 -86t-99.5 -58t-126 -21zM518 223
q44 0 82.5 24t70 66t56 97.5t39.5 119.5q11 45 16.5 93t5.5 96q0 80 -33 128t-102 48q-45 0 -84.5 -28.5t-71.5 -78t-55 -113t-35 -134.5t-12 -142q0 -95 37 -135.5t86 -40.5zM1073 647h45q116 0 188.5 25t106 66t33.5 89t-27.5 71.5t-77.5 23.5q-56 0 -111 -35t-97 -97
t-60 -143zM872 1241v25q34 38 73.5 90.5t78 108.5t70.5 104h335v-17q-22 -27 -64 -68.5t-93 -87t-101.5 -86.5t-89.5 -69h-209z" />
    <glyph glyph-name="Oslashacute" unicode="&#x1fe;" horiz-adv-x="1495" 
d="M254 -86l-154 115l121 151q-49 69 -73.5 160t-24.5 197q0 114 20.5 228t62 220t105 197t149.5 159t195 106t242 38q92 0 168.5 -19.5t136.5 -56.5l105 131l151 -117l-117 -145q47 -69 69 -154.5t22 -185.5q0 -119 -19.5 -236t-60 -224t-103 -197.5t-147.5 -158
t-193.5 -105t-242.5 -37.5q-91 0 -166.5 18t-137.5 53zM692 233q62 0 118.5 22.5t106 65t89 103.5t68 138.5t44 170t15.5 197.5q0 17 -1.5 40t-3.5 40l-589 -740q27 -16 67 -26.5t86 -10.5zM432 436l596 754q-29 18 -68.5 30.5t-89.5 12.5q-67 0 -126.5 -25.5t-109 -72
t-88.5 -110.5t-66.5 -141.5t-41.5 -165t-14 -181.5q0 -23 2.5 -49t5.5 -52zM802 1579v25q34 38 73.5 90.5t78 108.5t70.5 104h335v-17q-22 -27 -64 -68.5t-93 -87t-101.5 -86.5t-89.5 -69h-209z" />
    <glyph glyph-name="oslashacute" unicode="&#x1ff;" horiz-adv-x="1198" 
d="M184 -102l-141 108l119 148q-35 52 -53.5 116t-18.5 140q0 119 23.5 227.5t71 200t119 159t166.5 105t214 37.5q65 0 122.5 -14t104.5 -42l70 88l145 -110l-84 -105q32 -52 49 -117.5t17 -142.5q0 -114 -22.5 -219.5t-68.5 -196t-116 -158t-165.5 -105t-217.5 -37.5
q-63 0 -120.5 14t-104.5 39zM543 215q56 0 98.5 27.5t73.5 73t51.5 101.5t31.5 114t15 110q2 11 2 21.5v19.5l-358 -444q11 -8 35.5 -15.5t50.5 -7.5zM385 426l365 453q-13 9 -37.5 16.5t-50.5 7.5q-59 0 -103 -26.5t-75.5 -71.5t-51.5 -101t-30.5 -115t-14.5 -114
q-1 -12 -1.5 -24.5t-0.5 -24.5zM604 1241v25q34 38 73.5 90.5t78 108.5t70.5 104h335v-17q-22 -27 -64 -68.5t-93 -87t-101.5 -86.5t-89.5 -69h-209z" />
    <glyph glyph-name="uni0218" unicode="&#x218;" horiz-adv-x="1085" 
d="M397 -20q-110 0 -201.5 24t-154.5 66v274q91 -51 178.5 -79.5t179.5 -28.5q51 0 94.5 9.5t75.5 29.5t50 50t18 70q0 57 -22.5 95.5t-62 71.5t-91.5 71q-61 44 -118.5 100t-94.5 130.5t-37 174.5q0 98 35.5 179t101.5 141t158.5 92.5t206.5 32.5q113 0 209.5 -24.5
t187.5 -74.5l-109 -233q-78 37 -148.5 55.5t-139.5 18.5q-41 0 -75.5 -11.5t-60 -33t-39.5 -51.5t-14 -68q0 -52 21.5 -89t62 -68.5t97.5 -69.5q81 -53 134.5 -113.5t80 -131.5t26.5 -157q0 -115 -43 -200t-118.5 -141t-175 -83.5t-212.5 -27.5zM148 -453v27
q20 40 43.5 93.5t45.5 108.5t36 99h282v-20q-25 -45 -60.5 -97.5t-78.5 -106t-88 -104.5h-180z" />
    <glyph glyph-name="uni0219" unicode="&#x219;" horiz-adv-x="969" 
d="M358 -20q-107 0 -186.5 15t-148.5 50v248q75 -43 154.5 -66.5t164.5 -23.5q47 0 88.5 13t67.5 40t26 68q0 28 -13 50t-49.5 48.5t-105.5 64.5q-69 39 -117.5 80t-74 93t-25.5 122q0 116 51 195.5t146.5 120.5t228.5 41q97 0 187 -22t176 -73l-99 -215q-59 36 -125.5 60
t-132.5 24q-49 0 -88 -23t-39 -71q0 -26 14 -47.5t47.5 -43.5t90.5 -52q68 -35 120.5 -77.5t82.5 -98t30 -131.5q0 -128 -58 -214.5t-163.5 -130.5t-249.5 -44zM103 -453v27q20 40 43.5 93.5t45.5 108.5t36 99h282v-20q-25 -45 -60.5 -97.5t-78.5 -106t-88 -104.5h-180z" />
    <glyph glyph-name="uni021A" unicode="&#x21a;" horiz-adv-x="1087" 
d="M266 0l254 1204h-352l55 258h1010l-55 -258h-353l-254 -1204h-305zM162 -453v27q20 40 43.5 93.5t45.5 108.5t36 99h282v-20q-25 -45 -60.5 -97.5t-78.5 -106t-88 -104.5h-180z" />
    <glyph glyph-name="uni021B" unicode="&#x21b;" horiz-adv-x="840" 
d="M410 -20q-133 0 -212 56t-79 202q0 24 3 52.5t9 59.5l115 539h-152l29 147l196 84l132 236h194l-49 -238h283l-50 -229h-282l-115 -539q-3 -15 -4.5 -29.5t-1.5 -23.5q0 -40 24 -57t64 -17q41 0 78.5 9.5t83.5 25.5v-225q-48 -23 -115.5 -38t-150.5 -15zM105 -453v27
q20 40 43.5 93.5t45.5 108.5t36 99h282v-20q-25 -45 -60.5 -97.5t-78.5 -106t-88 -104.5h-180z" />
    <glyph glyph-name="uni0237" unicode="&#x237;" horiz-adv-x="608" 
d="M-88 -492q-48 0 -95.5 7.5t-78.5 17.5v242q32 -11 59 -16t56 -5q41 0 75 17.5t59.5 55.5t37.5 97l254 1194h301l-265 -1239q-21 -102 -67.5 -186.5t-128 -134.5t-207.5 -50z" />
    <glyph glyph-name="uni0259" unicode="&#x259;" horiz-adv-x="1141" 
d="M426 -20q-187 0 -281 85.5t-94 219.5q0 88 39.5 159.5t119.5 123t200.5 79t283.5 27.5h51q2 12 2.5 21t0.5 20q0 91 -52 143.5t-147 52.5q-88 0 -160 -19.5t-170 -66.5v228q88 43 179 64.5t210 21.5q131 0 231 -47.5t156 -143.5t56 -241q0 -141 -40 -271t-119.5 -233
t-196 -163t-269.5 -60zM444 197q57 0 112 35t97.5 96.5t59.5 142.5h-45q-116 0 -188.5 -25t-106 -66t-33.5 -89t27.5 -71t76.5 -23z" />
    <glyph glyph-name="uni02BC" unicode="&#x2bc;" horiz-adv-x="440" 
d="M106 961q35 81 70 170t67.5 175t57.5 156h285l8 -22q-32 -71 -75 -153.5t-91 -166t-96 -159.5h-226z" />
    <glyph glyph-name="circumflex" unicode="&#x2c6;" horiz-adv-x="977" 
d="M231 1241v25q41 38 96.5 91.5t109.5 110t89 101.5h338q21 -48 51.5 -103t64 -107.5t60.5 -92.5v-25h-198q-23 21 -52 49t-57.5 59.5t-52.5 59.5q-60 -49 -116 -89.5t-115 -78.5h-218z" />
    <glyph glyph-name="caron" unicode="&#x2c7;" horiz-adv-x="979" 
d="M473 1241q-20 48 -51 103t-64 107.5t-61 92.5v25h199q24 -20 52 -48.5t57 -59.5t52 -60q60 49 116 89.5t116 78.5h217v-25q-41 -38 -96.5 -92t-109 -110t-89.5 -101h-338z" />
    <glyph glyph-name="macron" unicode="&#x2c9;" horiz-adv-x="782" 
d="M227 1241l45 211h619l-45 -211h-619z" />
    <glyph glyph-name="breve" unicode="&#x2d8;" horiz-adv-x="877" 
d="M616 1241q-119 0 -190 40t-102 102.5t-31 129.5q0 22 1.5 37.5t4.5 28.5h174q0 -43 16 -70.5t50.5 -41t87.5 -13.5q78 0 128 27.5t66 97.5h189q-26 -161 -121.5 -249.5t-272.5 -88.5z" />
    <glyph glyph-name="dotaccent" unicode="&#x2d9;" horiz-adv-x="496" 
d="M414 1257q-64 0 -108 28t-44 95q0 86 48.5 131t133.5 45q40 0 74 -11t55 -37.5t21 -71.5q0 -80 -44 -129.5t-136 -49.5z" />
    <glyph glyph-name="ring" unicode="&#x2da;" horiz-adv-x="678" 
d="M530 1239q-110 0 -178.5 63.5t-68.5 174.5q0 110 68.5 173.5t178.5 63.5q107 0 180.5 -63t73.5 -172q0 -112 -73 -176t-181 -64zM530 1380q42 0 69.5 26t27.5 71q0 44 -27.5 70t-69.5 26q-41 0 -68.5 -26t-27.5 -70q0 -45 24.5 -71t71.5 -26z" />
    <glyph glyph-name="ogonek" unicode="&#x2db;" horiz-adv-x="590" 
d="M127 -492q-103 0 -162 53.5t-59 141.5q0 67 27.5 119t76 95t111.5 83h198q-48 -39 -91.5 -78t-71 -81.5t-27.5 -90.5q0 -28 16 -43.5t43 -15.5q28 0 52.5 5.5t50.5 12.5v-176q-37 -10 -75.5 -17.5t-88.5 -7.5z" />
    <glyph glyph-name="tilde" unicode="&#x2dc;" horiz-adv-x="936" 
d="M227 1239q21 108 60.5 176t95.5 100.5t125 32.5q49 0 88 -15.5t71 -36.5t61.5 -36.5t59.5 -15.5q35 0 59 25.5t46 80.5h172q-23 -109 -63.5 -177.5t-96.5 -100t-127 -31.5q-49 0 -87 16t-69.5 36.5t-61 36.5t-62.5 16q-31 0 -56 -28t-39 -79h-176z" />
    <glyph glyph-name="hungarumlaut" unicode="&#x2dd;" horiz-adv-x="1036" 
d="M629 1241v25q34 38 75.5 90.5t83 108.5t72.5 104h305v-17q-22 -27 -65.5 -68.5t-96.5 -87t-105 -86.5t-91 -69h-178zM231 1241v25q34 38 76 90.5t83 108.5t73 104h305v-17q-22 -27 -65.5 -68.5t-96.5 -87t-105 -86.5t-91 -69h-179z" />
    <glyph glyph-name="uni02F3" unicode="&#x2f3;" horiz-adv-x="682" 
d="M145 -600q-110 0 -178.5 63.5t-68.5 174.5q0 110 68.5 173.5t178.5 63.5q107 0 180.5 -63t73.5 -172q0 -112 -73 -176t-181 -64zM145 -459q42 0 69.5 26t27.5 71q0 44 -27.5 70t-69.5 26q-41 0 -68.5 -26t-27.5 -70q0 -45 24.5 -71t71.5 -26z" />
    <glyph glyph-name="gravecomb" unicode="&#x300;" 
d="M-589 1241q-42 41 -89 94.5t-88 109.5t-65 103v21h311q12 -46 29 -97t39 -103.5t47 -102.5v-25h-184z" />
    <glyph glyph-name="acutecomb" unicode="&#x301;" 
d="M-545 1241v25q34 38 73.5 90.5t78 108.5t70.5 104h335v-17q-22 -27 -64 -68.5t-93 -87t-101.5 -86.5t-89.5 -69h-209z" />
    <glyph glyph-name="uni0302" unicode="&#x302;" 
d="M-269 1241v25q41 38 96.5 91.5t109.5 110t89 101.5h338q21 -48 51.5 -103t64 -107.5t60.5 -92.5v-25h-198q-23 21 -52 49t-57.5 59.5t-52.5 59.5q-60 -49 -116 -89.5t-115 -78.5h-218z" />
    <glyph glyph-name="tildecomb" unicode="&#x303;" 
d="M-897 1239q21 108 60.5 176t95.5 100.5t125 32.5q49 0 88 -15.5t71 -36.5t61.5 -36.5t59.5 -15.5q35 0 59 25.5t46 80.5h172q-23 -109 -63.5 -177.5t-96.5 -100t-127 -31.5q-49 0 -87 16t-69.5 36.5t-61 36.5t-62.5 16q-31 0 -56 -28t-39 -79h-176z" />
    <glyph glyph-name="uni0304" unicode="&#x304;" 
d="M-176 1241l45 211h619l-45 -211h-619z" />
    <glyph glyph-name="uni0306" unicode="&#x306;" 
d="M163 1241q-119 0 -190 40t-102 102.5t-31 129.5q0 22 1.5 37.5t4.5 28.5h174q0 -43 16 -70.5t50.5 -41t87.5 -13.5q78 0 128 27.5t66 97.5h189q-26 -161 -121.5 -249.5t-272.5 -88.5z" />
    <glyph glyph-name="uni0307" unicode="&#x307;" 
d="M154 1257q-64 0 -108 28t-44 95q0 86 48.5 131t133.5 45q40 0 74 -11t55 -37.5t21 -71.5q0 -80 -44 -129.5t-136 -49.5z" />
    <glyph glyph-name="uni0308" unicode="&#x308;" 
d="M357 1272q-55 0 -91 24.5t-36 85.5q0 77 39.5 117.5t111.5 40.5q51 0 88 -23.5t37 -84.5q0 -73 -36 -116.5t-113 -43.5zM-26 1272q-55 0 -91 24.5t-36 85.5q0 77 39.5 117.5t111.5 40.5q34 0 62.5 -10t45.5 -33.5t17 -64.5q0 -73 -36 -116.5t-113 -43.5z" />
    <glyph glyph-name="hookabovecomb" unicode="&#x309;" 
d="M-573 1219l14 147q31 6 64 16.5t56 32.5t23 64q0 24 -16 38.5t-47 14.5q-35 0 -62.5 -5.5t-62.5 -15.5v164q32 11 79 18t95 7q122 0 189 -47.5t67 -136.5q0 -92 -55.5 -146t-141.5 -80l-20 -71h-182z" />
    <glyph glyph-name="uni030A" unicode="&#x30a;" 
d="M165 1239q-110 0 -178.5 63.5t-68.5 174.5q0 110 68.5 173.5t178.5 63.5q107 0 180.5 -63t73.5 -172q0 -112 -73 -176t-181 -64zM165 1380q42 0 69.5 26t27.5 71q0 44 -27.5 70t-69.5 26q-41 0 -68.5 -26t-27.5 -70q0 -45 24.5 -71t71.5 -26z" />
    <glyph glyph-name="uni030B" unicode="&#x30b;" 
d="M172 1241v25q34 38 75.5 90.5t83 108.5t72.5 104h305v-17q-22 -27 -65.5 -68.5t-96.5 -87t-105 -86.5t-91 -69h-178zM-226 1241v25q34 38 76 90.5t83 108.5t73 104h305v-17q-22 -27 -65.5 -68.5t-96.5 -87t-105 -86.5t-91 -69h-179z" />
    <glyph glyph-name="uni030C" unicode="&#x30c;" 
d="M-12 1241q-20 48 -51 103t-64 107.5t-61 92.5v25h199q24 -20 52 -48.5t57 -59.5t52 -60q60 49 116 89.5t116 78.5h217v-25q-41 -38 -96.5 -92t-109 -110t-89.5 -101h-338z" />
    <glyph glyph-name="uni030F" unicode="&#x30f;" 
d="M-305 1241q-42 41 -89 94.5t-88 109.5t-65 103v21h283q11 -46 28 -97t39 -103.5t47 -102.5v-25h-155zM-686 1241q-42 41 -89 94.5t-88 109.5t-65 103v21h283q11 -46 28 -97t39 -103.5t48 -102.5v-25h-156z" />
    <glyph glyph-name="uni0312" unicode="&#x312;" 
d="M-92 961l-8 22q32 71 74.5 153t91 166.5t96.5 159.5h225q-26 -61 -52.5 -126.5t-51.5 -131.5t-48 -128t-42 -115h-285z" />
    <glyph glyph-name="dotbelowcomb" unicode="&#x323;" 
d="M-774 -430q-64 0 -108 28t-44 95q0 86 48.5 131t134.5 45q40 0 73.5 -11.5t54.5 -38t21 -71.5q0 -79 -44 -128.5t-136 -49.5z" />
    <glyph glyph-name="uni0326" unicode="&#x326;" 
d="M123 -453v27q20 40 43.5 93.5t45.5 108.5t36 99h282v-20q-25 -45 -60.5 -97.5t-78.5 -106t-88 -104.5h-180z" />
    <glyph glyph-name="uni0327" unicode="&#x327;" 
d="M-213 -492q-48 0 -88.5 8t-63.5 15v168q22 -7 56 -15t69 -8q34 0 56.5 9.5t34 28t11.5 44.5q0 34 -31 56.5t-110 31.5l96 154h185l-39 -72q59 -19 100 -61t41 -117q0 -68 -33 -123t-102.5 -87t-181.5 -32z" />
    <glyph glyph-name="uni0328" unicode="&#x328;" 
d="M-139 -492q-103 0 -162 53.5t-59 141.5q0 67 27.5 119t76 95t111.5 83h198q-48 -39 -91.5 -78t-71 -81.5t-27.5 -90.5q0 -28 16 -43.5t43 -15.5q28 0 52.5 5.5t50.5 12.5v-176q-37 -10 -75.5 -17.5t-88.5 -7.5z" />
    <glyph glyph-name="tonos" unicode="&#x384;" horiz-adv-x="1135" 
d="M565 1241v31q18 36 38.5 81.5t41 94.5t38.5 96t32 86h284v-24q-24 -40 -52.5 -84t-60.5 -90.5t-67 -94.5t-74 -96h-180z" />
    <glyph glyph-name="dieresistonos" unicode="&#x385;" horiz-adv-x="1135" 
d="M645 1389v26q20 40 42 93.5t42.5 108.5t34.5 99h260v-20q-28 -45 -65.5 -96t-81 -104.5t-91.5 -106.5h-141zM463 1272q-51 0 -86 24.5t-35 85.5q0 77 39 117.5t106 40.5q48 0 84.5 -23.5t36.5 -84.5q0 -73 -35.5 -116.5t-109.5 -43.5zM1014 1272q-51 0 -86 24.5t-35 85.5
q0 77 39 117.5t106 40.5q48 0 84.5 -23.5t36.5 -84.5q0 -73 -35.5 -116.5t-109.5 -43.5z" />
    <glyph glyph-name="Alphatonos" unicode="&#x386;" horiz-adv-x="1309" 
d="M-100 0l766 1462h373l147 -1462h-297l-24 348h-473l-172 -348h-320zM517 608h333l-26 377q-4 60 -8 121t-2 125h-5q-19 -55 -44 -110t-56 -117zM76 1073v31q18 36 38.5 81.5t41 94.5t38.5 96t32 86h284v-24q-24 -40 -52.5 -84t-60.5 -90.5t-67 -94.5t-74 -96h-180z" />
    <glyph glyph-name="anoteleia" unicode="&#x387;" horiz-adv-x="584" 
d="M362 796q-85 0 -120 44t-35 98q0 74 46 136t158 62q68 0 109 -38t41 -107q0 -85 -54 -140t-145 -55z" />
    <glyph glyph-name="Epsilontonos" unicode="&#x388;" horiz-adv-x="1335" 
d="M278 0l309 1462h818l-54 -254h-512l-67 -321h477l-55 -254h-477l-80 -377h512l-54 -256h-817zM73 1071v31q18 36 38.5 81.5t41 94.5t38.5 96t32 86h284v-24q-24 -40 -52.5 -84t-60.5 -90.5t-67 -94.5t-74 -96h-180z" />
    <glyph glyph-name="Etatonos" unicode="&#x389;" horiz-adv-x="1663" 
d="M282 0l309 1462h306l-121 -573h471l121 573h305l-309 -1462h-306l134 631h-471l-134 -631h-305zM73 1071v31q18 36 38.5 81.5t41 94.5t38.5 96t32 86h284v-24q-24 -40 -52.5 -84t-60.5 -90.5t-67 -94.5t-74 -96h-180z" />
    <glyph glyph-name="Iotatonos" unicode="&#x38a;" horiz-adv-x="895" 
d="M291 0l311 1462h306l-312 -1462h-305zM73 1071v31q18 36 38.5 81.5t41 94.5t38.5 96t32 86h284v-24q-24 -40 -52.5 -84t-60.5 -90.5t-67 -94.5t-74 -96h-180z" />
    <glyph glyph-name="Omicrontonos" unicode="&#x38c;" horiz-adv-x="1667" 
d="M838 -20q-178 0 -298.5 69t-182.5 194.5t-62 293.5q0 114 20.5 228t62 220t105 197t149.5 159t195 106t242 38q266 0 400.5 -149.5t134.5 -397.5q0 -119 -19.5 -236t-60 -224t-103 -197.5t-147.5 -158t-193.5 -105t-242.5 -37.5zM860 240q60 0 115 22t103 63.5t87.5 102
t67.5 137t43.5 168.5t15.5 197q0 135 -62.5 216t-185.5 81q-63 0 -120.5 -25t-106 -71t-87.5 -109t-67 -140t-42.5 -164t-14.5 -181q0 -97 30 -163.5t87 -100t137 -33.5zM73 1071v31q18 36 38.5 81.5t41 94.5t38.5 96t32 86h284v-24q-24 -40 -52.5 -84t-60.5 -90.5
t-67 -94.5t-74 -96h-180z" />
    <glyph glyph-name="Upsilontonos" unicode="&#x38e;" horiz-adv-x="1466" 
d="M614 0l119 559l-236 903h312l129 -592l374 592h342l-618 -903l-119 -559h-303zM18 1071v31q18 36 38.5 81.5t41 94.5t38.5 96t32 86h284v-24q-24 -40 -52.5 -84t-60.5 -90.5t-67 -94.5t-74 -96h-180z" />
    <glyph glyph-name="Omegatonos" unicode="&#x38f;" horiz-adv-x="1720" 
d="M73 1071v31q18 36 38.5 81.5t41 94.5t38.5 96t32 86h284v-24q-24 -40 -52.5 -84t-60.5 -90.5t-67 -94.5t-74 -96h-180zM166 0l53 260h363q-57 36 -110 102t-86.5 162t-33.5 221q0 92 22.5 194t74 199t136.5 175.5t209.5 125t293.5 46.5q192 0 321 -70.5t194.5 -190
t65.5 -268.5q0 -156 -39 -272t-102 -198.5t-136 -137.5t-141 -88h365l-55 -260h-629l59 276q97 52 166.5 118.5t114 146t65.5 170t21 190.5q0 106 -33 178.5t-96.5 110t-157.5 37.5q-93 0 -161.5 -32.5t-116.5 -88t-77.5 -127t-42.5 -150.5t-13 -157q0 -132 35 -227.5
t110 -168.5l-59 -276h-580z" />
    <glyph glyph-name="iotadieresistonos" unicode="&#x390;" horiz-adv-x="752" 
d="M387 -20q-132 0 -211.5 56t-79.5 202q0 24 4.5 58.5t18.5 98.5l153 723h301l-155 -741q-6 -29 -9 -49.5t-3 -32.5q0 -37 23 -54.5t63 -17.5q41 0 78 9.5t83 25.5v-225q-47 -23 -115 -38t-151 -15zM385 1389v26q20 40 42 93.5t42.5 108.5t34.5 99h260v-20
q-28 -45 -65.5 -96t-81 -104.5t-91.5 -106.5h-141zM203 1272q-51 0 -86 24.5t-35 85.5q0 77 39 117.5t106 40.5q48 0 84.5 -23.5t36.5 -84.5q0 -73 -35.5 -116.5t-109.5 -43.5zM754 1272q-51 0 -86 24.5t-35 85.5q0 77 39 117.5t106 40.5q48 0 84.5 -23.5t36.5 -84.5
q0 -73 -35.5 -116.5t-109.5 -43.5z" />
    <glyph glyph-name="Alpha" unicode="&#x391;" horiz-adv-x="1286" 
d="M-123 0l766 1462h373l147 -1462h-297l-24 348h-473l-172 -348h-320zM494 608h333l-26 377q-4 60 -8 121t-2 125h-5q-19 -55 -44 -110t-56 -117z" />
    <glyph glyph-name="Beta" unicode="&#x392;" horiz-adv-x="1270" 
d="M53 0l309 1462h426q140 0 244 -32.5t161.5 -104t57.5 -188.5q0 -99 -37.5 -175.5t-108.5 -127t-173 -72.5v-8q100 -26 159.5 -96.5t59.5 -180.5q0 -166 -76 -271.5t-206.5 -155.5t-293.5 -50h-522zM412 256h180q75 0 131 25t87.5 74t31.5 120q0 77 -45.5 119.5
t-137.5 42.5h-165zM545 883h149q73 0 127.5 19.5t84.5 61t30 107.5q0 68 -42 102.5t-128 34.5h-152z" />
    <glyph glyph-name="Gamma" unicode="&#x393;" horiz-adv-x="1030" 
d="M53 0l309 1462h814l-54 -254h-512l-256 -1208h-301z" />
    <glyph glyph-name="uni0394" unicode="&#x394;" horiz-adv-x="1239" 
d="M-53 0l35 180l647 1288h352l141 -1294l-39 -174h-1136zM319 258h517l-76 758q-1 12 -2 30t-2.5 39.5t-2.5 44.5t-1 44q-7 -25 -17 -50.5t-20.5 -48.5t-20.5 -43z" />
    <glyph glyph-name="Epsilon" unicode="&#x395;" horiz-adv-x="1110" 
d="M53 0l309 1462h818l-54 -254h-512l-67 -321h477l-55 -254h-477l-80 -377h512l-54 -256h-817z" />
    <glyph glyph-name="Zeta" unicode="&#x396;" horiz-adv-x="1098" 
d="M-61 0l38 201l777 1005h-543l53 256h936l-41 -202l-782 -1004h596l-53 -256h-981z" />
    <glyph glyph-name="Eta" unicode="&#x397;" horiz-adv-x="1434" 
d="M53 0l309 1462h306l-121 -573h471l121 573h305l-309 -1462h-306l134 631h-471l-134 -631h-305z" />
    <glyph glyph-name="Theta" unicode="&#x398;" horiz-adv-x="1520" 
d="M692 -20q-180 0 -307 70t-194.5 199t-67.5 306q0 120 21.5 235.5t64.5 219.5t107.5 190.5t151.5 150.5t195.5 99t239.5 35q269 0 411 -156.5t142 -425.5q0 -124 -21 -240.5t-62.5 -219.5t-105 -188t-148 -146.5t-191.5 -95t-236 -33.5zM705 240q75 0 137 25t111 70.5
t85 108t60 138.5t35.5 161t11.5 175q0 137 -67 223t-193 86q-79 0 -143.5 -28t-114.5 -77.5t-86.5 -115.5t-60 -142t-35 -157t-11.5 -160q0 -91 31.5 -160t92.5 -108t147 -39zM543 616l53 254h444l-53 -254h-444z" />
    <glyph glyph-name="Iota" unicode="&#x399;" horiz-adv-x="655" 
d="M51 0l311 1462h306l-312 -1462h-305z" />
    <glyph glyph-name="Kappa" unicode="&#x39a;" horiz-adv-x="1255" 
d="M53 0l309 1462h306l-154 -706l156 209l413 497h361l-594 -700l291 -762h-338l-211 592l-125 -70l-109 -522h-305z" />
    <glyph glyph-name="Lambda" unicode="&#x39b;" horiz-adv-x="1229" 
d="M-123 0l748 1468h342l139 -1468h-295l-59 836q-5 63 -7.5 159t-1.5 179q-22 -79 -58.5 -163t-59.5 -130l-428 -881h-320z" />
    <glyph glyph-name="Mu" unicode="&#x39c;" horiz-adv-x="1802" 
d="M53 0l309 1462h404l65 -1093h9l549 1093h423l-309 -1462h-280l145 692q15 69 34 148t39 156t36 137h-9l-569 -1133h-281l-61 1133h-8q-5 -44 -17 -119t-27.5 -162.5t-33.5 -171.5l-143 -680h-275z" />
    <glyph glyph-name="Nu" unicode="&#x39d;" horiz-adv-x="1546" 
d="M53 0l309 1462h357l340 -1077h8q7 43 18 111.5t24.5 142t25.5 131.5l147 692h274l-309 -1462h-342l-356 1106h-10q-1 -12 -7.5 -58t-16 -110.5t-20.5 -131t-22 -118.5l-145 -688h-275z" />
    <glyph glyph-name="Xi" unicode="&#x39e;" horiz-adv-x="1067" 
d="M-43 0l51 256h903l-53 -256h-901zM207 633l55 254h668l-56 -254h-667zM252 1208l53 254h823l-53 -254h-823z" />
    <glyph glyph-name="Omicron" unicode="&#x39f;" horiz-adv-x="1495" 
d="M666 -20q-178 0 -298.5 69t-182.5 194.5t-62 293.5q0 114 20.5 228t62 220t105 197t149.5 159t195 106t242 38q266 0 400.5 -149.5t134.5 -397.5q0 -119 -19.5 -236t-60 -224t-103 -197.5t-147.5 -158t-193.5 -105t-242.5 -37.5zM688 240q60 0 115 22t103 63.5t87.5 102
t67.5 137t43.5 168.5t15.5 197q0 135 -62.5 216t-185.5 81q-63 0 -120.5 -25t-106 -71t-87.5 -109t-67 -140t-42.5 -164t-14.5 -181q0 -97 30 -163.5t87 -100t137 -33.5z" />
    <glyph glyph-name="Pi" unicode="&#x3a0;" horiz-adv-x="1423" 
d="M53 0l309 1462h1072l-310 -1462h-305l256 1204h-461l-256 -1204h-305z" />
    <glyph glyph-name="Rho" unicode="&#x3a1;" horiz-adv-x="1249" 
d="M53 0l309 1462h408q178 0 285.5 -53.5t156 -149.5t48.5 -223q0 -130 -48 -227t-134.5 -161.5t-202.5 -96t-252 -31.5h-156l-109 -520h-305zM522 774h125q91 0 159.5 30t107 87t38.5 137q0 92 -48.5 136t-145.5 44h-144z" />
    <glyph glyph-name="Sigma" unicode="&#x3a3;" horiz-adv-x="1112" 
d="M-43 0l49 242l543 506l-322 481l49 233h906l-54 -254h-559l318 -481l-500 -471h596l-53 -256h-973z" />
    <glyph glyph-name="Tau" unicode="&#x3a4;" horiz-adv-x="1087" 
d="M266 0l254 1204h-352l55 258h1010l-55 -258h-353l-254 -1204h-305z" />
    <glyph glyph-name="Upsilon" unicode="&#x3a5;" horiz-adv-x="1155" 
d="M303 0l119 559l-236 903h312l129 -592l374 592h342l-618 -903l-119 -559h-303z" />
    <glyph glyph-name="Phi" unicode="&#x3a6;" horiz-adv-x="1671" 
d="M557 -20l49 223q-182 14 -287.5 86.5t-150.5 179t-45 221.5q0 154 53.5 267t150 187.5t227.5 113.5t286 45l37 180h284l-37 -180q173 -14 279.5 -82.5t155.5 -172.5t49 -227q0 -143 -48 -256t-140 -192.5t-225 -122.5t-304 -45l-49 -225h-285zM657 444l131 617
q-81 -5 -147.5 -31.5t-114 -73.5t-73 -114t-25.5 -154q0 -68 24 -122.5t75 -86.5t130 -35zM942 444q87 6 154 34t113.5 76.5t70 115.5t23.5 151q0 67 -24.5 120.5t-75.5 85.5t-130 34z" />
    <glyph glyph-name="Chi" unicode="&#x3a7;" horiz-adv-x="1241" 
d="M-117 0l576 764l-238 698h320l153 -518l363 518h344l-545 -725l268 -737h-331l-172 543l-396 -543h-342z" />
    <glyph glyph-name="Psi" unicode="&#x3a8;" horiz-adv-x="1671" 
d="M569 0l95 434h-15q-167 0 -271 54t-152 143t-48 194q0 32 4.5 81.5t18.5 115.5l94 440h295l-101 -479q-6 -29 -10 -59t-4 -58q0 -65 24.5 -105t74.5 -57.5t124 -17.5h17l164 776h284l-164 -776h17q84 0 149.5 24t111.5 87.5t71 181.5l102 483h297l-111 -518
q-25 -117 -76 -211.5t-132 -161t-195.5 -102t-265.5 -35.5h-21l-92 -434h-285z" />
    <glyph glyph-name="uni03A9" unicode="&#x3a9;" horiz-adv-x="1513" 
d="M-41 0l53 260h363q-57 36 -110 102t-86.5 162t-33.5 221q0 92 22.5 194t74 199t136.5 175.5t209.5 125t293.5 46.5q192 0 321 -70.5t194.5 -190t65.5 -268.5q0 -156 -39 -272t-102 -198.5t-136 -137.5t-141 -88h365l-55 -260h-629l59 276q97 52 166.5 118.5t114 146
t65.5 170t21 190.5q0 106 -33 178.5t-96.5 110t-157.5 37.5q-93 0 -161.5 -32.5t-116.5 -88t-77.5 -127t-42.5 -150.5t-13 -157q0 -132 35 -227.5t110 -168.5l-59 -276h-580z" />
    <glyph glyph-name="Iotadieresis" unicode="&#x3aa;" horiz-adv-x="655" 
d="M51 0l311 1462h306l-312 -1462h-305zM736 1616q-55 0 -91 24.5t-36 85.5q0 77 39.5 117.5t111.5 40.5q51 0 88 -23.5t37 -84.5q0 -73 -36 -116.5t-113 -43.5zM353 1616q-55 0 -91 24.5t-36 85.5q0 77 39.5 117.5t111.5 40.5q34 0 62.5 -10t45.5 -33.5t17 -64.5
q0 -73 -36 -116.5t-113 -43.5z" />
    <glyph glyph-name="Upsilondieresis" unicode="&#x3ab;" horiz-adv-x="1155" 
d="M303 0l119 559l-236 903h312l129 -592l374 592h342l-618 -903l-119 -559h-303zM979 1616q-55 0 -91 24.5t-36 85.5q0 77 39.5 117.5t111.5 40.5q51 0 88 -23.5t37 -84.5q0 -73 -36 -116.5t-113 -43.5zM596 1616q-55 0 -91 24.5t-36 85.5q0 77 39.5 117.5t111.5 40.5
q34 0 62.5 -10t45.5 -33.5t17 -64.5q0 -73 -36 -116.5t-113 -43.5z" />
    <glyph glyph-name="alphatonos" unicode="&#x3ac;" horiz-adv-x="1241" 
d="M395 -20q-132 0 -218.5 98t-86.5 307q0 129 24.5 243t71 208t111 161.5t145.5 104.5t174 37q108 0 166.5 -49t98.5 -123h8q11 23 27 51t34.5 55t36.5 45h254q-23 -44 -54 -113.5t-60.5 -154.5t-49.5 -176l-67 -320q-3 -15 -4.5 -28t-1.5 -25q0 -34 16.5 -49.5t44.5 -15.5
q15 0 34 4t31 8v-238q-22 -10 -65.5 -20t-99.5 -10q-62 0 -111.5 16.5t-83 53t-49.5 95.5h-8q-37 -44 -79.5 -81.5t-100 -60.5t-138.5 -23zM528 223q56 0 98 33.5t73 92t51 132.5q15 54 26.5 119t11.5 119q0 80 -32 128t-97 48q-47 0 -87.5 -28.5t-73 -77t-55.5 -110.5
t-35.5 -130.5t-12.5 -134.5q0 -98 33 -144.5t100 -46.5zM633 1241v31q18 36 38.5 81.5t41 94.5t38.5 96t32 86h284v-24q-24 -40 -52.5 -84t-60.5 -90.5t-67 -94.5t-74 -96h-180z" />
    <glyph glyph-name="epsilontonos" unicode="&#x3ad;" horiz-adv-x="1051" 
d="M483 -20q-132 0 -232 33.5t-156 99t-56 161.5t41 158.5t115 99t172 52.5v8q-68 26 -117 80.5t-49 134.5q0 122 66 195t172.5 105t228.5 32q129 0 228 -22.5t175 -63.5l-92 -222q-72 36 -143 59t-160 23q-86 0 -143.5 -29t-57.5 -96q0 -52 48.5 -76t148.5 -24h135
l-45 -211h-148q-77 0 -135.5 -16.5t-90.5 -49t-32 -79.5q0 -55 45.5 -86t130.5 -31q119 0 202.5 27.5t150.5 62.5v-246q-74 -37 -171 -58t-231 -21zM579 1241v31q18 36 38.5 81.5t41 94.5t38.5 96t32 86h284v-24q-24 -40 -52.5 -84t-60.5 -90.5t-67 -94.5t-74 -96h-180z" />
    <glyph glyph-name="etatonos" unicode="&#x3ae;" horiz-adv-x="1237" 
d="M571 -492l242 1145q8 34 12 64t4 55q0 63 -27 93t-81 30q-68 0 -123 -58.5t-95.5 -156.5t-66.5 -217l-98 -463h-301l237 1118h228l-21 -207h8q43 67 95.5 118t117 80.5t142.5 29.5q96 0 160.5 -39.5t96.5 -111.5t32 -171q0 -37 -6 -83t-17 -97l-238 -1129h-301zM643 1241
v31q18 36 38.5 81.5t41 94.5t38.5 96t32 86h284v-24q-24 -40 -52.5 -84t-60.5 -90.5t-67 -94.5t-74 -96h-180z" />
    <glyph glyph-name="iotatonos" unicode="&#x3af;" horiz-adv-x="752" 
d="M387 -20q-132 0 -211.5 56t-79.5 202q0 24 4.5 58.5t18.5 98.5l153 723h301l-155 -741q-6 -29 -9 -49.5t-3 -32.5q0 -37 23 -54.5t63 -17.5q41 0 78 9.5t83 25.5v-225q-47 -23 -115 -38t-151 -15zM334 1241v31q18 36 38.5 81.5t41 94.5t38.5 96t32 86h284v-24
q-24 -40 -52.5 -84t-60.5 -90.5t-67 -94.5t-74 -96h-180z" />
    <glyph glyph-name="upsilondieresistonos" unicode="&#x3b0;" horiz-adv-x="1262" 
d="M532 -20q-214 0 -313.5 105t-99.5 275q0 36 4.5 73t11.5 77l129 608h299l-129 -616q-7 -35 -10.5 -65t-3.5 -56q0 -79 36 -117.5t105 -38.5q46 0 86.5 20.5t74.5 64t61.5 113.5t47 169t29.5 229.5t10 296.5h301q0 -153 -11.5 -313t-47 -307.5t-105.5 -264t-186 -185
t-289 -68.5zM678 1389v26q20 40 42 93.5t42.5 108.5t34.5 99h260v-20q-28 -45 -65.5 -96t-81 -104.5t-91.5 -106.5h-141zM496 1272q-51 0 -86 24.5t-35 85.5q0 77 39 117.5t106 40.5q48 0 84.5 -23.5t36.5 -84.5q0 -73 -35.5 -116.5t-109.5 -43.5zM1047 1272q-51 0 -86 24.5
t-35 85.5q0 77 39 117.5t106 40.5q48 0 84.5 -23.5t36.5 -84.5q0 -73 -35.5 -116.5t-109.5 -43.5z" />
    <glyph glyph-name="alpha" unicode="&#x3b1;" horiz-adv-x="1241" 
d="M395 -20q-132 0 -218.5 98t-86.5 307q0 129 24.5 243t71 208t111 161.5t145.5 104.5t174 37q108 0 166.5 -49t98.5 -123h8q11 23 27 51t34.5 55t36.5 45h254q-23 -44 -54 -113.5t-60.5 -154.5t-49.5 -176l-67 -320q-3 -15 -4.5 -28t-1.5 -25q0 -34 16.5 -49.5t44.5 -15.5
q15 0 34 4t31 8v-238q-22 -10 -65.5 -20t-99.5 -10q-62 0 -111.5 16.5t-83 53t-49.5 95.5h-8q-37 -44 -79.5 -81.5t-100 -60.5t-138.5 -23zM528 223q56 0 98 33.5t73 92t51 132.5q15 54 26.5 119t11.5 119q0 80 -32 128t-97 48q-47 0 -87.5 -28.5t-73 -77t-55.5 -110.5
t-35.5 -130.5t-12.5 -134.5q0 -98 33 -144.5t100 -46.5z" />
    <glyph glyph-name="beta" unicode="&#x3b2;" horiz-adv-x="1270" 
d="M-66 -492l345 1635q30 141 93.5 235t169.5 141.5t261 47.5q137 0 232.5 -42.5t145.5 -120.5t50 -187q0 -117 -41.5 -200t-120 -133t-190.5 -69q121 -22 194.5 -106.5t73.5 -221.5q0 -71 -22 -158t-77 -166.5t-153.5 -131t-251.5 -51.5q-109 0 -178 25.5t-113 49.5
l-114 -547h-304zM586 223q62 0 107.5 21.5t75.5 60t45 88.5t15 107q0 98 -56 141t-148 43h-47l51 242h59q53 0 96 16.5t74 49.5t47.5 81.5t16.5 112.5q0 68 -37 105.5t-99 37.5q-48 0 -88 -21.5t-71 -74.5t-52 -148l-174 -800q29 -29 84 -45.5t101 -16.5z" />
    <glyph glyph-name="gamma" unicode="&#x3b3;" horiz-adv-x="1049" 
d="M59 -492q17 84 42.5 168t60.5 168.5t80 169.5l-140 1104h295l39 -500q3 -40 4.5 -80.5t2.5 -80.5t1 -79v-75h9q26 72 65.5 157.5t77.5 162.5l248 495h323l-551 -1012q-65 -119 -110.5 -220.5t-75 -193.5t-49.5 -184h-322z" />
    <glyph glyph-name="delta" unicode="&#x3b4;" horiz-adv-x="1204" 
d="M494 -20q-156 0 -252.5 56t-141.5 146t-45 191q0 145 60 256t167 186t248 111q-66 55 -108.5 127t-42.5 157q0 120 59.5 199.5t160 118.5t224.5 39q128 0 225 -30t183 -83l-119 -215q-73 48 -143.5 75t-143.5 27q-58 0 -102.5 -28.5t-44.5 -91.5q0 -37 15.5 -65.5t53 -62
t101.5 -85.5q72 -57 124 -125t80.5 -145.5t28.5 -166.5q0 -135 -40 -244t-115.5 -186.5t-184.5 -119t-247 -41.5zM528 225q53 0 96 26t74.5 72t48.5 107.5t17 132.5q0 74 -27.5 132.5t-74.5 95.5q-61 -21 -114 -58.5t-92 -88.5t-61 -112t-22 -129q0 -84 38.5 -131t116.5 -47
z" />
    <glyph glyph-name="epsilon" unicode="&#x3b5;" horiz-adv-x="1051" 
d="M483 -20q-132 0 -232 33.5t-156 99t-56 161.5t41 158.5t115 99t172 52.5v8q-68 26 -117 80.5t-49 134.5q0 122 66 195t172.5 105t228.5 32q129 0 228 -22.5t175 -63.5l-92 -222q-72 36 -143 59t-160 23q-86 0 -143.5 -29t-57.5 -96q0 -52 48.5 -76t148.5 -24h135
l-45 -211h-148q-77 0 -135.5 -16.5t-90.5 -49t-32 -79.5q0 -55 45.5 -86t130.5 -31q119 0 202.5 27.5t150.5 62.5v-246q-74 -37 -171 -58t-231 -21z" />
    <glyph glyph-name="zeta" unicode="&#x3b6;" horiz-adv-x="948" 
d="M324 -379q52 53 96.5 101.5t72 93.5t27.5 86q0 31 -24.5 57t-112.5 66q-95 43 -160.5 99.5t-99 133.5t-33.5 180q0 141 47.5 260t134 226t205 210.5t260.5 211.5q-49 -8 -100 -10.5t-80 -2.5h-238l50 223h780l-39 -182q-209 -167 -347.5 -295.5t-219 -230.5
t-114.5 -190.5t-34 -176.5q0 -58 22.5 -99t62.5 -71t93 -55q71 -33 128 -70t90.5 -90t33.5 -133q0 -66 -22 -123.5t-63.5 -110.5t-100.5 -108h-315z" />
    <glyph glyph-name="eta" unicode="&#x3b7;" horiz-adv-x="1237" 
d="M571 -492l242 1145q8 34 12 64t4 55q0 63 -27 93t-81 30q-68 0 -123 -58.5t-95.5 -156.5t-66.5 -217l-98 -463h-301l237 1118h228l-21 -207h8q43 67 95.5 118t117 80.5t142.5 29.5q96 0 160.5 -39.5t96.5 -111.5t32 -171q0 -37 -6 -83t-17 -97l-238 -1129h-301z" />
    <glyph glyph-name="theta" unicode="&#x3b8;" horiz-adv-x="1198" 
d="M492 -20q-143 0 -229.5 59t-124.5 160.5t-38 228.5q0 57 6 129t19 153t33 164q40 159 92 287t124 218.5t171.5 139t232.5 48.5q127 0 212 -52t128 -153t43 -248q0 -59 -5 -126t-16 -141.5t-30 -158.5q-33 -153 -83 -282.5t-122.5 -225t-174 -148t-238.5 -52.5zM514 201
q45 0 84 28.5t72.5 85.5t63 145t57.5 206h-365q-15 -79 -23 -147.5t-8 -133.5q0 -85 28 -134.5t91 -49.5zM475 893h361q14 77 21 142.5t7 135.5q0 79 -27 127t-83 48q-45 0 -84 -30t-73.5 -87.5t-65 -142t-56.5 -193.5z" />
    <glyph glyph-name="iota" unicode="&#x3b9;" horiz-adv-x="752" 
d="M387 -20q-132 0 -211.5 56t-79.5 202q0 24 4.5 58.5t18.5 98.5l153 723h301l-155 -741q-6 -29 -9 -49.5t-3 -32.5q0 -37 23 -54.5t63 -17.5q41 0 78 9.5t83 25.5v-225q-47 -23 -115 -38t-151 -15z" />
    <glyph glyph-name="kappa" unicode="&#x3ba;" horiz-adv-x="1163" 
d="M37 0l237 1118h301l-55 -246q-12 -53 -30 -117t-35 -118h8l457 481h344l-498 -504l285 -614h-336l-183 420l-120 -72l-74 -348h-301z" />
    <glyph glyph-name="lambda" unicode="&#x3bb;" horiz-adv-x="1171" 
d="M889 -20q-79 0 -131 30.5t-82 91t-43 150.5l-29 201q-7 53 -11 123t-7 116q-12 -24 -23.5 -52t-24.5 -58.5t-27 -61.5t-30 -61l-245 -459h-328l612 1061l-10 92q-10 94 -42 127t-91 33q-26 0 -52.5 -4t-48.5 -9l-36 246q43 11 91.5 17t100.5 6q115 0 189.5 -42.5
t116.5 -124t57 -198.5l102 -766q11 -79 25.5 -123t36.5 -61.5t53 -17.5q14 0 30 2t37 8v-234q-32 -13 -78.5 -22.5t-111.5 -9.5z" />
    <glyph glyph-name="uni03BC" unicode="&#x3bc;" horiz-adv-x="1249" 
d="M-67 -492l342 1610h301l-135 -645q-7 -35 -11.5 -67.5t-4.5 -57.5q0 -60 31.5 -92.5t79.5 -32.5q72 0 126 59t92.5 156.5t61.5 210.5l98 469h301l-237 -1118h-225l18 176h-10q-37 -62 -78.5 -106t-88 -67t-99.5 -23q-51 0 -89.5 19.5t-58.5 47.5h-10q-4 -31 -9 -69
t-11 -77t-13 -73l-67 -320h-304z" />
    <glyph glyph-name="nu" unicode="&#x3bd;" horiz-adv-x="1126" 
d="M242 0l-140 1118h295l62 -616q6 -57 8 -121t2 -109q89 106 157 228.5t119.5 274t92.5 343.5h307q-38 -212 -110.5 -405.5t-193 -371t-302.5 -341.5h-297z" />
    <glyph glyph-name="xi" unicode="&#x3be;" horiz-adv-x="948" 
d="M324 -379q52 53 95.5 101.5t70 93.5t26.5 86q0 31 -21 56t-112 67q-101 47 -165.5 103.5t-95 126t-30.5 155.5q0 118 46 198.5t128 131.5t189 79v8q-95 23 -149 80.5t-54 136.5q0 67 24.5 116.5t68.5 84.5t103 59.5t127 41.5q-70 -5 -128.5 -9t-114.5 -4h-53l49 223h753
l-45 -210h-24q-60 0 -123.5 -8t-122.5 -26t-105.5 -48.5t-74 -76t-27.5 -108.5q0 -79 59 -121.5t173 -42.5h102l-45 -210h-70q-132 0 -217 -32.5t-125.5 -87.5t-40.5 -124q0 -53 20 -88t59.5 -61.5t98.5 -55.5q70 -34 127 -71t91 -89.5t34 -132.5q0 -66 -22 -123.5
t-63.5 -110.5t-100.5 -108h-315z" />
    <glyph glyph-name="omicron" unicode="&#x3bf;" horiz-adv-x="1198" 
d="M518 -20q-126 0 -222.5 52t-151 148.5t-54.5 229.5q0 119 23.5 227.5t71 200t119 159t166.5 105t214 37.5q130 0 225 -52.5t147 -151.5t52 -239q0 -114 -22.5 -219.5t-68.5 -196t-116 -158t-165.5 -105t-217.5 -37.5zM543 225q50 0 91 25.5t73 71t53.5 105t33 128.5
t11.5 141q0 57 -13.5 101.5t-45 70t-84.5 25.5q-55 0 -98.5 -30.5t-75.5 -81.5t-53 -114t-31.5 -129.5t-10.5 -127.5q0 -91 37 -138t113 -47z" />
    <glyph glyph-name="pi" unicode="&#x3c0;" horiz-adv-x="1464" 
d="M1057 -20q-130 0 -200.5 64t-70.5 185q0 26 4.5 55.5t10.5 61.5l110 543h-274l-188 -889h-306l191 889h-240l29 147l196 82h1182l-47 -229h-240l-108 -541q-3 -15 -5.5 -30.5t-2.5 -26.5q0 -38 20 -55t56 -17q35 0 67 8.5t64 24.5v-217q-42 -23 -101 -39t-147 -16z" />
    <glyph glyph-name="rho" unicode="&#x3c1;" horiz-adv-x="1219" 
d="M-66 -492l228 1082q36 169 96 292t168 190t287 67q136 0 228.5 -54.5t139.5 -152t47 -227.5q0 -121 -22.5 -229.5t-66.5 -199t-107.5 -157t-145.5 -103t-182 -36.5q-86 0 -151.5 34.5t-106.5 89.5q-9 -78 -22.5 -155t-30.5 -160l-60 -281h-299zM561 223q54 0 96.5 34.5
t73.5 90t51.5 121t30.5 128.5t10 112q0 87 -33 136.5t-96 49.5q-58 0 -100.5 -34.5t-73 -105.5t-53.5 -180l-55 -264q24 -43 63 -65.5t86 -22.5z" />
    <glyph glyph-name="uni03C2" unicode="&#x3c2;" horiz-adv-x="948" 
d="M324 -379q52 53 95.5 101.5t70 93.5t26.5 86q0 21 -8.5 39.5t-36.5 39.5t-88 48q-91 41 -156.5 96t-101 133t-35.5 188q0 95 23.5 193t70.5 187.5t119 160t168.5 111.5t218.5 41q101 0 178.5 -20.5t141.5 -51.5l-92 -229q-52 24 -108.5 40.5t-115.5 16.5
q-56 0 -102.5 -23.5t-83 -64.5t-62 -93.5t-38.5 -110.5t-13 -116q0 -65 22.5 -107.5t62.5 -70.5t93 -53q71 -33 128 -70t90.5 -90t33.5 -133q0 -66 -22 -123.5t-63.5 -110.5t-100.5 -108h-315z" />
    <glyph glyph-name="sigma" unicode="&#x3c3;" horiz-adv-x="1266" 
d="M524 -20q-196 0 -315 115t-119 329q0 121 27 226.5t81 191.5t135 148t188.5 95t240.5 33h577l-47 -223h-284q37 -44 63.5 -123t26.5 -182q0 -53 -15.5 -130t-53 -160.5t-103 -156t-164.5 -118t-238 -45.5zM543 225q50 0 91 24.5t73 68t53.5 101t33 125t11.5 138.5
q0 66 -11.5 117.5t-29.5 95.5h-29q-89 0 -153.5 -39.5t-106.5 -106t-62 -149.5t-20 -170q0 -100 37 -152.5t113 -52.5z" />
    <glyph glyph-name="tau" unicode="&#x3c4;" horiz-adv-x="1022" 
d="M541 -20q-132 0 -211.5 56t-79.5 202q0 24 3 52.5t9 59.5l115 539h-283l29 147l190 82h748l-49 -229h-334l-115 -539q-3 -15 -4.5 -29.5t-1.5 -23.5q0 -40 24 -57t64 -17q41 0 78.5 9.5t83.5 25.5v-225q-48 -23 -115.5 -38t-150.5 -15z" />
    <glyph glyph-name="upsilon" unicode="&#x3c5;" horiz-adv-x="1262" 
d="M532 -20q-214 0 -313.5 105t-99.5 275q0 36 4.5 73t11.5 77l129 608h299l-129 -616q-7 -35 -10.5 -65t-3.5 -56q0 -79 36 -117.5t105 -38.5q46 0 86.5 20.5t74.5 64t61.5 113.5t47 169t29.5 229.5t10 296.5h301q0 -153 -11.5 -313t-47 -307.5t-105.5 -264t-186 -185
t-289 -68.5z" />
    <glyph glyph-name="phi" unicode="&#x3c6;" horiz-adv-x="1565" 
d="M397 -492l105 482q-120 17 -213 75.5t-146 158t-53 237.5q0 149 43 266.5t124 217.5t194 194l196 -170q-77 -78 -133.5 -156t-86.5 -161.5t-30 -180.5q0 -72 19.5 -123t53.5 -81t79 -42l110 516q44 197 143 297.5t283 100.5q188 0 289 -116.5t101 -313.5
q0 -127 -31 -235.5t-89.5 -196.5t-143 -152t-192 -100.5t-235.5 -42.5l-96 -474h-291zM836 227q70 11 124 45t93.5 84.5t65 112.5t38 130t12.5 136q0 79 -20.5 128.5t-73.5 49.5q-40 0 -73.5 -39.5t-55.5 -136.5z" />
    <glyph glyph-name="chi" unicode="&#x3c7;" horiz-adv-x="1130" 
d="M-260 -492l639 893l-53 334q-13 77 -34 109.5t-63 32.5q-19 0 -35.5 -3.5t-37.5 -11.5l-52 238q44 17 97 28t106 11q125 0 188.5 -71t86.5 -232l26 -183l320 465h332l-574 -774l74 -463q11 -67 37 -92t69 -25q20 0 44 3t59 12v-238q-43 -15 -89 -24t-106 -9
q-86 0 -142.5 31.5t-89.5 97.5t-48 170l-41 281l-385 -580h-328z" />
    <glyph glyph-name="psi" unicode="&#x3c8;" horiz-adv-x="1655" 
d="M449 -492l98 463q-223 22 -325.5 127t-102.5 262q0 36 4.5 73t11.5 77l129 608h299l-129 -616q-7 -35 -10.5 -65t-3.5 -56q0 -76 46 -120.5t132 -49.5l285 1343h288l-284 -1339q74 12 134 51t105.5 108t76 172.5t46 245.5t15.5 326h301q0 -172 -15.5 -333.5t-58 -301.5
t-123.5 -249t-211 -177.5t-321 -85.5l-99 -463h-288z" />
    <glyph glyph-name="omega" unicode="&#x3c9;" horiz-adv-x="1679" 
d="M438 -20q-175 0 -261.5 111.5t-86.5 289.5q0 135 33.5 263t89.5 247t123 227h303q-73 -108 -132 -232t-93.5 -251t-34.5 -246q0 -79 26.5 -125.5t86.5 -46.5q77 0 116.5 65t65.5 185l63 295h285l-64 -295q-5 -25 -9 -49t-6.5 -45.5t-2.5 -40.5q0 -54 24 -84.5t76 -30.5
q50 0 92 35.5t74 97t54 140.5t33.5 166.5t11.5 174.5q0 82 -8 151.5t-23 135.5h285q12 -50 21 -123t9 -141q0 -150 -21.5 -282.5t-64 -241t-107.5 -187t-152 -121t-197 -42.5q-81 0 -135.5 25t-88 70.5t-51.5 106.5q-55 -92 -133 -147t-201 -55z" />
    <glyph glyph-name="iotadieresis" unicode="&#x3ca;" horiz-adv-x="752" 
d="M387 -20q-132 0 -211.5 56t-79.5 202q0 24 4.5 58.5t18.5 98.5l153 723h301l-155 -741q-6 -29 -9 -49.5t-3 -32.5q0 -37 23 -54.5t63 -17.5q41 0 78 9.5t83 25.5v-225q-47 -23 -115 -38t-151 -15zM670 1272q-55 0 -91 24.5t-36 85.5q0 77 39.5 117.5t111.5 40.5
q51 0 88 -23.5t37 -84.5q0 -73 -36 -116.5t-113 -43.5zM287 1272q-55 0 -91 24.5t-36 85.5q0 77 39.5 117.5t111.5 40.5q34 0 62.5 -10t45.5 -33.5t17 -64.5q0 -73 -36 -116.5t-113 -43.5z" />
    <glyph glyph-name="upsilondieresis" unicode="&#x3cb;" horiz-adv-x="1262" 
d="M532 -20q-214 0 -313.5 105t-99.5 275q0 36 4.5 73t11.5 77l129 608h299l-129 -616q-7 -35 -10.5 -65t-3.5 -56q0 -79 36 -117.5t105 -38.5q46 0 86.5 20.5t74.5 64t61.5 113.5t47 169t29.5 229.5t10 296.5h301q0 -153 -11.5 -313t-47 -307.5t-105.5 -264t-186 -185
t-289 -68.5zM963 1272q-55 0 -91 24.5t-36 85.5q0 77 39.5 117.5t111.5 40.5q51 0 88 -23.5t37 -84.5q0 -73 -36 -116.5t-113 -43.5zM580 1272q-55 0 -91 24.5t-36 85.5q0 77 39.5 117.5t111.5 40.5q34 0 62.5 -10t45.5 -33.5t17 -64.5q0 -73 -36 -116.5t-113 -43.5z" />
    <glyph glyph-name="omicrontonos" unicode="&#x3cc;" horiz-adv-x="1198" 
d="M518 -20q-126 0 -222.5 52t-151 148.5t-54.5 229.5q0 119 23.5 227.5t71 200t119 159t166.5 105t214 37.5q130 0 225 -52.5t147 -151.5t52 -239q0 -114 -22.5 -219.5t-68.5 -196t-116 -158t-165.5 -105t-217.5 -37.5zM543 225q50 0 91 25.5t73 71t53.5 105t33 128.5
t11.5 141q0 57 -13.5 101.5t-45 70t-84.5 25.5q-55 0 -98.5 -30.5t-75.5 -81.5t-53 -114t-31.5 -129.5t-10.5 -127.5q0 -91 37 -138t113 -47zM596 1241v31q18 36 38.5 81.5t41 94.5t38.5 96t32 86h284v-24q-24 -40 -52.5 -84t-60.5 -90.5t-67 -94.5t-74 -96h-180z" />
    <glyph glyph-name="upsilontonos" unicode="&#x3cd;" horiz-adv-x="1262" 
d="M532 -20q-214 0 -313.5 105t-99.5 275q0 36 4.5 73t11.5 77l129 608h299l-129 -616q-7 -35 -10.5 -65t-3.5 -56q0 -79 36 -117.5t105 -38.5q46 0 86.5 20.5t74.5 64t61.5 113.5t47 169t29.5 229.5t10 296.5h301q0 -153 -11.5 -313t-47 -307.5t-105.5 -264t-186 -185
t-289 -68.5zM626 1241v31q18 36 38.5 81.5t41 94.5t38.5 96t32 86h284v-24q-24 -40 -52.5 -84t-60.5 -90.5t-67 -94.5t-74 -96h-180z" />
    <glyph glyph-name="omegatonos" unicode="&#x3ce;" horiz-adv-x="1679" 
d="M438 -20q-175 0 -261.5 111.5t-86.5 289.5q0 135 33.5 263t89.5 247t123 227h303q-73 -108 -132 -232t-93.5 -251t-34.5 -246q0 -79 26.5 -125.5t86.5 -46.5q77 0 116.5 65t65.5 185l63 295h285l-64 -295q-5 -25 -9 -49t-6.5 -45.5t-2.5 -40.5q0 -54 24 -84.5t76 -30.5
q50 0 92 35.5t74 97t54 140.5t33.5 166.5t11.5 174.5q0 82 -8 151.5t-23 135.5h285q12 -50 21 -123t9 -141q0 -150 -21.5 -282.5t-64 -241t-107.5 -187t-152 -121t-197 -42.5q-81 0 -135.5 25t-88 70.5t-51.5 106.5q-55 -92 -133 -147t-201 -55zM846 1241v31
q18 36 38.5 81.5t41 94.5t38.5 96t32 86h284v-24q-24 -40 -52.5 -84t-60.5 -90.5t-67 -94.5t-74 -96h-180z" />
    <glyph glyph-name="uni03D1" unicode="&#x3d1;" horiz-adv-x="1419" 
d="M592 -20q-137 0 -222 41.5t-124 107.5t-39 139q0 42 8.5 79.5t22.5 78.5q9 29 16.5 54.5t7.5 47.5q0 26 -13 42t-44 16q-20 0 -45 -8t-43 -17v215q35 14 93.5 29.5t131.5 15.5q107 0 160 -53t53 -137q0 -51 -11 -98t-24 -89q-10 -35 -18 -67t-8 -58q0 -47 29 -74.5
t95 -27.5q45 0 86.5 18.5t79.5 58t72 103t64 153t55 208.5q-184 10 -300 69.5t-170 149t-54 188.5q0 128 56.5 218t156.5 137t231 47q151 0 242.5 -66.5t133.5 -180.5t42 -259v-35.5t-2 -34.5h149l-49 -229h-133q-22 -120 -56.5 -234.5t-87 -213.5t-127 -174t-177 -117.5
t-238.5 -42.5zM1008 991q3 25 4.5 53.5t1.5 51.5q0 116 -36 178.5t-99 62.5q-44 0 -73 -20t-43.5 -56t-14.5 -83q0 -48 25 -89.5t82.5 -68t152.5 -29.5z" />
    <glyph glyph-name="uni03D2" unicode="&#x3d2;" horiz-adv-x="1178" 
d="M301 0l119 559l-236 903h312l129 -592q33 62 67 123.5t68.5 120.5t70 111.5t70.5 95.5q63 77 132 115.5t157 38.5q49 0 85.5 -6.5t76.5 -20.5l-56 -231q-10 5 -28 9.5t-41 4.5q-32 0 -61.5 -20t-61.5 -60q-26 -32 -61.5 -81t-82 -120t-105.5 -170t-134 -231l-117 -549
h-303z" />
    <glyph glyph-name="uni03D6" unicode="&#x3d6;" horiz-adv-x="1921" 
d="M553 -20q-175 0 -261.5 111.5t-86.5 289.5q0 89 20.5 179.5t57.5 175t84 153.5h-273l29 147l196 82h1641l-47 -229h-244q6 -31 11.5 -82t5.5 -117q0 -101 -21 -202.5t-63 -192.5t-105 -162t-147 -112t-189 -41q-121 0 -184.5 55t-89.5 147q-55 -92 -133 -147t-201 -55z
M606 217q52 0 86 29t56.5 85t39.5 136l31 137h285l-31 -137q-5 -25 -9 -49t-6.5 -45.5t-2.5 -40.5q0 -54 24 -84.5t76 -30.5q53 0 93.5 30t70 83.5t48 123.5t27.5 150t9 164q0 53 -2 79t-4 42h-760q-42 -82 -74 -167t-50.5 -169t-18.5 -164q0 -79 26 -125.5t86 -46.5z" />
    <glyph glyph-name="uni0400" unicode="&#x400;" horiz-adv-x="1110" 
d="M53 0l309 1462h818l-54 -254h-512l-67 -321h477l-55 -254h-477l-80 -377h512l-54 -256h-817zM766 1585q-42 41 -89 94.5t-88 109.5t-65 103v21h311q12 -46 29 -97t39 -103.5t47 -102.5v-25h-184z" />
    <glyph glyph-name="uni0401" unicode="&#x401;" horiz-adv-x="1110" 
d="M53 0l309 1462h818l-54 -254h-512l-67 -321h477l-55 -254h-477l-80 -377h512l-54 -256h-817zM983 1616q-55 0 -91 24.5t-36 85.5q0 77 39.5 117.5t111.5 40.5q51 0 88 -23.5t37 -84.5q0 -73 -36 -116.5t-113 -43.5zM600 1616q-55 0 -91 24.5t-36 85.5q0 77 39.5 117.5
t111.5 40.5q34 0 62.5 -10t45.5 -33.5t17 -64.5q0 -73 -36 -116.5t-113 -43.5z" />
    <glyph glyph-name="uni0402" unicode="&#x402;" horiz-adv-x="1520" 
d="M932 -20q-51 0 -102.5 9.5t-92.5 28.5v254q47 -22 81.5 -30.5t66.5 -8.5q44 0 76.5 14.5t55.5 50t36 97.5l14 70q5 22 8.5 45.5t3.5 48.5q0 54 -28 84.5t-105 30.5h-233l-144 -674h-305l256 1204h-352l55 258h1061l-55 -258h-404l-57 -272h242q188 0 282 -91t94 -239
q0 -29 -2 -60t-8 -65l-22 -119q-25 -134 -73.5 -217.5t-132.5 -122t-216 -38.5z" />
    <glyph glyph-name="uni0403" unicode="&#x403;" horiz-adv-x="1030" 
d="M53 0l309 1462h814l-54 -254h-512l-256 -1208h-301zM643 1585v25q34 38 73.5 90.5t78 108.5t70.5 104h335v-17q-22 -27 -64 -68.5t-93 -87t-101.5 -86.5t-89.5 -69h-209z" />
    <glyph glyph-name="uni0404" unicode="&#x404;" horiz-adv-x="1253" 
d="M659 -20q-177 0 -296 70.5t-179.5 199t-60.5 303.5q0 129 29.5 261t89.5 252.5t153 214.5t220 149t290 55q128 0 230.5 -26t199.5 -79l-118 -250q-71 41 -148.5 69t-163.5 28q-82 0 -148.5 -28.5t-119 -78.5t-90.5 -115.5t-64 -140.5h533l-53 -254h-527
q-1 -15 -1.5 -30.5t-0.5 -30.5q0 -100 30.5 -169t94 -104.5t162.5 -35.5q55 0 111.5 10t113.5 27.5t113 39.5v-260q-64 -26 -128.5 -43.5t-131.5 -25.5t-140 -8z" />
    <glyph glyph-name="uni0405" unicode="&#x405;" horiz-adv-x="1085" 
d="M397 -20q-110 0 -201.5 24t-154.5 66v274q91 -51 178.5 -79.5t179.5 -28.5q51 0 94.5 9.5t75.5 29.5t50 50t18 70q0 57 -22.5 95.5t-62 71.5t-91.5 71q-61 44 -118.5 100t-94.5 130.5t-37 174.5q0 98 35.5 179t101.5 141t158.5 92.5t206.5 32.5q113 0 209.5 -24.5
t187.5 -74.5l-109 -233q-78 37 -148.5 55.5t-139.5 18.5q-41 0 -75.5 -11.5t-60 -33t-39.5 -51.5t-14 -68q0 -52 21.5 -89t62 -68.5t97.5 -69.5q81 -53 134.5 -113.5t80 -131.5t26.5 -157q0 -115 -43 -200t-118.5 -141t-175 -83.5t-212.5 -27.5z" />
    <glyph glyph-name="uni0406" unicode="&#x406;" horiz-adv-x="655" 
d="M51 0l311 1462h306l-312 -1462h-305z" />
    <glyph glyph-name="uni0407" unicode="&#x407;" horiz-adv-x="655" 
d="M51 0l311 1462h306l-312 -1462h-305zM736 1616q-55 0 -91 24.5t-36 85.5q0 77 39.5 117.5t111.5 40.5q51 0 88 -23.5t37 -84.5q0 -73 -36 -116.5t-113 -43.5zM353 1616q-55 0 -91 24.5t-36 85.5q0 77 39.5 117.5t111.5 40.5q34 0 62.5 -10t45.5 -33.5t17 -64.5
q0 -73 -36 -116.5t-113 -43.5z" />
    <glyph glyph-name="uni0408" unicode="&#x408;" horiz-adv-x="678" 
d="M-135 -430q-63 0 -106 8t-81 19v253q35 -7 75 -13.5t89 -6.5q66 0 115 27t83 82.5t52 142.5l293 1380h305l-303 -1423q-36 -168 -103.5 -271t-170.5 -150.5t-248 -47.5z" />
    <glyph glyph-name="uni0409" unicode="&#x409;" horiz-adv-x="1960" 
d="M82 -20q-41 0 -77.5 7t-65.5 17v254q24 -9 47.5 -14.5t52.5 -5.5q44 0 84 18.5t80 74.5t84 169q27 70 58.5 163.5t67 213t75.5 265.5t85 320h844l-119 -561h68q172 0 280 -51t158.5 -141t50.5 -207q0 -127 -42 -221t-122 -156.5t-193.5 -93.5t-256.5 -31h-438l254 1204
h-254q-29 -117 -59.5 -230t-61 -216t-59 -190t-54.5 -152q-67 -175 -135.5 -269.5t-152.5 -130.5t-199 -36zM1161 254h119q73 0 124 18t82 50.5t45.5 76t14.5 93.5q0 74 -47.5 114.5t-144.5 40.5h-109z" />
    <glyph glyph-name="uni040A" unicode="&#x40a;" horiz-adv-x="1919" 
d="M53 0l309 1462h306l-119 -561h401l121 561h305l-119 -561h86q163 0 267.5 -49t154.5 -137.5t50 -208.5q0 -128 -42 -223.5t-121.5 -158t-191 -93.5t-250.5 -31h-448l137 647h-403l-138 -647h-305zM1120 254h127q94 0 150.5 31.5t82 84t25.5 115.5q0 79 -47.5 120.5
t-144.5 41.5h-109z" />
    <glyph glyph-name="uni040B" unicode="&#x40b;" horiz-adv-x="1520" 
d="M264 0l256 1204h-352l55 258h1061l-55 -258h-404l-57 -272h225q195 0 293 -90t98 -250q0 -28 -5.5 -73t-16.5 -101l-84 -418h-309l100 471q5 25 7.5 47.5t2.5 32.5q0 53 -27.5 88t-121.5 35h-217l-144 -674h-305z" />
    <glyph glyph-name="uni040C" unicode="&#x40c;" horiz-adv-x="1219" 
d="M53 0l309 1462h306l-146 -684l541 684h344l-582 -723l295 -739h-338l-272 719l-152 -719h-305zM702 1585v25q34 38 73.5 90.5t78 108.5t70.5 104h335v-17q-22 -27 -64 -68.5t-93 -87t-101.5 -86.5t-89.5 -69h-209z" />
    <glyph glyph-name="uni040D" unicode="&#x40d;" horiz-adv-x="1546" 
d="M53 0l309 1462h281l-147 -692q-11 -52 -26 -115t-30 -125t-28 -112h10l764 1044h370l-309 -1462h-276l145 688q13 60 26 119.5t27.5 122.5t30.5 131l-8 2l-764 -1063h-375zM979 1585q-42 41 -89 94.5t-88 109.5t-65 103v21h311q12 -46 29 -97t39 -103.5t47 -102.5v-25
h-184z" />
    <glyph glyph-name="uni040E" unicode="&#x40e;" horiz-adv-x="1225" 
d="M242 -20q-49 0 -107 8t-104 24v267q47 -23 99 -31t99 -8q46 0 81 15t61.5 40.5t48.5 58t43 66.5l-285 1042h307l154 -631q4 -16 9.5 -41.5t11 -54t8.5 -55.5q18 43 36 83.5t31 65.5l344 633h334l-602 -1030q-86 -147 -161 -248t-169.5 -152.5t-238.5 -51.5zM799 1585
q-167 0 -256.5 45.5t-123.5 117t-34 148.5q0 13 1.5 25t3.5 22h266q-1 -16 -1.5 -26t-0.5 -21q0 -73 45 -106t125 -33q92 0 148 41t81 145h272q-27 -108 -85 -188.5t-163.5 -125t-277.5 -44.5z" />
    <glyph glyph-name="uni040F" unicode="&#x40f;" horiz-adv-x="1423" 
d="M346 -426l92 426h-385l309 1462h308l-256 -1204h460l256 1204h304l-310 -1462h-383l-92 -426h-303z" />
    <glyph glyph-name="uni0410" unicode="&#x410;" horiz-adv-x="1286" 
d="M-123 0l766 1462h373l147 -1462h-297l-24 348h-473l-172 -348h-320zM494 608h333l-26 377q-4 60 -8 121t-2 125h-5q-19 -55 -44 -110t-56 -117z" />
    <glyph glyph-name="uni0411" unicode="&#x411;" horiz-adv-x="1212" 
d="M53 0l309 1462h822l-54 -254h-520l-65 -307h67q172 0 280 -51.5t159 -143.5t51 -214q0 -123 -42.5 -215t-122.5 -153.5t-193.5 -92.5t-256.5 -31h-434zM408 254h100q107 0 169 31t89 82t27 110q0 85 -48 127.5t-145 42.5h-108z" />
    <glyph glyph-name="uni0412" unicode="&#x412;" horiz-adv-x="1270" 
d="M53 0l309 1462h426q140 0 244 -32.5t161.5 -104t57.5 -188.5q0 -99 -37.5 -175.5t-108.5 -127t-173 -72.5v-8q100 -26 159.5 -96.5t59.5 -180.5q0 -166 -76 -271.5t-206.5 -155.5t-293.5 -50h-522zM412 256h180q75 0 131 25t87.5 74t31.5 120q0 77 -45.5 119.5
t-137.5 42.5h-165zM545 883h149q73 0 127.5 19.5t84.5 61t30 107.5q0 68 -42 102.5t-128 34.5h-152z" />
    <glyph glyph-name="uni0413" unicode="&#x413;" horiz-adv-x="1030" 
d="M53 0l309 1462h814l-54 -254h-512l-256 -1208h-301z" />
    <glyph glyph-name="uni0414" unicode="&#x414;" horiz-adv-x="1475" 
d="M-197 -426l144 684h129q78 113 152 241.5t144 276t137 318.5t132 368h766l-256 -1204h186l-145 -684h-303l92 426h-784l-93 -426h-301zM414 258h424l202 946h-200q-36 -103 -81 -222.5t-98.5 -245.5t-115.5 -248t-131 -230z" />
    <glyph glyph-name="uni0415" unicode="&#x415;" horiz-adv-x="1110" 
d="M53 0l309 1462h818l-54 -254h-512l-67 -321h477l-55 -254h-477l-80 -377h512l-54 -256h-817z" />
    <glyph glyph-name="uni0416" unicode="&#x416;" horiz-adv-x="1776" 
d="M-125 0l619 780l-279 682h303l266 -684l146 684h293l-146 -684l537 684h328l-582 -723l295 -739h-316l-274 719l-152 -719h-292l151 717l-555 -717h-342z" />
    <glyph glyph-name="uni0417" unicode="&#x417;" horiz-adv-x="1221" 
d="M465 -20q-149 0 -249 19.5t-175 59.5v263q94 -51 197.5 -75t201.5 -24q76 0 139 13.5t108.5 41.5t70 73t24.5 108q0 100 -84 140t-235 40h-141l51 242h127q97 0 184.5 16.5t143 59.5t55.5 124q0 71 -47.5 112.5t-141.5 41.5t-183 -33t-177 -90l-109 209
q117 75 240.5 118.5t304.5 43.5q134 0 230.5 -46.5t148 -124t51.5 -169.5q0 -120 -53 -200t-147 -122.5t-216 -50.5v-8q103 -12 171.5 -56.5t103.5 -111.5t35 -148q0 -109 -40 -195.5t-118.5 -147t-196.5 -92t-274 -31.5z" />
    <glyph glyph-name="uni0418" unicode="&#x418;" horiz-adv-x="1546" 
d="M53 0l309 1462h281l-147 -692q-11 -52 -26 -115t-30 -125t-28 -112h10l764 1044h370l-309 -1462h-276l145 688q13 60 26 119.5t27.5 122.5t30.5 131l-8 2l-764 -1063h-375z" />
    <glyph glyph-name="uni0419" unicode="&#x419;" horiz-adv-x="1546" 
d="M53 0l309 1462h281l-147 -692q-11 -52 -26 -115t-30 -125t-28 -112h10l764 1044h370l-309 -1462h-276l145 688q13 60 26 119.5t27.5 122.5t30.5 131l-8 2l-764 -1063h-375zM985 1585q-167 0 -256.5 45.5t-123.5 117t-34 148.5q0 13 1.5 25t3.5 22h266q-1 -16 -1.5 -26
t-0.5 -21q0 -73 45 -106t125 -33q92 0 148 41t81 145h272q-27 -108 -85 -188.5t-163.5 -125t-277.5 -44.5z" />
    <glyph glyph-name="uni041A" unicode="&#x41a;" horiz-adv-x="1219" 
d="M53 0l309 1462h306l-146 -684l541 684h344l-582 -723l295 -739h-338l-272 719l-152 -719h-305z" />
    <glyph glyph-name="uni041B" unicode="&#x41b;" horiz-adv-x="1423" 
d="M82 -20q-41 0 -77.5 7t-65.5 17v254q24 -9 47.5 -14.5t52.5 -5.5q44 0 84 18.5t80 74.5t84 169q27 70 58.5 163.5t67 213t75.5 265.5t85 320h861l-312 -1462h-303l256 1204h-272q-23 -94 -47.5 -185.5t-49 -177t-48.5 -163t-46.5 -144t-42.5 -118.5
q-67 -175 -135.5 -269.5t-152.5 -130.5t-199 -36z" />
    <glyph glyph-name="uni041C" unicode="&#x41c;" horiz-adv-x="1802" 
d="M53 0l309 1462h404l65 -1093h9l549 1093h423l-309 -1462h-280l145 692q15 69 34 148t39 156t36 137h-9l-569 -1133h-281l-61 1133h-8q-5 -44 -17 -119t-27.5 -162.5t-33.5 -171.5l-143 -680h-275z" />
    <glyph glyph-name="uni041D" unicode="&#x41d;" horiz-adv-x="1434" 
d="M53 0l309 1462h306l-121 -573h471l121 573h305l-309 -1462h-306l134 631h-471l-134 -631h-305z" />
    <glyph glyph-name="uni041E" unicode="&#x41e;" horiz-adv-x="1495" 
d="M666 -20q-178 0 -298.5 69t-182.5 194.5t-62 293.5q0 114 20.5 228t62 220t105 197t149.5 159t195 106t242 38q266 0 400.5 -149.5t134.5 -397.5q0 -119 -19.5 -236t-60 -224t-103 -197.5t-147.5 -158t-193.5 -105t-242.5 -37.5zM688 240q60 0 115 22t103 63.5t87.5 102
t67.5 137t43.5 168.5t15.5 197q0 135 -62.5 216t-185.5 81q-63 0 -120.5 -25t-106 -71t-87.5 -109t-67 -140t-42.5 -164t-14.5 -181q0 -97 30 -163.5t87 -100t137 -33.5z" />
    <glyph glyph-name="uni041F" unicode="&#x41f;" horiz-adv-x="1423" 
d="M53 0l309 1462h1072l-310 -1462h-305l256 1204h-461l-256 -1204h-305z" />
    <glyph glyph-name="uni0420" unicode="&#x420;" horiz-adv-x="1249" 
d="M53 0l309 1462h408q178 0 285.5 -53.5t156 -149.5t48.5 -223q0 -130 -48 -227t-134.5 -161.5t-202.5 -96t-252 -31.5h-156l-109 -520h-305zM522 774h125q91 0 159.5 30t107 87t38.5 137q0 92 -48.5 136t-145.5 44h-144z" />
    <glyph glyph-name="uni0421" unicode="&#x421;" horiz-adv-x="1253" 
d="M659 -20q-177 0 -296 70.5t-179.5 199t-60.5 303.5q0 129 29.5 261t89.5 252.5t153 214.5t220 149t290 55q139 0 236 -26t194 -79l-118 -250q-71 41 -145.5 69t-166.5 28q-99 0 -176 -40t-132.5 -108.5t-91.5 -154t-53.5 -177.5t-17.5 -178q0 -166 69 -247.5t218 -81.5
q83 0 168 21.5t170 55.5v-260q-61 -24 -163.5 -50.5t-236.5 -26.5z" />
    <glyph glyph-name="uni0422" unicode="&#x422;" horiz-adv-x="1087" 
d="M266 0l254 1204h-352l55 258h1010l-55 -258h-353l-254 -1204h-305z" />
    <glyph glyph-name="uni0423" unicode="&#x423;" horiz-adv-x="1225" 
d="M242 -20q-49 0 -107 8t-104 24v267q47 -23 99 -31t99 -8q46 0 81 15t61.5 40.5t48.5 58t43 66.5l-285 1042h307l154 -631q4 -16 9.5 -41.5t11 -54t8.5 -55.5q18 43 36 83.5t31 65.5l344 633h334l-602 -1030q-86 -147 -161 -248t-169.5 -152.5t-238.5 -51.5z" />
    <glyph glyph-name="uni0424" unicode="&#x424;" horiz-adv-x="1671" 
d="M557 -20l49 223q-182 14 -287.5 86.5t-150.5 179t-45 221.5q0 154 53.5 267t150 187.5t227.5 113.5t286 45l37 180h284l-37 -180q173 -14 279.5 -82.5t155.5 -172.5t49 -227q0 -143 -48 -256t-140 -192.5t-225 -122.5t-304 -45l-49 -225h-285zM657 444l131 617
q-81 -5 -147.5 -31.5t-114 -73.5t-73 -114t-25.5 -154q0 -68 24 -122.5t75 -86.5t130 -35zM942 444q87 6 154 34t113.5 76.5t70 115.5t23.5 151q0 67 -24.5 120.5t-75.5 85.5t-130 34z" />
    <glyph glyph-name="uni0425" unicode="&#x425;" horiz-adv-x="1241" 
d="M-117 0l576 764l-238 698h320l153 -518l363 518h344l-545 -725l268 -737h-331l-172 543l-396 -543h-342z" />
    <glyph glyph-name="uni0426" unicode="&#x426;" horiz-adv-x="1501" 
d="M938 -426l92 426h-977l309 1462h308l-256 -1204h460l256 1204h304l-258 -1216h208l-143 -672h-303z" />
    <glyph glyph-name="uni0427" unicode="&#x427;" horiz-adv-x="1378" 
d="M774 0l119 561q-73 -34 -164.5 -60t-183.5 -26q-90 0 -172.5 31t-135.5 101.5t-53 189.5q0 26 3 55t10 61l112 549h305l-108 -516q-4 -23 -7 -43t-3 -39q0 -64 40 -97.5t113 -33.5q79 0 152 21t143 53l139 655h306l-310 -1462h-305z" />
    <glyph glyph-name="uni0428" unicode="&#x428;" horiz-adv-x="2056" 
d="M53 0l309 1462h314l-256 -1204h381l256 1204h315l-256 -1204h381l256 1204h313l-309 -1462h-1704z" />
    <glyph glyph-name="uni0429" unicode="&#x429;" horiz-adv-x="2134" 
d="M1571 -426l92 426h-1610l309 1462h314l-256 -1204h381l256 1204h315l-256 -1204h381l256 1204h313l-258 -1216h209l-143 -672h-303z" />
    <glyph glyph-name="uni042A" unicode="&#x42a;" horiz-adv-x="1425" 
d="M266 0l254 1204h-352l55 258h658l-119 -561h67q173 0 281 -51.5t158.5 -143.5t50.5 -214q0 -123 -42.5 -215t-122 -153.5t-193 -92.5t-256.5 -31h-439zM625 254h100q107 0 169 31t89 82t27 110q0 85 -48 127.5t-145 42.5h-108z" />
    <glyph glyph-name="uni042B" unicode="&#x42b;" horiz-adv-x="1812" 
d="M53 0l309 1462h306l-119 -561h37q172 0 280 -51.5t158.5 -143.5t50.5 -214q0 -123 -42 -215t-122 -153.5t-193.5 -92.5t-256.5 -31h-408zM412 254h69q80 0 134.5 18t87.5 49t48 71t15 85q0 85 -48 127.5t-145 42.5h-77zM1200 0l309 1462h314l-310 -1462h-313z" />
    <glyph glyph-name="uni042C" unicode="&#x42c;" horiz-adv-x="1212" 
d="M53 0l309 1462h306l-119 -561h67q173 0 281 -51.5t158.5 -143.5t50.5 -214q0 -123 -42.5 -215t-122 -153.5t-193 -92.5t-256.5 -31h-439zM412 254h100q80 0 134.5 18t87.5 49t48 71t15 85q0 85 -48 127.5t-145 42.5h-108z" />
    <glyph glyph-name="uni042D" unicode="&#x42d;" horiz-adv-x="1255" 
d="M424 -20q-120 0 -217 18.5t-180 64.5v271q69 -38 132 -59t120.5 -29t109.5 -8q116 0 202 42t146 125t99 205h-539l53 254h527q2 13 2 25.5v25.5q0 103 -28.5 172t-86 104.5t-143.5 35.5q-89 0 -159.5 -20.5t-162.5 -57.5l-80 246q97 41 209 65.5t231 24.5
q175 0 293 -66.5t178 -193t60 -305.5q0 -132 -27.5 -265.5t-85.5 -254.5t-148.5 -215.5t-216 -149.5t-288.5 -55z" />
    <glyph glyph-name="uni042E" unicode="&#x42e;" horiz-adv-x="2064" 
d="M1278 -20q-167 0 -281.5 69t-173.5 194.5t-59 293.5q0 23 1.5 47.5t2.5 46.5h-276l-134 -631h-305l309 1462h306l-121 -573h262q34 122 92.5 229.5t142.5 190t195.5 129.5t251.5 47q251 0 378.5 -149.5t127.5 -397.5q0 -122 -18.5 -240t-56 -225t-96 -197t-138 -156.5
t-182 -103t-228.5 -36.5zM1300 240q53 0 102 22t92 63.5t78 102t60.5 137t39.5 168.5t14 197q0 135 -55.5 216t-166.5 81q-56 0 -106.5 -25t-94 -71t-78.5 -109t-59.5 -140t-37.5 -164t-13 -181q0 -97 27 -163.5t77.5 -100t120.5 -33.5z" />
    <glyph glyph-name="uni042F" unicode="&#x42f;" horiz-adv-x="1255" 
d="M-125 0l514 657q-92 59 -144 134t-52 198q0 105 36.5 191.5t109.5 149.5t183.5 97.5t257.5 34.5h486l-310 -1462h-305l119 561h-117l-415 -561h-363zM715 813h108l84 395h-135q-63 0 -111.5 -14.5t-81.5 -43t-50 -70.5t-17 -97q0 -91 62 -130.5t141 -39.5z" />
    <glyph glyph-name="uni0430" unicode="&#x430;" horiz-adv-x="1217" 
d="M406 -20q-81 0 -153 40t-117.5 129t-45.5 236q0 110 23.5 218t68 204.5t108 171t144 117.5t174.5 43q71 0 124 -20.5t91 -57.5t62 -86h8l57 143h232l-238 -1118h-225l14 145h-8q-40 -49 -87 -86t-104 -58t-128 -21zM524 223q62 0 115 48.5t91 126.5t54 165
q8 40 11.5 80.5t3.5 87.5q0 71 -37.5 117.5t-102.5 46.5q-44 0 -83.5 -28.5t-72.5 -78t-57.5 -113t-37.5 -134.5t-13 -142q0 -87 34 -131.5t95 -44.5z" />
    <glyph glyph-name="uni0431" unicode="&#x431;" horiz-adv-x="1198" 
d="M522 -20q-126 0 -218.5 51t-143.5 157.5t-51 272.5q0 119 19.5 240t58.5 234.5t97.5 212.5t137 174.5t176.5 119.5q55 24 133 43.5t166.5 34t176.5 26.5t163 21l31 -258q-64 -9 -142.5 -20t-154.5 -22.5t-133 -23.5q-93 -18 -164 -58t-121 -114.5t-82 -198.5l6 -2
q53 66 135.5 119t196.5 53q99 0 165 -44.5t99 -126.5t33 -197q0 -127 -35 -250.5t-106.5 -224t-181.5 -160t-261 -59.5zM551 227q43 0 81.5 25t70 69t54 100t34.5 118.5t12 124.5q0 72 -27.5 112.5t-87.5 40.5q-49 0 -97 -28.5t-87.5 -68.5t-65.5 -75q-9 -43 -16.5 -95.5
t-7.5 -98.5q0 -68 14 -118.5t44 -78t79 -27.5z" />
    <glyph glyph-name="uni0432" unicode="&#x432;" horiz-adv-x="1174" 
d="M567 -20q-152 0 -259 53t-162.5 154t-55.5 245q0 112 25.5 216.5t75.5 193.5t125 155.5t174 104t221 37.5q120 0 210.5 -35.5t141.5 -102.5t51 -163q0 -84 -31.5 -137.5t-86 -84t-124.5 -47.5v-8q73 -19 126 -72t53 -151q0 -94 -51.5 -175.5t-158.5 -132t-274 -50.5z
M571 190q57 0 96.5 20t60 54.5t20.5 79.5q0 44 -21 73t-67 43.5t-121 14.5h-146q-1 -15 -1.5 -31.5t-0.5 -31.5q0 -120 52 -171t128 -51zM434 682h201q58 0 98.5 15.5t62 46.5t21.5 77q0 48 -33 74.5t-86 26.5q-58 0 -108.5 -30t-90 -84t-65.5 -126z" />
    <glyph glyph-name="uni0433" unicode="&#x433;" horiz-adv-x="981" 
d="M406 -20q-102 0 -190 31t-142 101t-54 185q0 93 34.5 155.5t91.5 103t126 68t138 50.5q99 33 145 55t59 44t13 54q0 41 -29 63.5t-92 22.5q-69 0 -133 -20.5t-133 -54.5l-74 213q77 37 178 62.5t213 25.5q103 0 187.5 -29.5t135 -96t50.5 -177.5q0 -94 -32.5 -156.5
t-89.5 -103.5t-130.5 -71t-155.5 -59q-64 -22 -108 -41t-66 -42.5t-22 -59.5q0 -43 31.5 -71.5t111.5 -28.5q58 0 114.5 13t110 34t101.5 43v-227q-85 -42 -172.5 -64t-216.5 -22z" />
    <glyph glyph-name="uni0434" unicode="&#x434;" horiz-adv-x="1231" 
d="M522 -20q-150 0 -245.5 58t-141 158t-45.5 226q0 115 23 212.5t65.5 174.5t102 131t133.5 82.5t159 28.5q70 0 123 -24.5t91.5 -66t64.5 -92.5h8q2 17 2 36.5v29.5q0 201 -62 294t-202 93q-47 0 -102.5 -11t-100.5 -30l-63 238q65 24 145 36.5t168 12.5
q184 0 298.5 -78.5t168 -221.5t53.5 -339q0 -116 -15.5 -230.5t-47.5 -220.5t-83 -196.5t-122.5 -158t-164.5 -105t-210 -37.5zM539 225q51 0 92 24t72.5 66t55 98t40 120.5t26.5 132.5q-13 44 -37.5 78.5t-60 54.5t-82.5 20t-86 -19t-70 -54.5t-52.5 -85.5t-32.5 -112.5
t-11 -135.5q0 -88 38 -137.5t108 -49.5z" />
    <glyph glyph-name="uni0435" unicode="&#x435;" horiz-adv-x="1141" 
d="M532 -20q-131 0 -230.5 47.5t-155.5 143.5t-56 241q0 140 40 270.5t119.5 233.5t196 163t269.5 60q188 0 281.5 -85.5t93.5 -219.5q0 -88 -39.5 -160t-119.5 -123.5t-201 -79t-284 -27.5h-51q-1 -12 -1.5 -21t-0.5 -20q0 -90 52 -143t147 -53q88 0 160 20t170 66v-227
q-88 -43 -179 -64.5t-211 -21.5zM428 647h45q116 0 188.5 25t106 66t33.5 89t-27.5 71.5t-77.5 23.5q-56 0 -111 -35t-97 -97t-60 -143z" />
    <glyph glyph-name="uni0436" unicode="&#x436;" horiz-adv-x="1966" 
d="M115 -20q-43 0 -77 4t-58 8l47 239q20 -3 38.5 -5.5t40.5 -2.5q57 0 102.5 27t80 74t58 108t35 130.5t11.5 139.5q0 95 -36 144t-101 49q-34 0 -62 -8t-59 -19v244q31 11 74.5 19t103.5 8q167 0 272 -109.5t105 -322.5v-27.5t-2 -26.5h166l100 465h289l-100 -465h157
q26 104 74.5 192.5t118 154.5t159.5 102.5t199 36.5q44 0 77.5 -4t58.5 -9l-52 -239q-19 3 -38 5.5t-42 2.5q-56 0 -101.5 -27t-80 -74t-58 -108t-35 -130t-11.5 -140q0 -95 36.5 -144t100.5 -49q34 0 62 8.5t59 18.5v-244q-31 -10 -74.5 -18t-103.5 -8q-111 0 -196 47
t-133 142t-48 237q0 14 1 27.5t1 17.5h-174l-96 -451h-289l96 451h-152q-26 -102 -73.5 -188.5t-116 -149.5t-157.5 -98t-197 -35z" />
    <glyph glyph-name="uni0437" unicode="&#x437;" horiz-adv-x="1073" 
d="M397 -20q-113 0 -212 22t-160 53v248q68 -34 160.5 -61t201.5 -27q71 0 129.5 13t93.5 44.5t35 87.5q0 57 -44 87t-132 30h-176l45 211h125q85 0 142 11.5t85.5 39t28.5 76.5q0 47 -34 72.5t-120 25.5q-67 0 -150.5 -22t-164.5 -57l-72 219q98 38 207 62t233 24
q115 0 206 -28t143.5 -88.5t52.5 -160.5q0 -81 -34.5 -135t-93 -87.5t-132.5 -53.5v-8q83 -23 136.5 -77t53.5 -149q0 -111 -59 -195t-181 -130.5t-313 -46.5z" />
    <glyph glyph-name="uni0438" unicode="&#x438;" horiz-adv-x="1237" 
d="M395 -20q-96 0 -159 39t-94 111.5t-31 170.5q0 37 6 95t18 118l127 604h301l-137 -653q-7 -34 -11.5 -64t-4.5 -55q0 -63 27 -93t81 -30q69 0 123.5 58.5t95.5 157t66 216.5l98 463h301l-237 -1118h-230l21 207h-11q-43 -66 -94.5 -117.5t-114.5 -80.5t-141 -29z" />
    <glyph glyph-name="uni0439" unicode="&#x439;" horiz-adv-x="1237" 
d="M395 -20q-96 0 -159 39t-94 111.5t-31 170.5q0 37 6 95t18 118l127 604h301l-137 -653q-7 -34 -11.5 -64t-4.5 -55q0 -63 27 -93t81 -30q69 0 123.5 58.5t95.5 157t66 216.5l98 463h301l-237 -1118h-230l21 207h-11q-43 -66 -94.5 -117.5t-114.5 -80.5t-141 -29z
M756 1241q-167 0 -256.5 45.5t-123.5 117t-34 148.5q0 13 1.5 25t3.5 22h266q-1 -16 -1.5 -26t-0.5 -21q0 -73 45 -106t125 -33q92 0 148 41t81 145h272q-27 -108 -85 -188.5t-163.5 -125t-277.5 -44.5z" />
    <glyph glyph-name="uni043A" unicode="&#x43a;" horiz-adv-x="1184" 
d="M37 0l239 1118h302l-111 -520l440 520h344l-479 -561l277 -557h-338l-256 545l-117 -545h-301z" />
    <glyph glyph-name="uni043B" unicode="&#x43b;" horiz-adv-x="1260" 
d="M90 -20q-46 0 -80 5.5t-69 18.5v248q21 -9 41 -12.5t43 -3.5q39 0 68 28t52.5 76.5t45.5 111.5t47 134q50 141 98.5 245.5t114.5 172.5t165.5 101.5t251.5 33.5q104 0 196 -18t150 -40l-227 -1081h-301l188 885q-15 3 -30.5 5.5t-32.5 2.5q-82 0 -131.5 -47t-87.5 -139.5
t-84 -229.5q-34 -103 -68.5 -193t-79 -158.5t-109.5 -107t-161 -38.5z" />
    <glyph glyph-name="uni043C" unicode="&#x43c;" horiz-adv-x="1581" 
d="M45 0l236 1118h415l43 -780h6l402 780h428l-240 -1118h-278l123 553q17 78 35.5 150t31.5 118h-6l-424 -821h-289l-45 821h-4q-10 -82 -22.5 -148.5t-26.5 -131.5l-108 -541h-277z" />
    <glyph glyph-name="uni043D" unicode="&#x43d;" horiz-adv-x="1262" 
d="M37 0l239 1118h304l-93 -430h349l90 430h301l-238 -1118h-301l96 461h-346l-98 -461h-303z" />
    <glyph glyph-name="uni043E" unicode="&#x43e;" horiz-adv-x="1198" 
d="M518 -20q-126 0 -222.5 52t-151 148.5t-54.5 229.5q0 119 23.5 227.5t71 200t119 159t166.5 105t214 37.5q130 0 225 -52.5t147 -151.5t52 -239q0 -114 -22.5 -219.5t-68.5 -196t-116 -158t-165.5 -105t-217.5 -37.5zM543 225q50 0 91 25.5t73 71t53.5 105t33 128.5
t11.5 141q0 57 -13.5 101.5t-45 70t-84.5 25.5q-55 0 -98.5 -30.5t-75.5 -81.5t-53 -114t-31.5 -129.5t-10.5 -127.5q0 -91 37 -138t113 -47z" />
    </font>
</defs>
</svg>
